Tags
Language
Tags
April 2024
Su Mo Tu We Th Fr Sa
31 1 2 3 4 5 6
7 8 9 10 11 12 13
14 15 16 17 18 19 20
21 22 23 24 25 26 27
28 29 30 1 2 3 4

Midnight Sun - Walking Circles (1972) {2013, Reissue}

Posted By: popsakov
Midnight Sun - Walking Circles (1972) {2013, Reissue}

Midnight Sun - Walking Circles (1972) {2013, Reissue}
EAC Rip | FLAC (Img) + Cue + Log ~ 234 Mb | MP3 CBR320 ~ 90 Mb
Full Scans ~ 39 Mb | 00:37:12 | RAR 5% Recovery
Progressive Rock, Jazz Rock, Fusion | Aurora #AUCD5033

Danish 70's (1971-1974 ) progrock band, a second incarnation of Rainbow Band as it is essentially the same band that had to change their name in July 1971 as a Canadian band had already registered the name and the band was about to release ind the US and UK. As Rainbow Band, a "Supergroup" of danish rock and jazz artists, they releases their selftitled debut album in 1970. The album was re-recorded with new vocalist Allan Mortensen in 1971 and re-released again in the second version under the new band name, Midnight Sun. As Midnight Sun the band released two albums and two singles. Bent Hesselmann went on as a solo artist, releasing the now rare album "Bøsse". Peer Frost left the band to join Savage Rose. Allan Mortensen also persued a solo career.

~ Discogs
Midnight Sun - Walking Circles (1972) {2013, Reissue}


***************

Midnight Sun - Walking Circles (1972) {2013, Reissue}

Midnight Sun - Walking Circles (1972) {2013, Reissue}

Track List:

01. Can You Hear The Music Play? [4:05]
02. Country Song [5:21]
03. A La Turca [4:49]
04. The Way Of Zen [3:51]
05. I've Got A New Mind [4:30]
06. Winds Gonna Blow [5:48]
07. Walking Circles [7:19]
08. I'm Living A Dream [1:29]

Personnel:
Bass, Acoustic Bass – Bo Stief
Congas (Guest) – Simon Koppel
Drums, Percussion – Carsten Smedegård Andreasen
Electric Guitar, Acoustic Guitar – Peer Frost Johansson
Electric Piano (Fender Rhodes), Piano – Niels Brønsted
Tenor Saxophone, Soprano Saxophone, Flute – Bent Hesselmann
Violin (Guest) – Finn Ziegler
Vocals, Harmonica – Frank Lauridsen
Producer – Freddy Hansson & Midnight Sun

Exact Audio Copy V1.3 from 2. September 2016

Отчёт EAC об извлечении, выполненном 13. февраля 2018, 18:10

Midnight Sun / Walking Circles

Дисковод: ASUS DRW-24B3ST Adapter: 1 ID: 0

Режим чтения : Достоверность
Использование точного потока : Да
Отключение кэша аудио : Да
Использование указателей C2 : Нет

Коррекция смещения при чтении : 6
Способность читать области Lead-in и Lead-out : Нет
Заполнение пропущенных сэмплов тишиной : Да
Удаление блоков с тишиной в начале и конце : Нет
При вычислениях CRC использовались нулевые сэмплы : Да
Интерфейс : Встроенный Win32-интерфейс для Win NT/2000

Выходной формат : Пользовательский кодировщик
Выбранный битрейт : 1024 kBit/s
Качество : Высокий
Добавление ID3-тега : Нет
Утилита сжатия : C:\Program Files (x86)\Exact Audio Copy\Flac\flac-1.3.2-win\win64\flac.exe
Дополнительные параметры : -V -8 -T "Date=%year%" -T "Genre=%genre%" %source%


TOC извлечённого CD

Трек | Старт | Длительность | Начальный сектор | Конечный сектор
––––––––––––––––––––––––––––––––––-
1 | 0:00.00 | 4:05.17 | 0 | 18391
2 | 4:05.17 | 5:21.29 | 18392 | 42495
3 | 9:26.46 | 4:49.32 | 42496 | 64202
4 | 14:16.03 | 3:50.52 | 64203 | 81504
5 | 18:06.55 | 4:29.44 | 81505 | 101723
6 | 22:36.24 | 5:48.02 | 101724 | 127825
7 | 28:24.26 | 7:18.71 | 127826 | 160746
8 | 35:43.22 | 1:28.62 | 160747 | 167408


Характеристики диапазона извлечения и сообщения об ошибках

Выбранный диапазон

Имя файла C:\Torrents - C\Midnight Sun - 1972 - Walking Circles\Midnight Sun - Walking Circles.wav

Пиковый уровень 95.7 %
Скорость извлечения 3.1 X
Качество диапазона 100.0 %
CRC теста D985DC7A
CRC копии D985DC7A
Копирование… OK

Ошибок не произошло


AccurateRip: сводка

Трек 1 отсутствует в базе данных
Трек 2 отсутствует в базе данных
Трек 3 отсутствует в базе данных
Трек 4 отсутствует в базе данных
Трек 5 отсутствует в базе данных
Трек 6 отсутствует в базе данных
Трек 7 отсутствует в базе данных
Трек 8 отсутствует в базе данных

Ни одного трека нет в базе AccurateRip

Конец отчёта

==== Контрольная сумма отчёта 8A317F16943130474368E6C010BF7F008D93927E95583B5643696966567BC770 ====

Midnight Sun - Walking Circles (1972) {2013, Reissue}


All thanks go to Копысов

>>> My Blog <<<

DOWNLOAD: