Tags
Language
Tags
January 2023
Su Mo Tu We Th Fr Sa
1 2 3 4 5 6 7
8 9 10 11 12 13 14
15 16 17 18 19 20 21
22 23 24 25 26 27 28
29 30 31 1 2 3 4

Midnight Sun - Midnight Sun (1971) [Reissue 1999] (Repost)

Posted By: gribovar
Midnight Sun - Midnight Sun (1971) [Reissue 1999] (Repost)

Midnight Sun - Midnight Sun (1971) [Reissue 1999]
EAC Rip | FLAC (tracks+.cue+log) - 312 MB | MP3 CBR 320 kbps (LAME 3.93) - 123 MB | Covers (18 MB) included
Genre: Progressive Rock | RAR 3% Rec. | Label: Black Rose Records (BR 139)

Midnight Sun were a Progressive Rock group from Denmark, whose style is influenced by such acts as Traffic, Burnin' Red Ivanhoe, and later on, Blood Sweat And Tears. They first started out as Rainbow Band, but soon had to change their name, after it was found that a Canadian group had already taken it. They released four studio albums during their career, the first two or three probably being the more famous. Their albums are also of serious value to collectors and were all designed by the famous Roger Dean.

Tracklist:
01. Talkin'
02. King Of The Sun
03. Nobody
04. Wher'e You Going To Be
05. B.M.
06. Sippin' Wine
07. Living On The Hill
08. Rainbow Song

Total time: 44:14

Exact Audio Copy V0.99 prebeta 4 from 23. January 2008

EAC extraction logfile from 9. January 2010, 19:13

Midnight Sun / Midnight Sun

Used drive : ASUS DRW-2014S1 Adapter: 1 ID: 0

Read mode : Secure
Utilize accurate stream : Yes
Defeat audio cache : Yes
Make use of C2 pointers : No

Read offset correction : 6
Overread into Lead-In and Lead-Out : No
Fill up missing offset samples with silence : Yes
Delete leading and trailing silent blocks : No
Null samples used in CRC calculations : Yes
Used interface : Installed external ASPI interface
Gap handling : Appended to previous track

Used output format : User Defined Encoder
Selected bitrate : 768 kBit/s
Quality : High
Add ID3 tag : No
Command line compressor : C:\Program Files\Exact Audio Copy\FLAC\FLAC.EXE
Additional command line options : -6 -V -T "ARTIST=%a" -T "TITLE=%t" -T "ALBUM=%g" -T "DATE=%y" -T "TRACKNUMBER=%n" -T "GENRE=%m" -T "COMMENT=%e" %s -o %d


TOC of the extracted CD

Track | Start | Length | Start sector | End sector
––––––––––––––––––––––––––––-
1 | 0:00.00 | 5:04.50 | 0 | 22849
2 | 5:04.50 | 4:28.55 | 22850 | 43004
3 | 9:33.30 | 4:56.20 | 43005 | 65224
4 | 14:29.50 | 5:31.67 | 65225 | 90116
5 | 20:01.42 | 2:34.13 | 90117 | 101679
6 | 22:35.55 | 3:06.27 | 101680 | 115656
7 | 25:42.07 | 14:48.30 | 115657 | 182286
8 | 40:30.37 | 3:43.50 | 182287 | 199061


Track 1

Filename C:\byPr0gger\Midnight Sun - st (1971 - 1999, Black Rose)[FLAC]\01. Talkin'.wav

Pre-gap length 0:00:02.00

Peak level 98.0 %
Track quality 100.0 %
Test CRC F19BC127
Copy CRC F19BC127
Accurately ripped (confidence 1) [CD98477B]
Copy OK

Track 2

Filename C:\byPr0gger\Midnight Sun - st (1971 - 1999, Black Rose)[FLAC]\02. King Of The Sun.wav

Pre-gap length 0:00:03.73

Peak level 97.9 %
Track quality 100.0 %
Test CRC DB56A3BE
Copy CRC DB56A3BE
Accurately ripped (confidence 1) [AEFDEFAA]
Copy OK

Track 3

Filename C:\byPr0gger\Midnight Sun - st (1971 - 1999, Black Rose)[FLAC]\03. Nobody.wav

Pre-gap length 0:00:03.73

Peak level 96.7 %
Track quality 100.0 %
Test CRC A5AAA755
Copy CRC A5AAA755
Accurately ripped (confidence 1) [7F452790]
Copy OK

Track 4

Filename C:\byPr0gger\Midnight Sun - st (1971 - 1999, Black Rose)[FLAC]\04. Wher'e You Going To Be.wav

Pre-gap length 0:00:03.73

Peak level 97.7 %
Track quality 100.0 %
Test CRC 321342E7
Copy CRC 321342E7
Accurately ripped (confidence 1) [9F7E0ECD]
Copy OK

Track 5

Filename C:\byPr0gger\Midnight Sun - st (1971 - 1999, Black Rose)[FLAC]\05. B.M..wav

Pre-gap length 0:00:03.73

Peak level 97.2 %
Track quality 100.0 %
Test CRC 241B08F6
Copy CRC 241B08F6
Accurately ripped (confidence 1) [F7487194]
Copy OK

Track 6

Filename C:\byPr0gger\Midnight Sun - st (1971 - 1999, Black Rose)[FLAC]\06. Sippin' Wine.wav

Pre-gap length 0:00:03.73

Peak level 98.0 %
Track quality 100.0 %
Test CRC 8882B64F
Copy CRC 8882B64F
Accurately ripped (confidence 1) [86107C77]
Copy OK

Track 7

Filename C:\byPr0gger\Midnight Sun - st (1971 - 1999, Black Rose)[FLAC]\07. Living On The Hill.wav

Pre-gap length 0:00:03.72

Peak level 98.0 %
Track quality 100.0 %
Test CRC E697C7C2
Copy CRC E697C7C2
Accurately ripped (confidence 1) [141D4017]
Copy OK

Track 8

Filename C:\byPr0gger\Midnight Sun - st (1971 - 1999, Black Rose)[FLAC]\08. Rainbow Song.wav

Pre-gap length 0:00:03.70

Peak level 69.2 %
Track quality 100.0 %
Test CRC 6B9E5903
Copy CRC 6B9E5903
Accurately ripped (confidence 1) [40EF3FC2]
Copy OK


All tracks accurately ripped

No errors occurred

End of status report

[CUETools log; Date: 09.06.2019 14:25:59; Version: 2.1.4]
[CTDB TOCID: 58Plkj2COtGciTPSV00HYuVnJ90-] found.
Track | CTDB Status
1 | (3/3) Accurately ripped
2 | (3/3) Accurately ripped
3 | (3/3) Accurately ripped
4 | (3/3) Accurately ripped
5 | (3/3) Accurately ripped
6 | (3/3) Accurately ripped
7 | (3/3) Accurately ripped
8 | (3/3) Accurately ripped
[AccurateRip ID: 000c82ab-0054c616-5b0a5e08] found.
Track [ CRC | V2 ] Status
01 [cd98477b|29beb1fe] (3+2/7) Accurately ripped
02 [aefdefaa|ac16604c] (3+2/7) Accurately ripped
03 [7f452790|f0ba0016] (3+2/7) Accurately ripped
04 [9f7e0ecd|cefebe77] (3+2/7) Accurately ripped
05 [f7487194|ee5c73c9] (3+2/7) Accurately ripped
06 [86107c77|fcc6bb24] (3+2/7) Accurately ripped
07 [141d4017|fccfa303] (3+2/7) Accurately ripped
08 [40ef3fc2|b87d8bcf] (3+2/7) Accurately ripped
Offsetted by -655:
01 [8a1d3be8] (0/7) No match (V2 was not tested)
02 [f5de170b] (0/7) No match (V2 was not tested)
03 [cdc22a4c] (0/7) No match (V2 was not tested)
04 [d5e83b42] (0/7) No match (V2 was not tested)
05 [1787b14a] (0/7) No match (V2 was not tested)
06 [2921e995] (0/7) No match (V2 was not tested)
07 [b669349e] (0/7) No match (V2 was not tested)
08 [91bcfd9c] (0/7) No match (V2 was not tested)

Track Peak [ CRC32 ] [W/O NULL] [ LOG ]
– 98,0 [EA07EEE2] [A624D411]
01 98,0 [F19BC127] [D7119F37] CRC32
02 97,9 [DB56A3BE] [A724B52D] CRC32
03 96,7 [A5AAA755] [096AE201] CRC32
04 97,7 [321342E7] [5FA97FAC] CRC32
05 97,2 [241B08F6] [AA1774A1] CRC32
06 98,0 [8882B64F] [2A78D56D] CRC32
07 98,0 [E697C7C2] [A3DD8755] CRC32
08 69,2 [6B9E5903] [4B7F75EA] CRC32

Thanks to pr0gger