Subcategories

VA - Midnight in Paris: Music From The Motion Picture (2011)

Posted By: Designol
VA -  Midnight in Paris: Music From The Motion Picture (2011)

VA - Midnight in Paris: Music From The Motion Picture (2011)
EAC | FLAC | Tracks (Cue&Log) ~ 294 Mb (incl 5%) | Mp3 (CBR320/Stereo) ~ 156 Mb (incl 5%) | Scans included
Genre: Soundtrack, Jazz | Label: Madison Gate Records | # none | Time: 00:46:51

The soundtrack to Woody Allen's 2011 Oscar-nominated romantic comedy Midnight in Paris features a variety of jazz tunes and popular songs that are all generally associated with the film's 1920s Paris setting. While Allen actually transports his movie's main character back to the '20s, most of the music here was recorded by contemporary artists who play in an old-school style. To these ends, we get such roiling and urbane Gypsy jazz tracks as Swing 41's "Je Suis Seul Ce Soir," Original Paris Swing's "Recado," and even several Cole Porter vocal numbers by Conal Fowkes – who appears as Porter in the film. Also featured are jaunty classic jazz cuts like Josephine Baker's conga dance number "La Conga Blicoti" and, of course, Sydney Bechet's "Si Tu Vois Ma Mère," which opens the film. Swooning and romantic in tone with a breezy, swinging jazz vibe throughout, the Midnight in Paris soundtrack is a must-have souvenir for traditional jazz lovers and any fan of the film.

Review by Matt Collar, Allmusic.com
VA -  Midnight in Paris: Music From The Motion Picture (2011)



Tracklist:

01. Sidney Bechet - Si Tu Vois Ma Mère (03:14)
02. Swing 41 - Je Suis Seul Ce Soir (05:50)
03. Original Paris Swing - Recado (04:07)
04. Stephane Wrembel - Bistro Fada (03:05)
05. Conal Fowkes - Let's Do It (Let's Fall in Love) (02:57)
06. Conal Fowkes - You've Got That Thing (01:44)
07. Josphine Baker - La Conga Blicoti (02:25)
08. Conal Fowkes - You Do Something to Me (02:00)
09. Daniel May - I Love Penny Sue (03:17)
10. Enoch Light & The Charleston City All Stars - Charleston (02:19)
11. Enoch Light & The Charleston City All Stars - Ain't She Sweet (02:29)
12. Dana Boulé - Parlez-moi d'Amour (03:00)
13. Yrving & Lisa Yeras and Conal Fowkes - Barcarolle from 'The Tales of Hoffman' (02:21)
14. The Czech National Symphony Orchestra - Can-Can from 'Orpheus in the Underworld' (02:27)
15. François Parisi - Ballad Du Paris (03:14)
16. François Parisi - Le Parc De Plaisir (02:12)


Exact Audio Copy V1.0 beta 3 from 29. August 2011

EAC extraction logfile from 14. March 2012, 23:33

Various Artists / Midnight in Paris

Used drive : PLEXTOR CD-R PX-230A Adapter: 1 ID: 0

Read mode : Secure
Utilize accurate stream : Yes
Defeat audio cache : Yes
Make use of C2 pointers : No

Read offset correction : 738
Overread into Lead-In and Lead-Out : No
Fill up missing offset samples with silence : Yes
Delete leading and trailing silent blocks : No
Null samples used in CRC calculations : Yes
Used interface : Native Win32 interface for Win NT & 2000
Gap handling : Appended to previous track

Used output format : User Defined Encoder
Selected bitrate : 896 kBit/s
Quality : High
Add ID3 tag : No
Command line compressor : C:\Program Files\Exact Audio Copy\FLAC\FLAC.EXE
Additional command line options : -6 -V -T "ARTIST=%artist%" -T "TITLE=%title%" -T "ALBUM=%albumtitle%" -T "DATE=%year%" -T "TRACKNUMBER=%tracknr%" -T "GENRE=%genre%" -T "COMMENT=%comment%" -T "ALBUMARTIST=%albuminterpret%" -T "COMPOSER=%composer%" -T "DISCNUMBER=%cdnumber%" -T "TOTALDISCS=%totalcds%" -T "TOTALTRACKS=%numtracks%" %source% -o %dest%


TOC of the extracted CD

Track | Start | Length | Start sector | End sector
––––––––––––––––––––––––––––-
1 | 0:00.00 | 3:14.38 | 0 | 14587
2 | 3:14.38 | 5:50.62 | 14588 | 40899
3 | 9:05.25 | 4:07.60 | 40900 | 59484
4 | 13:13.10 | 3:05.15 | 59485 | 73374
5 | 16:18.25 | 2:57.63 | 73375 | 86712
6 | 19:16.13 | 1:44.06 | 86713 | 94518
7 | 21:00.19 | 2:25.63 | 94519 | 105456
8 | 23:26.07 | 2:00.49 | 105457 | 114505
9 | 25:26.56 | 3:17.68 | 114506 | 129348
10 | 28:44.49 | 2:19.34 | 129349 | 139807
11 | 31:04.08 | 2:29.73 | 139808 | 151055
12 | 33:34.06 | 3:00.18 | 151056 | 164573
13 | 36:34.24 | 2:21.72 | 164574 | 175220
14 | 38:56.21 | 2:27.56 | 175221 | 186301
15 | 41:24.02 | 3:14.30 | 186302 | 200881
16 | 44:38.32 | 2:12.30 | 200882 | 210811


Track 1

Filename C:\Music\01 - Sidney Bechet - Si Tu Vois Ma Mere.wav

Pre-gap length 0:00:02.00

Peak level 97.9 %
Extraction speed 4.9 X
Track quality 99.9 %
Test CRC 37F8BF0D
Copy CRC 37F8BF0D
Track not present in AccurateRip database
Copy OK

Track 2

Filename C:\Music\02 - Swing 41 - Je Suis Seul Ce Soir.wav

Peak level 96.6 %
Extraction speed 5.5 X
Track quality 100.0 %
Test CRC 32874D5B
Copy CRC 32874D5B
Track not present in AccurateRip database
Copy OK

Track 3

Filename C:\Music\03 - Original Paris Swing - Recado.wav

Peak level 96.6 %
Extraction speed 5.3 X
Track quality 100.0 %
Test CRC 60AE4B56
Copy CRC 60AE4B56
Track not present in AccurateRip database
Copy OK

Track 4

Filename C:\Music\04 - Stephane Wrembel - Bistro Fada.wav

Peak level 96.6 %
Extraction speed 5.5 X
Track quality 100.0 %
Test CRC CE487F2B
Copy CRC CE487F2B
Track not present in AccurateRip database
Copy OK

Track 5

Filename C:\Music\05 - Conal Fowkes - Let's Do It (Let's Fall in Love).wav

Peak level 96.6 %
Extraction speed 5.7 X
Track quality 100.0 %
Test CRC C19A6DB8
Copy CRC C19A6DB8
Track not present in AccurateRip database
Copy OK

Track 6

Filename C:\Music\06 - Conal Fowkes - You've Got That Thing.wav

Peak level 96.6 %
Extraction speed 5.2 X
Track quality 100.0 %
Test CRC 66B6B6C7
Copy CRC 66B6B6C7
Track not present in AccurateRip database
Copy OK

Track 7

Filename C:\Music\07 - Josphine Baker - La Conga Blicoti.wav

Peak level 96.6 %
Extraction speed 5.6 X
Track quality 100.0 %
Test CRC CA9F4DEF
Copy CRC CA9F4DEF
Track not present in AccurateRip database
Copy OK

Track 8

Filename C:\Music\08 - Conal Fowkes - You Do Something to Me.wav

Peak level 96.6 %
Extraction speed 5.7 X
Track quality 100.0 %
Test CRC 80EC3FA1
Copy CRC 80EC3FA1
Track not present in AccurateRip database
Copy OK

Track 9

Filename C:\Music\09 - Daniel May - I Love Penny Sue.wav

Peak level 88.6 %
Extraction speed 6.1 X
Track quality 100.0 %
Test CRC 19583303
Copy CRC 19583303
Track not present in AccurateRip database
Copy OK

Track 10

Filename C:\Music\10 - Enoch Light & The Charleston City All Stars - Charleston.wav

Peak level 96.6 %
Extraction speed 5.3 X
Track quality 99.9 %
Test CRC 42A60D5F
Copy CRC 42A60D5F
Track not present in AccurateRip database
Copy OK

Track 11

Filename C:\Music\11 - Enoch Light & The Charleston City All Stars - Ain't She Sweet.wav

Peak level 96.6 %
Extraction speed 6.0 X
Track quality 100.0 %
Test CRC DBDA0C57
Copy CRC DBDA0C57
Track not present in AccurateRip database
Copy OK

Track 12

Filename C:\Music\12 - Dana Boule - Parlez-moi d'Amour.wav

Peak level 86.2 %
Extraction speed 5.8 X
Track quality 99.9 %
Test CRC 7DB680E3
Copy CRC 7DB680E3
Track not present in AccurateRip database
Copy OK

Track 13

Filename C:\Music\13 - Yrving & Lisa Yeras and Conal Fowkes - Barcarolle from 'The Tales of Hoffman'.wav

Peak level 96.6 %
Extraction speed 6.3 X
Track quality 100.0 %
Test CRC CB1429AF
Copy CRC CB1429AF
Track not present in AccurateRip database
Copy OK

Track 14

Filename C:\Music\14 - The Czech National Symphony Orchestra - Can-Can from 'Orpheus in the Underworld'.wav

Peak level 96.6 %
Extraction speed 5.5 X
Track quality 99.9 %
Test CRC F5BBBAAC
Copy CRC F5BBBAAC
Track not present in AccurateRip database
Copy OK

Track 15

Filename C:\Music\15 - Francois Parisi - Ballad Du Paris.wav

Peak level 91.7 %
Extraction speed 6.8 X
Track quality 100.0 %
Test CRC 6EF72350
Copy CRC 6EF72350
Track not present in AccurateRip database
Copy OK

Track 16

Filename C:\Music\16 - Francois Parisi - Le Parc De Plaisir.wav

Peak level 96.6 %
Extraction speed 6.4 X
Track quality 100.0 %
Test CRC 1997A319
Copy CRC 1997A319
Track not present in AccurateRip database
Copy OK


None of the tracks are present in the AccurateRip database

No errors occurred

End of status report

==== Log checksum A02F31C4E4AE4AC450C2244A2128995895DB236B80BBA21B10B0745911119FD0 ====

foobar2000 1.2.1 / Dynamic Range Meter 1.1.1
log date: 2013-01-23 22:38:20

––––––––––––––––––––––––––––––––––––––––
Analyzed: Conal Fowkes / Midnight in Paris (1-3)
Dana Boulé / Midnight in Paris (4)
Daniel May / Midnight in Paris (5)
Enoch Light & The Charleston City All Stars / Midnight in Paris (6-7)
François Parisi / Midnight in Paris (8-9)
Josphine Baker / Midnight in Paris (10)
Original Paris Swing / Midnight in Paris (11)
Sidney Bechet / Midnight in Paris (12)
Stephane Wrembel / Midnight in Paris (13)
Swing 41 / Midnight in Paris (14)
The Czech National Symphony Orchestra / Midnight in Paris (15)
Yrving & Lisa Yeras and Conal Fowkes / Midnight in Paris (16)
––––––––––––––––––––––––––––––––––––––––

DR Peak RMS Duration Track
––––––––––––––––––––––––––––––––––––––––
DR12 -0.30 dB -14.98 dB 2:58 05-Let's Do It (Let's Fall in Love)
DR10 -0.30 dB -12.32 dB 1:44 06-You've Got That Thing
DR9 -0.30 dB -12.60 dB 2:01 08-You Do Something to Me
DR10 -1.29 dB -13.57 dB 3:00 12-Parlez-moi d'Amour
DR10 -1.05 dB -13.40 dB 3:18 09-I Love Penny Sue
DR12 -0.30 dB -13.62 dB 2:19 10-Charleston
DR12 -0.30 dB -14.99 dB 2:30 11-Ain't She Sweet
DR10 -0.75 dB -12.73 dB 3:14 15-Ballad Du Paris
DR10 -0.30 dB -13.11 dB 2:12 16-Le Parc De Plaisir
DR9 -0.30 dB -11.50 dB 2:26 07-La Conga Blicoti
DR9 -0.30 dB -10.83 dB 4:08 03-Recado
DR11 -0.18 dB -13.51 dB 3:15 01-Si Tu Vois Ma Mère
DR12 -0.30 dB -14.13 dB 3:05 04-Bistro Fada
DR8 -0.30 dB -10.12 dB 5:51 02-Je Suis Seul Ce Soir
DR7 -0.30 dB -9.22 dB 2:28 14-Can-Can from 'Orpheus in the Underworld'
DR11 -0.30 dB -13.92 dB 2:22 13-Barcarolle from 'The Tales of Hoffman'
––––––––––––––––––––––––––––––––––––––––

Number of tracks: 16
Official DR value: DR10

Samplerate: 44100 Hz
Channels: 2
Bits per sample: 16
Bitrate: 747 kbps
Codec: FLAC
================================================================================

VA -  Midnight in Paris: Music From The Motion Picture (2011)

VA -  Midnight in Paris: Music From The Motion Picture (2011)

All thanks to original releaser - Filex777

More interesting music in My Blog