Subcategories

Miguel Bosé ‎- Bravo Muchachos Y Sus Grandes Éxitos (1982) [1992, Reissue]

Posted By: BlondStyle
Miguel Bosé ‎- Bravo Muchachos Y Sus Grandes Éxitos (1982) [1992, Reissue]

Miguel Bosé ‎- Bravo Muchachos Y Sus Grandes Éxitos (1982) [1992, Reissue]
Pop/Rock, Latin Pop, Vocal, Ballad | EAC Rip | FLAC, Tracks+CUE+LOG+Scans (JPEG) | 40:10 Min. | 296,73 Mb
Label: CBS/Sony (EU) | Cat.# 472930 2 | Released: 1992 (1982)

Luis Miguel González Bosé (born April 3, 1956), usually known as Miguel Bosé, is a Panamanian-born Spanish musician and actor. Bosé became an honorary Colombian citizen in 2010. Propelled by his famous family and their friends, in 1971, Bosé started a career as an actor, participating in various movies. He quickly won spots on the basis of his talent and good looks alone, rather than his name, and he did study serious acting as well as dancing and singing. However, he did not make that many films, and in 1975 he decided a career change was due and started exploring his talents as a singer. With the assistance of Camilo Blanes he recorded his first singles. Two years later, in 1977, Bosé signed a contract with CBS Records, and he remained with them until 1984.
~Wikipedia

Miguel Bosé ‎- Bravo Muchachos Y Sus Grandes Éxitos (1982) [1992, Reissue]

Miguel Bosé ‎- Bravo Muchachos Y Sus Grandes Éxitos (1982) [1992, Reissue]


Release of this album: 1982 [LP CBS, Cat.# S 25126, Spain]
Release of this CD: 1992 [CD CBS/Sony (EU), Cat.# 472930 2 / UPC: 5099747293023]
℗ 1982, 1992 Sony Music Entertainment (Spain) S.A.
© 1992 Sony Music Entertainment (Spain) S.A.
Made in Austria

Tracklist:

01. Bravo Muchachos (04:13)
02. Linda (03:42)
03. Anna (04:43)
04. Te Amaré (03:33)
05. Creo En Tí (03:58)
06. Don Diablo (03:46)
07. Son Amigos (04:27)
08. Morir De Amor (04:09)
09. Super Superman (03:43)
10. Márchate Ya (03:56)

Exact Audio Copy V1.1 from 23. June 2015

Archivo Log de extracciones desde 19. Febrero 2016, 14:41

Miguel Bosé / Bravo muchachos y sus grandes éxitos

Usar unidad : ASUS DRW-24F1ST a Adapter: 1 ID: 0

Modo de Lectura : : Seguro
Utilizar corriente precisa : Sí
Caché de audio por defecto : No
Utilizar los punteros C2 : No

Corrección de Desplazamiento de Lectura : : 6
Sobreleer tanto en Lead-In como en Lead-Out : No
Rellenar las muestras faltantes con silencios : Sí
Eliminar silencios inicial y final : No
Muestras nulas usadas en los calculos de CRC : Sí
Interfaz usada : Interfaz propio de Win32 para Windowns NT y 2000
Manejo de huecos : No se detectó, por lo que anexa a la pista anterior

Formato de Salida utilizado : : Compresor definido por el Usuario
Velocidad de bits seleccionada : 768 kBit/s
Calidad : Alta
Añadir ID3 tag : No
linea de comandos del compresor : C:\Program Files (x86)\Exact Audio Copy\FLAC\FLAC.EXE
Opciones adicionales en línea de comandos : : -6 -V -T "ARTIST=%artist%" -T "TITLE=%title%" -T "ALBUM=%albumtitle%" -T "DATE=%year%" -T "TRACKNUMBER=%tracknr%" -T "GENRE=%genre%" -T "COMMENT=%comment%" -T "BAND=%albuminterpret%" -T "ALBUMARTIST=%albuminterpret%" -T "COMPOSER=%composer%" %haslyrics%–tag-from-file=LYRICS="%lyricsfile%"%haslyrics% -T "DISCNUMBER=%cdnumber%" -T "TOTALDISCS=%totalcds%" -T "TOTALTRACKS=%numtracks%" %hascover%–picture="%coverfile%"%hascover% %source% -o %dest%


TOC extraídos del CD

Pista | Inicio | Longitud | Inicio del sector | Fin del sector
–––––––––––––––––––––––––––––––––
1 | 0:00.00 | 4:12.52 | 0 | 18951
2 | 4:12.52 | 3:42.03 | 18952 | 35604
3 | 7:54.55 | 4:43.30 | 35605 | 56859
4 | 12:38.10 | 3:32.57 | 56860 | 72816
5 | 16:10.67 | 3:58.05 | 72817 | 90671
6 | 20:08.72 | 3:45.43 | 90672 | 107589
7 | 23:54.40 | 4:26.65 | 107590 | 127604
8 | 28:21.30 | 4:08.65 | 127605 | 146269
9 | 32:30.20 | 3:43.17 | 146270 | 163011
10 | 36:13.37 | 3:56.10 | 163012 | 180721


Pista 1

Nombre de Archivo F:\EAC\01 Bravo Muchachos.wav

Nivel Pico 95.2 %
Velocidad de extracción 2.9 X
Calidad de Pista 100.0 %
Copiar CRC 9509A1F8
No se puede verificar como precisa (confidencia 1) [43D83FF3], AccurateRip devuelto [891D937D] (AR v2)
Copia OK

Pista 2

Nombre de Archivo F:\EAC\02 Linda.wav

Nivel Pico 69.7 %
Velocidad de extracción 3.2 X
Calidad de Pista 100.0 %
Copiar CRC E6F40B36
No se puede verificar como precisa (confidencia 1) [2CDE2DB1], AccurateRip devuelto [ACD89C89] (AR v2)
Copia OK

Pista 3

Nombre de Archivo F:\EAC\03 Anna.wav

Nivel Pico 91.5 %
Velocidad de extracción 3.5 X
Calidad de Pista 100.0 %
Copiar CRC 78D2A1B4
No se puede verificar como precisa (confidencia 1) [E6EB15BB], AccurateRip devuelto [8B7DCE18] (AR v2)
Copia OK

Pista 4

Nombre de Archivo F:\EAC\04 Te amaré.wav

Nivel Pico 98.5 %
Velocidad de extracción 3.8 X
Calidad de Pista 100.0 %
Copiar CRC 98765E35
No se puede verificar como precisa (confidencia 1) [609866B0], AccurateRip devuelto [D62BE1C1] (AR v2)
Copia OK

Pista 5

Nombre de Archivo F:\EAC\05 Creo en ti.wav

Nivel Pico 77.7 %
Velocidad de extracción 3.9 X
Calidad de Pista 99.9 %
Copiar CRC 07C0F6B2
No se puede verificar como precisa (confidencia 1) [43E8CACE], AccurateRip devuelto [8DB3DF30] (AR v2)
Copia OK

Pista 6

Nombre de Archivo F:\EAC\06 Don diablo.wav

Nivel Pico 96.0 %
Velocidad de extracción 4.2 X
Calidad de Pista 100.0 %
Copiar CRC 6031D4F6
No se puede verificar como precisa (confidencia 1) [6684F051], AccurateRip devuelto [295F2E48] (AR v2)
Copia OK

Pista 7

Nombre de Archivo F:\EAC\07 Son amigos.wav

Nivel Pico 83.0 %
Velocidad de extracción 4.4 X
Calidad de Pista 100.0 %
Copiar CRC 44DCCAE9
No se puede verificar como precisa (confidencia 1) [4DD31063], AccurateRip devuelto [8CA89BC4] (AR v2)
Copia OK

Pista 8

Nombre de Archivo F:\EAC\08 Morir de amor.wav

Nivel Pico 80.1 %
Velocidad de extracción 4.7 X
Calidad de Pista 100.0 %
Copiar CRC F9C71316
No se puede verificar como precisa (confidencia 1) [C371DBCA], AccurateRip devuelto [71DC6934] (AR v2)
Copia OK

Pista 9

Nombre de Archivo F:\EAC\09 Super Superman.wav

Nivel Pico 69.6 %
Velocidad de extracción 4.8 X
Calidad de Pista 100.0 %
Copiar CRC E643AA3E
No se puede verificar como precisa (confidencia 1) [8642A043], AccurateRip devuelto [20E6D805] (AR v2)
Copia OK

Pista 10

Nombre de Archivo F:\EAC\10 Márchate ya.wav

Nivel Pico 82.2 %
Velocidad de extracción 5.0 X
Calidad de Pista 100.0 %
Copiar CRC 8AA2E3D0
No se puede verificar como precisa (confidencia 1) [803F119B], AccurateRip devuelto [596A2CB3] (AR v2)
Copia OK


Ninguna pista puede ser verificada como precisa
Tu puedes tener un prensado diferente de los encontrados en la base de datos

Sin Errores

Final del Informe

–– CUETools DB Plugin V2.1.6

[CTDB TOCID: t90hkcdVZ98.Ss9wtiM1pZkBWH0-] disk not present in database
Submit result: t90hkcdVZ98.Ss9wtiM1pZkBWH0- has been uploaded

––––––––––––––––––––––––––––––––––––––––
Analyzed: Miguel Bosé / Bravo muchachos y sus grandes éxitos
––––––––––––––––––––––––––––––––––––––––

DR Peak RMS Duration Track
––––––––––––––––––––––––––––––––––––––––
DR12 -0.43 dB -14.17 dB 4:13 01-Bravo Muchachos
DR11 -3.13 dB -16.25 dB 3:42 02-Linda
DR14 -0.77 dB -17.16 dB 4:43 03-Anna
DR12 -0.13 dB -16.46 dB 3:33 04-Te amaré
DR12 -2.18 dB -18.73 dB 3:58 05-Creo en ti
DR12 -0.35 dB -15.68 dB 3:46 06-Don diablo
DR12 -1.61 dB -14.60 dB 4:27 07-Son amigos
DR11 -1.92 dB -15.78 dB 4:09 08-Morir de amor
DR10 -3.14 dB -14.87 dB 3:43 09-Super Superman
DR12 -1.70 dB -15.65 dB 3:56 10-Márchate ya
––––––––––––––––––––––––––––––––––––––––

Number of tracks: 10
Official DR value: DR12

Samplerate: 44100 Hz
Channels: 2
Bits per sample: 16
Bitrate: 948 kbps
Codec: FLAC
================================================================================

See also:


Thanks to original releaser

password: BlondStyle