Subcategories

Miguel Bosé - Miguel Bosé (1978) [1992, Reissue]

Posted By: BlondStyle
Miguel Bosé - Miguel Bosé (1978) [1992, Reissue]

Miguel Bosé - Miguel Bosé (1978) [1992, Reissue]
Pop, Latin, Vocal, Ballad | EAC Rip | FLAC, Tracks+CUE+LOG+Scans (JPEG) | 37:18 Min | 242,76 Mb
Label: CBS/Sony (EU) | Released: 1992 (1978)

Luis Miguel González Bosé (born April 3, 1956), usually known as Miguel Bosé, is a Panamanian-born Spanish musician and actor. Bosé became an honorary Colombian citizen in 2010. Propelled by his famous family and their friends, in 1971, Bosé started a career as an actor, participating in various movies. He quickly won spots on the basis of his talent and good looks alone, rather than his name, and he did study serious acting as well as dancing and singing. However, he did not make that many films, and in 1975 he decided a career change was due and started exploring his talents as a singer. With the assistance of Camilo Blanes he recorded his first singles. Two years later, in 1977, Bosé signed a contract with CBS Records, and he remained with them until 1984.
~Wikipedia


Miguel Bosé - Miguel Bosé (1978) [1992, Reissue]

Miguel Bosé - Miguel Bosé (1978) [1992, Reissue]


Release of this album: 1978 [LP CBS, Cat.# S 86063, Spain]
Release of this CD: 1992 [CD CBS/Sony (EU), Cat.# 472932 2 / UPC: 5099747293221]
℗ 1978, 1992 Sony Music Entertainment (Spain) S.A.
© 1992 Sony Music Entertainment (Spain) S.A.
Made in Austria

Credits:
Arranged By – Harold Faltermeyer
Photography – Jaime Villalba
Producer – Fernando Arbex


Tracklist:

01. Amor Mío, Como Estás? (04:41)
02. El Juego Del Amor (03:34)
03. Niño De Palo (03:29)
03. Lucky Guy (05:06)
04. Decir Adiós (02:52)
05. Anna (04:46)
06. Ternura (04:12)
07. Jinete Del Apocalipsis (04:22)
08. …Y Ya No Queda Nada (04:16)

Exact Audio Copy V1.1 from 23. June 2015

Archivo Log de extracciones desde 19. Febrero 2016, 13:27

Miguel Bosé / Miguel Bosé

Usar unidad : ASUS DRW-24F1ST a Adapter: 1 ID: 0

Modo de Lectura : : Seguro
Utilizar corriente precisa : Sí
Caché de audio por defecto : No
Utilizar los punteros C2 : No

Corrección de Desplazamiento de Lectura : : 6
Sobreleer tanto en Lead-In como en Lead-Out : No
Rellenar las muestras faltantes con silencios : Sí
Eliminar silencios inicial y final : No
Muestras nulas usadas en los calculos de CRC : Sí
Interfaz usada : Interfaz propio de Win32 para Windowns NT y 2000
Manejo de huecos : No se detectó, por lo que anexa a la pista anterior

Formato de Salida utilizado : : Compresor definido por el Usuario
Velocidad de bits seleccionada : 768 kBit/s
Calidad : Alta
Añadir ID3 tag : No
linea de comandos del compresor : C:\Program Files (x86)\Exact Audio Copy\FLAC\FLAC.EXE
Opciones adicionales en línea de comandos : : -6 -V -T "ARTIST=%artist%" -T "TITLE=%title%" -T "ALBUM=%albumtitle%" -T "DATE=%year%" -T "TRACKNUMBER=%tracknr%" -T "GENRE=%genre%" -T "COMMENT=%comment%" -T "BAND=%albuminterpret%" -T "ALBUMARTIST=%albuminterpret%" -T "COMPOSER=%composer%" %haslyrics%–tag-from-file=LYRICS="%lyricsfile%"%haslyrics% -T "DISCNUMBER=%cdnumber%" -T "TOTALDISCS=%totalcds%" -T "TOTALTRACKS=%numtracks%" %hascover%–picture="%coverfile%"%hascover% %source% -o %dest%


TOC extraídos del CD

Pista | Inicio | Longitud | Inicio del sector | Fin del sector
–––––––––––––––––––––––––––––––––
1 | 0:00.00 | 4:41.37 | 0 | 21111
2 | 4:41.37 | 3:33.38 | 21112 | 37124
3 | 8:15.00 | 3:29.10 | 37125 | 52809
4 | 11:44.10 | 5:05.67 | 52810 | 75751
5 | 16:50.02 | 2:52.30 | 75752 | 88681
6 | 19:42.32 | 4:45.55 | 88682 | 110111
7 | 24:28.12 | 4:12.20 | 110112 | 129031
8 | 28:40.32 | 4:21.45 | 129032 | 148651
9 | 33:02.02 | 4:15.70 | 148652 | 167846


Pista 1

Nombre de Archivo F:\EAC\01 Amor Mio, Como Estas.wav

Nivel Pico 94.8 %
Velocidad de extracción 2.8 X
Calidad de Pista 99.9 %
Copiar CRC CD0913DF
Extraida con precisión (confidencia 1) [8D5B177B] (AR v1)
Copia OK

Pista 2

Nombre de Archivo F:\EAC\02 El Juego Del Amor.wav

Nivel Pico 82.4 %
Velocidad de extracción 3.2 X
Calidad de Pista 100.0 %
Copiar CRC 17296BF7
Extraida con precisión (confidencia 1) [13DE4643] (AR v1)
Copia OK

Pista 3

Nombre de Archivo F:\EAC\03 Nino De Palo.wav

Nivel Pico 67.2 %
Velocidad de extracción 3.3 X
Calidad de Pista 99.9 %
Copiar CRC 0D5F4A15
Extraida con precisión (confidencia 1) [B8FF33F8] (AR v1)
Copia OK

Pista 4

Nombre de Archivo F:\EAC\04 Lucky Guy.wav

Nivel Pico 87.3 %
Velocidad de extracción 3.8 X
Calidad de Pista 100.0 %
Copiar CRC 482EB721
Extraida con precisión (confidencia 1) [FD61C21A] (AR v1)
Copia OK

Pista 5

Nombre de Archivo F:\EAC\05 Decir Adios.wav

Nivel Pico 79.6 %
Velocidad de extracción 4.0 X
Calidad de Pista 100.0 %
Copiar CRC F94E1D14
Extraida con precisión (confidencia 1) [8F4D91A9] (AR v1)
Copia OK

Pista 6

Nombre de Archivo F:\EAC\06 Anna.wav

Nivel Pico 91.5 %
Velocidad de extracción 4.2 X
Calidad de Pista 100.0 %
Copiar CRC AD216A7E
Extraida con precisión (confidencia 1) [58A6A622] (AR v1)
Copia OK

Pista 7

Nombre de Archivo F:\EAC\07 Ternura.wav

Nivel Pico 85.5 %
Velocidad de extracción 4.5 X
Calidad de Pista 100.0 %
Copiar CRC 5E6DAC6A
Extraida con precisión (confidencia 1) [B309B7CD] (AR v1)
Copia OK

Pista 8

Nombre de Archivo F:\EAC\08 jinete Del Apocalipsis.wav

Nivel Pico 84.5 %
Velocidad de extracción 4.5 X
Calidad de Pista 99.9 %
Copiar CRC FA00870E
Extraida con precisión (confidencia 1) [D216B91B] (AR v1)
Copia OK

Pista 9

Nombre de Archivo F:\EAC\09 … Y Ya No Queda Nada.wav

Nivel Pico 74.9 %
Velocidad de extracción 4.8 X
Calidad de Pista 100.0 %
Copiar CRC 65C3A9B5
No se puede verificar como precisa (confidencia 1) [B07033B6], AccurateRip devuelto [F32FDD8D] (AR v2)
Copia OK


8 pista(s) extraidas con precisión
1 pista(s) no puede ser verificada como precisa

Algunas pistas no pueden ser verificadas como precisas

Sin Errores

Final del Informe

–– CUETools DB Plugin V2.1.6

[CTDB TOCID: hYFRYxymQpCqTJjMqLBod0guneI-] disk not present in database
Submit result: hYFRYxymQpCqTJjMqLBod0guneI- has been uploaded

––––––––––––––––––––––––––––––––––––––––
Analyzed: Miguel Bosé / Miguel Bosé
––––––––––––––––––––––––––––––––––––––––

DR Peak RMS Duration Track
––––––––––––––––––––––––––––––––––––––––
DR13 -0.46 dB -18.03 dB 4:41 01-Amor Mio, Como Estas?
DR14 -1.68 dB -20.13 dB 3:34 02-El Juego Del Amor
DR14 -3.44 dB -21.75 dB 3:29 03-Nino De Palo
DR13 -1.18 dB -17.36 dB 5:06 04-Lucky Guy
DR13 -1.97 dB -18.53 dB 2:52 05-Decir Adios
DR12 -0.77 dB -15.31 dB 4:46 06-Anna
DR12 -1.36 dB -19.11 dB 4:12 07-Ternura
DR14 -1.46 dB -20.33 dB 4:22 08-jinete Del Apocalipsis
DR12 -2.51 dB -18.76 dB 4:16 09-… Y Ya No Queda Nada
––––––––––––––––––––––––––––––––––––––––

Number of tracks: 9
Official DR value: DR13

Samplerate: 44100 Hz
Channels: 2
Bits per sample: 16
Bitrate: 755 kbps
Codec: FLAC
================================================================================

All thanks to the original releaser

password: BlondStyle