Subcategories

Mike Harrison Meets The Hamburg Blues Band - Touch (2001)

Posted By: v3122
Mike Harrison Meets The Hamburg Blues Band - Touch (2001)

Mike Harrison Meets The Hamburg Blues Band - Touch (2001)
EAC | Flac(Image) + Cue + Log & MP3 CBR 320Kbps
2011 | Repertoire Records, REP 1077 | ~ 366 or 121 Mb | Scans(jpg) -> 20 Mb
Classic Rock / Blues Rock

Mike Harrison (born 3 September 1945 in Carlisle, Cumbria, England)[1] is an English musician, most notable as a principal lead singer of Spooky Tooth[2] and as a solo artist. He has also been the lead singer in The V.I.P.s, Art and the Hamburg Blues Band, among others..

~ wiki
Mike Harrison Meets The Hamburg Blues Band - Touch (2001)):

Mike Harrison Meets The Hamburg Blues Band - Touch (2001)

Tracklist:

01. Hold Back 04:59
02. Movin' On 03:51
03. Try Me Again 05:23
04. Make Me Smile 04:13
05. Security 05:39
06. There's A Road 04:01
07. King Of Hearts 03:45
08. Perfect Day 03:58
09. Hittin' The Spot 04:33
10. True Lies 03:55

Bonus Track:
11. Waiting For The Wind 05:49

Musicians:

Mike Harrison - lead vocals except "Hittin' The Spot"
Gert Lange - rhythm guitar & backing vocals, lead vocals on "King Of Hearts", "Hittin' The Spot"
Alex Conti - lead guitar & backing vocals
Michael Becker - bass guitar & backing vocals, rhythm guitar on "Make Me Smile", "Movin' On", acoustic guitar on "Perfect Day", "Make Me Smile"
Hans Wallbaum - drums
Hckheckstall-Smith - saxophones


Exact Audio Copy V0.99 prebeta 5 from 4. May 2009

EAC extraction logfile from 28. June 2012, 13:38

Mike Harrison Meets The Hamburg Blues Band / Touch

Used drive : SlimtypeeTAU108 2 Adapter: 4 ID: 0

Read mode : Secure
Utilize accurate stream : Yes
Defeat audio cache : Yes
Make use of C2 pointers : No

Read offset correction : 6
Overread into Lead-In and Lead-Out : No
Fill up missing offset samples with silence : Yes
Delete leading and trailing silent blocks : No
Null samples used in CRC calculations : Yes
Used interface : Native Win32 interface for Win NT & 2000

Used output format : User Defined Encoder
Selected bitrate : 768 kBit/s
Quality : High
Add ID3 tag : No
Command line compressor : C:\Program Files\Exact Audio Copy\FLAC\FLAC.EXE
Additional command line options : -8 -V -T "ARTIST=%a" -T "TITLE=%t" -T "ALBUM=%g" -T "DATE=%y" -T "TRACKNUMBER=%n" -T "GENRE=%m" -T "COMMENT=%e" %s -o %d


TOC of the extracted CD

Track | Start | Length | Start sector | End sector
––––––––––––––––––––––––––––-
1 | 0:00.00 | 4:59.15 | 0 | 22439
2 | 4:59.15 | 3:51.05 | 22440 | 39769
3 | 8:50.20 | 5:23.65 | 39770 | 64059
4 | 14:14.10 | 4:13.01 | 64060 | 83035
5 | 18:27.11 | 5:39.22 | 83036 | 108482
6 | 24:06.33 | 4:01.09 | 108483 | 126566
7 | 28:07.42 | 3:45.67 | 126567 | 143508
8 | 31:53.34 | 3:58.61 | 143509 | 161419
9 | 35:52.20 | 4:33.65 | 161420 | 181959
10 | 40:26.10 | 3:55.58 | 181960 | 199642
11 | 44:21.68 | 5:49.27 | 199643 | 225844


Range status and errors

Selected range

Filename D:\0\Sket4er\Mike Harrison Meets The Hamburg Blues Band - Touch.wav

Peak level 98.8 %
Range quality 100.0 %
Test CRC FD89A306
Copy CRC FD89A306
Copy OK

No errors occurred


AccurateRip summary

Track 1 cannot be verified as accurate (confidence 6) [5A36276D], AccurateRip returned [25ACA6F7]
Track 2 cannot be verified as accurate (confidence 6) [CC380F0B], AccurateRip returned [B3294739]
Track 3 cannot be verified as accurate (confidence 6) [650D26EF], AccurateRip returned [D1B8467B]
Track 4 cannot be verified as accurate (confidence 6) [9F9AD121], AccurateRip returned [7227B1BB]
Track 5 cannot be verified as accurate (confidence 6) [0ACCD349], AccurateRip returned [D192DF85]
Track 6 cannot be verified as accurate (confidence 6) [245EEE5F], AccurateRip returned [F232CD47]
Track 7 cannot be verified as accurate (confidence 6) [B691E6E0], AccurateRip returned [B6D5C692]
Track 8 cannot be verified as accurate (confidence 6) [A04E517A], AccurateRip returned [6BB135B9]
Track 9 cannot be verified as accurate (confidence 6) [DAEEDF88], AccurateRip returned [A3F43DF9]
Track 10 cannot be verified as accurate (confidence 6) [C6B1274A], AccurateRip returned [8DC4ACD1]
Track 11 cannot be verified as accurate (confidence 6) [AC9D4D31], AccurateRip returned [359A4F0A]

No tracks could be verified as accurate
You may have a different pressing from the one(s) in the database

End of status report


[CUETools log; Date: 11.01.2018 9:53:54; Version: 2.1.5]
[AccurateRip ID: 0014b3bd-00b283c7-940bc30b] found.
Track [ CRC | V2 ] Status
01 [5a36276d|712f0cc4] (00+00/25) No match
02 [cc380f0b|0e560bf3] (00+00/25) No match
03 [650d26ef|e06ea039] (00+00/25) No match
04 [9f9ad121|b25eabeb] (00+00/25) No match
05 [0accd349|784b46c8] (00+00/25) No match
06 [245eee5f|6f8d8748] (00+00/25) No match
07 [b691e6e0|d5248cca] (00+00/25) No match
08 [a04e517a|36dc0817] (00+00/25) No match
09 [daeedf88|50de0adf] (00+00/25) No match
10 [c6b1274a|1a5968ed] (00+00/25) No match
11 [ac9d4d31|d60062af] (00+00/25) No match
Offsetted by 463:
01 [25aca6f7] (06/25) Accurately ripped
02 [b3294739] (06/25) Accurately ripped
03 [d1b8467b] (06/25) Accurately ripped
04 [7227b1bb] (06/25) Accurately ripped
05 [d192df85] (06/25) Accurately ripped
06 [f232cd47] (06/25) Accurately ripped
07 [b6d5c692] (06/25) Accurately ripped
08 [6bb135b9] (06/25) Accurately ripped
09 [a3f43df9] (06/25) Accurately ripped
10 [8dc4acd1] (06/25) Accurately ripped
11 [359a4f0a] (06/25) Accurately ripped
Offsetted by 492:
01 [1fa64dfb] (05/25) Accurately ripped
02 [a75aa9e6] (05/25) Accurately ripped
03 [d2122024] (05/25) Accurately ripped
04 [8809d034] (05/25) Accurately ripped
05 [a2d3a600] (05/25) Accurately ripped
06 [c2ac415b] (05/25) Accurately ripped
07 [d8277ddc] (05/25) Accurately ripped
08 [daedbd75] (05/25) Accurately ripped
09 [28761635] (05/25) Accurately ripped
10 [00562e59] (05/25) Accurately ripped
11 [dc3bad9a] (05/25) Accurately ripped
Offsetted by -172:
01 [23910127] (00/25) No match (V2 was not tested)
02 [82fa70d1] (00/25) No match (V2 was not tested)
03 [b35036f7] (00/25) No match (V2 was not tested)
04 [4e7c8bc7] (00/25) No match (V2 was not tested)
05 [200ae42f] (00/25) No match (V2 was not tested)
06 [cf9f7bca] (00/25) No match (V2 was not tested)
07 [7b3398aa] (00/25) No match (V2 was not tested)
08 [430b8924] (00/25) No match (V2 was not tested)
09 [c7081a14] (00/25) No match (V2 was not tested)
10 [0cf99680] (00/25) No match (V2 was not tested)
11 [7bfd394d] (00/25) No match (V2 was not tested)

Track Peak [ CRC32 ] [W/O NULL] [ LOG ]
– 98,8 [FD89A306] [C2943974] CRC32
01 98,8 [3578ABE0] [852ADCD4]
02 98,8 [2ED5C2BB] [0CF20344]
03 98,8 [96E0ED35] [F614A589]
04 98,8 [180BB507] [74A24A96]
05 98,8 [240800B4] [6E275DA1]
06 98,8 [D7D8BE87] [2217061F]
07 98,8 [8DC11F71] [CA850D35]
08 98,8 [8381075C] [D89B4748]
09 98,8 [4A2B7EC0] [90CE23CD]
10 98,8 [1E20DECA] [D6BF701A]
11 98,8 [1FCD0204] [537242EB]


Mike Harrison Meets The Hamburg Blues Band - Touch (2001)

All thanks go to Sket4er

Spooky Tooth or Spooky Tooth in my Blog

Download Mike Harrison Meets The Hamburg Blues Band - Touch (2001):