Subcategories

Mike Oldfield - Crises (1983) [2013, 3CD+2DVD, 30th Anniversary Super Deluxe Edition Box set] Repost

Posted By: v3122
Mike Oldfield - Crises (1983) [2013, 3CD+2DVD, 30th Anniversary Super Deluxe Edition Box set] Repost

Mike Oldfield - Crises (1983)
EAC | Flac(Image) + Cue + Log & MP3 CBR 320Kbps
3CD | Mercury / Universal, 374044-8 | ~ 1172 or 446 Mb | Scans(jpg) -> 309 Mb
2xDVD5: NTSC 4:3 (720x480) VBR | LPCM, 2 ch / AC3, 6ch / DTS, 6ch -> 5.75 Gb
Progressive Rock

Following a long-established production pattern, Mike Oldfield assembled some relatively simple pop- and rock-flavored numbers following one long introductory piece on his 1983 Disky release, Crisis. The 20-minute opening title-track is a quintessential Oldfield texture study that consists of sparkling synth washes with edgier material weaving in and out. A fine setup, this track cleanses the aural pallet, preparing the listener nicely for the tunes that follow. Yes fans who can adjust to the sugary highlight "In High Places" will enjoy Jon Anderson's springy vocal work on the track. The energetic guitar romp "Taurus 3" will also appeal to most prog and art rock fans. Those in search of more ethereal Oldfield material should be aware of this record's pop leanings, but open-minded listeners will have a good time exploring Crisis, one of Oldfield's better releases of this type.

by Jason Anderson, allmusic
Mike Oldfield - Crises (1983):

Mike Oldfield - Crises (1983) [2013, 3CD+2DVD, 30th Anniversary Super Deluxe Edition Box set] Repost

Tracklist CD1 - The Original Album Remastered:

01. Crises - 20:58
02. Moonlight Shadow [with Maggie Reilly] - 3:39
03. In High Places [with Jon Anderson] - 3:34
04. Foreign Affair [with Maggie Reilly] - 3:54
05. Taurus 3 - 2:26
06. Shadow On The Wall [with Roger Chapman] - 3:14

Bonus Tracks:
07. Moonlight Shadow [with Maggie Reilly - unplugged mix] - 3:37
08. Shadow On The Wall [with Roger Chapman - unplugged mix] - 3:24
09. Mistake [with Maggie Reilly - single A-side] - 2:57
10. Crime Of Passion [with Barry Palmer - single A-side] - 4:12
11. Jungle Gardenia [single B-side] - 2:47
12. Moonlight Shadow [with Maggie Reilly - 12 inch single version] - 5:17
13. Shadow On The Wall [with Roger Chapman - 12 inch single version] - 5:10

Exact Audio Copy V1.0 beta 3 from 29. August 2011

EAC extraction logfile from 17. October 2013, 20:47

Mike Oldfield / Crises - Remaster 2013 CD1

Used drive : ATAPI iHAS124 B Adapter: 2 ID: 0

Read mode : Secure
Utilize accurate stream : Yes
Defeat audio cache : Yes
Make use of C2 pointers : No

Read offset correction : 6
Overread into Lead-In and Lead-Out : No
Fill up missing offset samples with silence : Yes
Delete leading and trailing silent blocks : No
Null samples used in CRC calculations : Yes
Used interface : Native Win32 interface for Win NT & 2000

Used output format : User Defined Encoder
Selected bitrate : 1024 kBit/s
Quality : High
Add ID3 tag : No
Command line compressor : C:\Program Files (x86)\Exact Audio Copy\FLAC\FLAC.EXE
Additional command line options : -8 -V -T "ARTIST=%artist%" -T "TITLE=%title%" -T "ALBUM=%albumtitle%" -T "DATE=%year%" -T "TRACKNUMBER=%tracknr%" -T "GENRE=%genre%" -T "PERFORMER=%albuminterpret%" -T "COMPOSER=%composer%" %haslyrics%–tag-from-file=LYRICS="%lyricsfile%"%haslyrics% -T "ALBUMARTIST=%albumartist%" -T "DISCNUMBER=%cdnumber%" -T "TOTALDISCS=%totalcds%" -T "TOTALTRACKS=%numtracks%" -T "COMMENT=%comment%" %source% -o %dest%


TOC of the extracted CD

Track | Start | Length | Start sector | End sector
––––––––––––––––––––––––––––-
1 | 0:00.00 | 20:57.65 | 0 | 94339
2 | 20:57.65 | 3:38.68 | 94340 | 110757
3 | 24:36.58 | 3:33.45 | 110758 | 126777
4 | 28:10.28 | 3:53.59 | 126778 | 144311
5 | 32:04.12 | 2:25.39 | 144312 | 155225
6 | 34:29.51 | 3:14.16 | 155226 | 169791
7 | 37:43.67 | 3:36.53 | 169792 | 186044
8 | 41:20.45 | 3:23.46 | 186045 | 201315
9 | 44:44.16 | 2:57.33 | 201316 | 214623
10 | 47:41.49 | 4:11.64 | 214624 | 233512
11 | 51:53.38 | 2:47.25 | 233513 | 246062
12 | 54:40.63 | 5:16.43 | 246063 | 269805
13 | 59:57.31 | 5:09.74 | 269806 | 293054


Range status and errors

Selected range

Filename G:\CD\Mike Oldfield - Crises - Remaster 2013 CD1.wav

Peak level 98.8 %
Extraction speed 6.2 X
Range quality 100.0 %
Test CRC A9A1FDEB
Copy CRC A9A1FDEB
Copy OK

No errors occurred


AccurateRip summary

Track 1 accurately ripped (confidence 16) [722C2913] (AR v2)
Track 2 accurately ripped (confidence 16) [21F193C2] (AR v2)
Track 3 accurately ripped (confidence 16) [E4D29C54] (AR v2)
Track 4 accurately ripped (confidence 16) [84DCDE70] (AR v2)
Track 5 accurately ripped (confidence 16) [DE728D3E] (AR v2)
Track 6 accurately ripped (confidence 16) [53E851B5] (AR v2)
Track 7 accurately ripped (confidence 16) [92A4436E] (AR v2)
Track 8 accurately ripped (confidence 16) [0B6B2448] (AR v2)
Track 9 accurately ripped (confidence 16) [0BFD8383] (AR v2)
Track 10 accurately ripped (confidence 16) [23EF9417] (AR v2)
Track 11 accurately ripped (confidence 16) [E06A7585] (AR v2)
Track 12 accurately ripped (confidence 16) [77148882] (AR v2)
Track 13 accurately ripped (confidence 16) [C8C05097] (AR v2)

All tracks accurately ripped

End of status report

==== Log checksum 219F03C99EB2E6290E691A23D7E7C3A9AA497E67660B1C25DD5DEFC127D07196 ====


[CUETools log; Date: 06.02.2018 1:40:32; Version: 2.1.5]
[CTDB TOCID: 9Sn2jpz9AvWcFTivIQ23LktDT94-] found.
Track | CTDB Status
1 | (378/384) Accurately ripped
2 | (383/384) Accurately ripped
3 | (383/384) Accurately ripped
4 | (383/384) Accurately ripped
5 | (383/384) Accurately ripped
6 | (377/384) Accurately ripped, or (2/384) differs in 180 samples @02:41:41
7 | (376/384) Accurately ripped
8 | (372/384) Accurately ripped, or (2/384) differs in 179 samples @03:06:31
9 | (382/384) Accurately ripped
10 | (378/384) Accurately ripped, or (2/384) differs in 179 samples @00:55:32
11 | (380/384) Accurately ripped, or (2/384) differs in 165 samples @02:42:61
12 | (383/384) Accurately ripped
13 | (376/384) Accurately ripped, or (2/384) differs in 4017 samples @05:09:54-05:09:58
[AccurateRip ID: 0025513c-01568602-d00f430d] found.
Track [ CRC | V2 ] Status
01 [8ce5e99d|722c2913] (008+195/214) Accurately ripped
02 [5600f7e3|21f193c2] (009+200/220) Accurately ripped
03 [ed436324|e4d29c54] (009+200/220) Accurately ripped
04 [585c7d06|84dcde70] (009+200/220) Accurately ripped
05 [44699435|de728d3e] (009+200/220) Accurately ripped
06 [9a6db543|53e851b5] (008+197/216) Accurately ripped
07 [56ed880d|92a4436e] (009+196/216) Accurately ripped
08 [853796ba|0b6b2448] (009+192/215) Accurately ripped
09 [9ba91b7c|0bfd8383] (009+197/217) Accurately ripped
10 [70b4612c|23ef9417] (009+196/216) Accurately ripped
11 [9804fb00|e06a7585] (009+197/217) Accurately ripped
12 [c24a00e6|77148882] (008+197/216) Accurately ripped
13 [7de6cf1d|c8c05097] (009+195/217) Accurately ripped
Offsetted by -48:
01 [5ca635cd] (000/214) No match (V2 was not tested)
02 [8adf7ac9] (000/220) No match (V2 was not tested)
03 [226ca7d5] (000/220) No match (V2 was not tested)
04 [bc8b056a] (000/220) No match (V2 was not tested)
05 [8d8dc75b] (000/220) No match (V2 was not tested)
06 [0765de22] (000/216) No match (V2 was not tested)
07 [2c5c040d] (000/216) No match (V2 was not tested)
08 [05130b1a] (000/215) No match (V2 was not tested)
09 [11e66fec] (000/217) No match (V2 was not tested)
10 [fd39ee8c] (000/216) No match (V2 was not tested)
11 [f3caf690] (000/217) No match (V2 was not tested)
12 [22dcab86] (000/216) No match (V2 was not tested)
13 [339e0b8d] (000/217) No match (V2 was not tested)
Offsetted by -12:
01 [80d5fca9] (000/214) No match (V2 was not tested)
02 [5f0167c1] (000/220) No match (V2 was not tested)
03 [95fd2cdd] (000/220) No match (V2 was not tested)
04 [fde0d80a] (000/220) No match (V2 was not tested)
05 [efb35307] (000/220) No match (V2 was not tested)
06 [dfce4472] (000/216) No match (V2 was not tested)
07 [cc49270d] (000/216) No match (V2 was not tested)
08 [652e73d2] (000/215) No match (V2 was not tested)
09 [f9387098] (000/217) No match (V2 was not tested)
10 [d3d5c484] (000/216) No match (V2 was not tested)
11 [eef679e4] (000/217) No match (V2 was not tested)
12 [9a6eab8e] (000/216) No match (V2 was not tested)
13 [6b549e39] (000/217) No match (V2 was not tested)

Track Peak [ CRC32 ] [W/O NULL] [ LOG ]
– 98,8 [A9A1FDEB] [DE41DAED] CRC32
01 98,8 [BF8CBCF5] [27F71981]
02 98,8 [EFEB57E2] [D0A8C910]
03 98,8 [308F1C86] [E870A623]
04 98,8 [21568F05] [324DFC9A]
05 98,8 [18A2A379] [40C2CB97]
06 98,8 [0827199B] [E834DA72]
07 98,8 [1FFCC049] [BCB86C30]
08 98,8 [15F3297B] [931BDA95]
09 98,8 [2951352C] [4A2A6EEA]
10 98,8 [869B1102] [0B900A8B]
11 91,7 [C04BEF25] [7EA32DB5]
12 98,8 [4B9BC022] [A8C6C4F7]
13 98,8 [AC055090] [C31EDDED]


Mike Oldfield - Crises (1983) [2013, 3CD+2DVD, 30th Anniversary Super Deluxe Edition Box set] Repost

Tracklist CD2 - Live at Wembley Arena 22nd July 1983 Disc One:

01. Woodhenge / Incantations Part Three - 8:10
02. Sheba - 3:24
03. Ommadawn Part One - 8:53
04. Mount Teidi - 4:10
05. Five Miles Out - 5:03
06. Tubular Bells Part One - 18:45

Exact Audio Copy V1.0 beta 3 from 29. August 2011

EAC extraction logfile from 17. October 2013, 21:05

Mike Oldfield / Crises - Remaster 2013 CD2

Used drive : ATAPI iHAS124 B Adapter: 2 ID: 0

Read mode : Secure
Utilize accurate stream : Yes
Defeat audio cache : Yes
Make use of C2 pointers : No

Read offset correction : 6
Overread into Lead-In and Lead-Out : No
Fill up missing offset samples with silence : Yes
Delete leading and trailing silent blocks : No
Null samples used in CRC calculations : Yes
Used interface : Native Win32 interface for Win NT & 2000

Used output format : User Defined Encoder
Selected bitrate : 1024 kBit/s
Quality : High
Add ID3 tag : No
Command line compressor : C:\Program Files (x86)\Exact Audio Copy\FLAC\FLAC.EXE
Additional command line options : -8 -V -T "ARTIST=%artist%" -T "TITLE=%title%" -T "ALBUM=%albumtitle%" -T "DATE=%year%" -T "TRACKNUMBER=%tracknr%" -T "GENRE=%genre%" -T "PERFORMER=%albuminterpret%" -T "COMPOSER=%composer%" %haslyrics%–tag-from-file=LYRICS="%lyricsfile%"%haslyrics% -T "ALBUMARTIST=%albumartist%" -T "DISCNUMBER=%cdnumber%" -T "TOTALDISCS=%totalcds%" -T "TOTALTRACKS=%numtracks%" -T "COMMENT=%comment%" %source% -o %dest%


TOC of the extracted CD

Track | Start | Length | Start sector | End sector
––––––––––––––––––––––––––––-
1 | 0:00.00 | 8:09.66 | 0 | 36740
2 | 8:09.66 | 3:23.57 | 36741 | 52022
3 | 11:33.48 | 8:52.60 | 52023 | 91982
4 | 20:26.33 | 4:10.31 | 91983 | 110763
5 | 24:36.64 | 5:03.15 | 110764 | 133503
6 | 29:40.04 | 18:44.71 | 133504 | 217874


Range status and errors

Selected range

Filename G:\CD\Mike Oldfield - Crises - Remaster 2013 CD2.wav

Peak level 98.8 %
Extraction speed 5.6 X
Range quality 99.9 %
Test CRC CF04DB83
Copy CRC CF04DB83
Copy OK

No errors occurred


AccurateRip summary

Track 1 accurately ripped (confidence 7) [0E957153] (AR v2)
Track 2 accurately ripped (confidence 7) [1AB2D7D3] (AR v2)
Track 3 accurately ripped (confidence 7) [C4DF575A] (AR v2)
Track 4 accurately ripped (confidence 7) [60DA4CBD] (AR v2)
Track 5 accurately ripped (confidence 7) [95200E55] (AR v2)
Track 6 accurately ripped (confidence 7) [0899CF91] (AR v2)

All tracks accurately ripped

End of status report

==== Log checksum AC35923A74044BF4ED7B9E6230B95B1353751303435A6CFCC9C45E21BCFC7D9B ====


[CUETools log; Date: 06.02.2018 1:40:55; Version: 2.1.5]
[CTDB TOCID: Lxji1eYlI.70J.LQam2lTsXBlas-] found.
Track | CTDB Status
1 | (56/56) Accurately ripped
2 | (56/56) Accurately ripped
3 | (56/56) Accurately ripped
4 | (56/56) Accurately ripped
5 | (56/56) Accurately ripped
6 | (56/56) Accurately ripped
[AccurateRip ID: 0009cf4a-00350fcd-570b5906] found.
Track [ CRC | V2 ] Status
01 [9ff8c122|0e957153] (05+55/60) Accurately ripped
02 [f01b938c|1ab2d7d3] (06+55/61) Accurately ripped
03 [f0f6d3bf|c4df575a] (05+55/60) Accurately ripped
04 [93096c1b|60da4cbd] (06+55/61) Accurately ripped
05 [c732611b|95200e55] (06+55/61) Accurately ripped
06 [dd91d89c|0899cf91] (05+55/60) Accurately ripped

Track Peak [ CRC32 ] [W/O NULL] [ LOG ]
– 98,8 [CF04DB83] [0A4026AB] CRC32
01 94,3 [24491AA2] [D5079A47]
02 89,0 [819A216C] [D7F55E34]
03 97,2 [529BACA0] [43FEE3E1]
04 88,5 [1011DEAE] [1958AE4A]
05 89,1 [25E66783] [6E5591D1]
06 98,8 [E8E733AF] [EC1A7A07]


Mike Oldfield - Crises (1983) [2013, 3CD+2DVD, 30th Anniversary Super Deluxe Edition Box set] Repost

Tracklist CD3 - :

01. Taurus I - 9:15
02. Taurus II [with Maggie Reilly] - 23:09
03. Crises - 23:15
04. Moonlight Shadow [with Maggie Reilly] - 5:29
05. Shadow On The Wall [with Roger Chapman] - 6:26
06. Family Man [with Maggie Reilly & Roger Chapman] - 4:15

Exact Audio Copy V1.0 beta 3 from 29. August 2011

EAC extraction logfile from 17. October 2013, 21:25

Mike Oldfield / Crises - Remaster 2013 CD3

Used drive : ATAPI iHAS124 B Adapter: 2 ID: 0

Read mode : Secure
Utilize accurate stream : Yes
Defeat audio cache : Yes
Make use of C2 pointers : No

Read offset correction : 6
Overread into Lead-In and Lead-Out : No
Fill up missing offset samples with silence : Yes
Delete leading and trailing silent blocks : No
Null samples used in CRC calculations : Yes
Used interface : Native Win32 interface for Win NT & 2000

Used output format : User Defined Encoder
Selected bitrate : 1024 kBit/s
Quality : High
Add ID3 tag : No
Command line compressor : C:\Program Files (x86)\Exact Audio Copy\FLAC\FLAC.EXE
Additional command line options : -8 -V -T "ARTIST=%artist%" -T "TITLE=%title%" -T "ALBUM=%albumtitle%" -T "DATE=%year%" -T "TRACKNUMBER=%tracknr%" -T "GENRE=%genre%" -T "PERFORMER=%albuminterpret%" -T "COMPOSER=%composer%" %haslyrics%–tag-from-file=LYRICS="%lyricsfile%"%haslyrics% -T "ALBUMARTIST=%albumartist%" -T "DISCNUMBER=%cdnumber%" -T "TOTALDISCS=%totalcds%" -T "TOTALTRACKS=%numtracks%" -T "COMMENT=%comment%" %source% -o %dest%


TOC of the extracted CD

Track | Start | Length | Start sector | End sector
––––––––––––––––––––––––––––-
1 | 0:00.00 | 9:14.62 | 0 | 41611
2 | 9:14.62 | 23:08.41 | 41612 | 145752
3 | 32:23.28 | 23:15.17 | 145753 | 250394
4 | 55:38.45 | 5:28.54 | 250395 | 275048
5 | 61:07.24 | 6:26.24 | 275049 | 304022
6 | 67:33.48 | 4:14.69 | 304023 | 323141


Range status and errors

Selected range

Filename G:\CD\Mike Oldfield - Crises - Remaster 2013 CD3.wav

Peak level 98.8 %
Extraction speed 6.7 X
Range quality 100.0 %
Test CRC 20ABB190
Copy CRC 20ABB190
Copy OK

No errors occurred


AccurateRip summary

Track 1 accurately ripped (confidence 8) [1D23A9B9] (AR v2)
Track 2 accurately ripped (confidence 8) [34AC97F8] (AR v2)
Track 3 accurately ripped (confidence 8) [DA56A0BB] (AR v2)
Track 4 accurately ripped (confidence 8) [635532DD] (AR v2)
Track 5 accurately ripped (confidence 8) [D971666E] (AR v2)
Track 6 accurately ripped (confidence 8) [264194D7] (AR v2)

All tracks accurately ripped

End of status report

==== Log checksum BCAFBE1E13A05F31C110D6E37D3557F26407C79E632A52F88047C9C17C61214A ====


[CUETools log; Date: 06.02.2018 1:41:23; Version: 2.1.5]
[CTDB TOCID: v3Gb9FqwxpngRfgSW.eKHAKk9o4-] found.
Track | CTDB Status
1 | (151/151) Accurately ripped
2 | (151/151) Accurately ripped
3 | (151/151) Accurately ripped
4 | (151/151) Accurately ripped
5 | (151/151) Accurately ripped
6 | (148/151) Accurately ripped
[AccurateRip ID: 00147246-006a8f11-5510d406] found.
Track [ CRC | V2 ] Status
01 [465c6f86|1d23a9b9] (006+096/102) Accurately ripped
02 [6766b9c7|34ac97f8] (006+094/100) Accurately ripped
03 [e0e339f0|da56a0bb] (005+095/100) Accurately ripped
04 [634d5af0|635532dd] (006+095/101) Accurately ripped
05 [96fa38b9|d971666e] (006+096/102) Accurately ripped
06 [5401fbaa|264194d7] (006+096/102) Accurately ripped

Track Peak [ CRC32 ] [W/O NULL] [ LOG ]
– 98,8 [20ABB190] [D029F071] CRC32
01 80,4 [1319B070] [F5920919]
02 95,0 [972B6C04] [F9527905]
03 98,8 [E4A5AA9E] [2ECBFA66]
04 98,8 [DA3A50E3] [F4FED991]
05 84,2 [AA2A3AFC] [76B51399]
06 97,9 [0FCF7717] [41A96B5D]


Mike Oldfield - Crises (1983) [2013, 3CD+2DVD, 30th Anniversary Super Deluxe Edition Box set] Repost

Tracklist DVD1:

Crises At Wembley 22nd July 1983:
01. Crises – 22:35
02. Tubular Bells Part One – 19:10

Extra Visual Content:
3. Moonlight Shadow (Promotional Video 1983) – 3:42
4. Shadow On The Wall (Promotional Video 1983) – 3:08
5. Crime Of Passion (Promotional Video 1984) – 3:42
6. Moonlight Shadow (BBC TV “Top Of The Pop”) – 3:15

Title: Mike Oldfield 1983 - Crises - DVD1
Size: 3.13 Gb ( 3 282 176,00 KBytes ) - DVD-5
Enabled regions: 1, 2, 3, 4, 5, 6, 7, 8

VTS_01 :
Play Length: 00:55:37
Video: NTSC 4:3 (720x480) VBR
Audio:
English (LinearPCM, 2 ch)


Mike Oldfield - Crises (1983) [2013, 3CD+2DVD, 30th Anniversary Super Deluxe Edition Box set] Repost

Tracklist DVD2:

Mike Oldfield - Crises (2013 5.1 Surround Mix)
01. Crises - 20:38
02. Moonlight Shadow [with Maggie Reilly] - 4:00
03. In High Places [with Jon Anderson] - 3:53
04. Foreign Affair [with Maggie Reilly] - 4:13
05. Taurus 3 - 2:50
06. Shadow On The Wall [with Roger Chapman] - 5:13

Title: Mike Oldfield 1983 - Crises - DVD1
Size: 3.13 Gb ( 3 282 176,00 KBytes ) - DVD-5
Enabled regions: 1, 2, 3, 4, 5, 6, 7, 8

VTS_01 :
Play Length: 00:55:37
Video: NTSC 4:3 (720x480) VBR
Audio:
English (LinearPCM, 2 ch)


Mike Oldfield - Crises (1983) [2013, 3CD+2DVD, 30th Anniversary Super Deluxe Edition Box set] Repost

Mike Oldfield - Crises (1983) [2013, 3CD+2DVD, 30th Anniversary Super Deluxe Edition Box set] Repost

Mike Oldfield - Crises (1983) [2013, 3CD+2DVD, 30th Anniversary Super Deluxe Edition Box set] Repost

Mike Oldfield - Crises (1983) [2013, 3CD+2DVD, 30th Anniversary Super Deluxe Edition Box set] Repost

Mike Oldfield - Crises (1983) [2013, 3CD+2DVD, 30th Anniversary Super Deluxe Edition Box set] Repost

* * *

Mike Oldfield - Crises (1983) [2013, 3CD+2DVD, 30th Anniversary Super Deluxe Edition Box set] Repost

All thanks go to the original releaser

Mike Oldfield or Mike Oldfield in my Blog

Download Mike Oldfield - Crises (1983):