Subcategories
Tags
Language
Tags

Mike Oldfield - The Complete Mike Oldfield (1985)

Posted By: popsakov
Mike Oldfield - The Complete Mike Oldfield (1985)

Mike Oldfield - The Complete Mike Oldfield (1985)
2CD | EAC Rip | WavPack (Img) + Cue + Log ~ 672 Mb | MP3 CBR320 ~ 286 Mb
Full Scans ~ 103 Mb | 01:01:48 + 00:56:30 | RAR 5% Recovery
Art Rock / Progressive Rock / Progressive Electronic
Virgin #CDMOC 1

In 1973, Mike Oldfield burst onto the British music scene with his debut album Tubular Bells, two long instrumental suites in which Oldfield stitched together a series of melodies into a grandly scaled work in which he played the many instruments himself. The album was an audacious beginning to a career than saw him become one of the most respected artists in progressive rock, as well as a successful film composer. The Complete Mike Oldfield is a collection released in 1985 which features selections from his first ten solo albums, as well as highlights from his score for the film The Killing Fields.

~ Mark Deming, All Music

***************

Track List CD1:

01. Arrival [2:48]
02. William Tell Overture [3:55]
03. Cuckoo Song [3:13]
04. In Dulci Jubilo [2:51]
05. Portsmouth [2:02]
06. Jungle Gardenia [2:38]
07. Guilty [4:04]
08. Blue Peter [2:08]
09. Waldberg (The Peak) [3:25]
10. Wonderful Land [3:39]
11. Etude (Theme From The Killing Fields) [3:08]
12. Moonlight Shadow [3:36]
13. Family Man [3:48]
14. Mistake [2:55]
15. Five Miles Out [4:19]
16. Crime Of Passion [3:38]
17. To France [4:34]
18. Shadow On The Wall [5:08]

Exact Audio Copy V1.3 from 2. September 2016

EAC extraction logfile from 9. July 2018, 10:34

Mike Oldfield / The Complete Mike Oldfield (Disc1)

Used drive : TSSTcorpCDDVDW TS-H653B Adapter: 1 ID: 0

Read mode : Secure
Utilize accurate stream : Yes
Defeat audio cache : Yes
Make use of C2 pointers : No

Read offset correction : 6
Overread into Lead-In and Lead-Out : No
Fill up missing offset samples with silence : Yes
Delete leading and trailing silent blocks : No
Null samples used in CRC calculations : Yes
Used interface : Native Win32 interface for Win NT & 2000

Used output format : User Defined Encoder
Selected bitrate : 896 kBit/s
Quality : High
Add ID3 tag : No
Command line compressor : C:\Program Files (x86)\Exact Audio Copy\WavPack\wavpack.exe
Additional command line options : -hm %source% %dest%


TOC of the extracted CD

Track | Start | Length | Start sector | End sector
––––––––––––––––––––––––––––-
1 | 0:00.33 | 2:47.50 | 33 | 12607
2 | 2:48.08 | 3:55.05 | 12608 | 30237
3 | 6:43.13 | 3:13.17 | 30238 | 44729
4 | 9:56.30 | 2:50.50 | 44730 | 57529
5 | 12:47.05 | 2:02.15 | 57530 | 66694
6 | 14:49.20 | 2:37.40 | 66695 | 78509
7 | 17:26.60 | 4:04.35 | 78510 | 96844
8 | 21:31.20 | 2:07.65 | 96845 | 106434
9 | 23:39.10 | 3:24.53 | 106435 | 121787
10 | 27:03.63 | 3:39.12 | 121788 | 138224
11 | 30:43.00 | 3:07.40 | 138225 | 152289
12 | 33:50.40 | 3:36.23 | 152290 | 168512
13 | 37:26.63 | 3:47.47 | 168513 | 185584
14 | 41:14.35 | 2:55.20 | 185585 | 198729
15 | 44:09.55 | 4:19.00 | 198730 | 218154
16 | 48:28.55 | 3:37.70 | 218155 | 234499
17 | 52:06.50 | 4:33.58 | 234500 | 255032
18 | 56:40.33 | 5:08.30 | 255033 | 278162


Range status and errors

Selected range

Filename G:\MUSIC\NL[ZAM]\MO_TCMO_CD1\Mike Oldfield - The Complete Mike Oldfield (Disc1).wav

Peak level 99.1 %
Extraction speed 7.8 X
Range quality 100.0 %
Test CRC 8CAC057D
Copy CRC 8CAC057D
Copy OK

No errors occurred


AccurateRip summary

Track 1 accurately ripped (confidence 39) [43AD4AC9] (AR v2)
Track 2 accurately ripped (confidence 38) [03807EEB] (AR v2)
Track 3 accurately ripped (confidence 39) [535D594F] (AR v2)
Track 4 accurately ripped (confidence 38) [6B7D353E] (AR v2)
Track 5 accurately ripped (confidence 39) [873A806E] (AR v2)
Track 6 accurately ripped (confidence 38) [EABD2D76] (AR v2)
Track 7 accurately ripped (confidence 39) [3E608095] (AR v2)
Track 8 accurately ripped (confidence 38) [15D14CB6] (AR v2)
Track 9 accurately ripped (confidence 36) [7758B526] (AR v2)
Track 10 accurately ripped (confidence 35) [59943EB2] (AR v2)
Track 11 accurately ripped (confidence 36) [9C22165C] (AR v2)
Track 12 accurately ripped (confidence 37) [AFEDC836] (AR v2)
Track 13 accurately ripped (confidence 37) [6D86B39F] (AR v2)
Track 14 accurately ripped (confidence 37) [82F67304] (AR v2)
Track 15 accurately ripped (confidence 36) [773D61C1] (AR v2)
Track 16 accurately ripped (confidence 38) [30A1A68D] (AR v2)
Track 17 accurately ripped (confidence 37) [E2F9258B] (AR v2)
Track 18 accurately ripped (confidence 37) [31A563F9] (AR v2)

All tracks accurately ripped

End of status report

–– CUETools DB Plugin V2.1.6

[CTDB TOCID: 330wNqg7icskFAqC1bquyEK8gok-] found
Submit result: 330wNqg7icskFAqC1bquyEK8gok- has been confirmed
Track | CTDB Status
1 | (214/215) Accurately ripped
2 | ( 28/215) Accurately ripped
3 | (213/215) Accurately ripped
4 | ( 28/215) Accurately ripped
5 | (214/215) Accurately ripped
6 | (215/215) Accurately ripped
7 | (212/215) Accurately ripped
8 | (213/215) Accurately ripped
9 | (213/215) Accurately ripped
10 | (213/215) Accurately ripped
11 | (211/215) Accurately ripped
12 | (213/215) Accurately ripped
13 | (212/215) Accurately ripped
14 | (211/215) Accurately ripped
15 | (207/215) Accurately ripped
16 | (210/215) Accurately ripped
17 | (211/215) Accurately ripped
18 | ( 28/215) Accurately ripped


==== Log checksum 8C2737A85F1AE79E4DBC08F007EF8DAB760B3CEFC0CDA9E096A64F75C0B49062 ====

foobar2000 1.4 / Dynamic Range Meter 1.1.1
log date: 2019-10-02 01:32:18

––––––––––––––––––––––––––––––––––––––––
Analyzed: Mike Oldfield feat. Maggie Reily / The Complete Mike Oldfield (Disc1) (1-5)
Mike Oldfield feat. Roger Chapman / The Complete Mike Oldfield (Disc1) (6)
––––––––––––––––––––––––––––––––––––––––

DR Peak RMS Duration Track
––––––––––––––––––––––––––––––––––––––––
DR13 -0.68 dB -16.81 dB 3:36 12-Moonlight Shadow
DR13 -1.83 dB -18.63 dB 3:48 13-Family Man
DR13 -0.84 dB -16.64 dB 2:55 14-Mistake
DR12 -1.51 dB -18.48 dB 4:19 15-Five Miles Out
DR12 -2.07 dB -17.99 dB 4:34 17-To France
DR14 -1.63 dB -17.93 dB 5:08 18-Shadow On The Wall
––––––––––––––––––––––––––––––––––––––––

Number of tracks: 6
Official DR value: DR13

Samplerate: 44100 Hz
Channels: 2
Bits per sample: 16
Bitrate: 771 kbps
Codec: WavPack
================================================================================

––––––––––––––––––––––––––––––––––––––––
Analyzed: Mike Oldfield / The Complete Mike Oldfield (Disc1)
––––––––––––––––––––––––––––––––––––––––

DR Peak RMS Duration Track
––––––––––––––––––––––––––––––––––––––––
DR11 -2.03 dB -15.47 dB 2:48 01-Arrival
DR11 -2.08 dB -15.52 dB 3:55 02-William Tell Overture
DR11 -2.79 dB -16.16 dB 3:13 03-Cuckoo Song
DR9 -1.68 dB -13.35 dB 2:51 04-In Dulci Jubilo
DR10 -0.89 dB -14.28 dB 2:02 05-Portsmouth
DR11 -3.29 dB -18.23 dB 2:38 06-Jungle Gardenia
DR12 -1.56 dB -16.51 dB 4:04 07-Guilty
DR11 -2.57 dB -16.23 dB 2:08 08-Blue Peter
DR13 -1.12 dB -17.44 dB 3:25 09-Waldberg (The Peak)
DR11 -1.77 dB -17.71 dB 3:39 10-Wonderful Land
DR14 -0.08 dB -18.23 dB 3:08 11-Etude (Theme From The Killing Fields)
––––––––––––––––––––––––––––––––––––––––

Number of tracks: 11
Official DR value: DR11

Samplerate: 44100 Hz
Channels: 2
Bits per sample: 16
Bitrate: 771 kbps
Codec: WavPack
================================================================================

foobar2000 1.4 / Dynamic Range Meter 1.1.1
log date: 2019-10-02 01:32:02

––––––––––––––––––––––––––––––––––––––––
Statistics for: 16-Crime Of Passion
Number of samples: 9610860
Duration: 3:38
––––––––––––––––––––––––––––––––––––––––

Left Right

Peak Value: -3.77 dB –- -2.48 dB
Avg RMS: -18.47 dB –- -17.87 dB
DR channel: 12.95 dB –- 13.55 dB
––––––––––––––––––––––––––––––––––––––––

Official DR Value: DR13

Samplerate: 44100 Hz
Channels: 2
Bits per sample: 16
Bitrate: 771 kbps
Codec: WavPack
================================================================================

[CUETools log; Date: 02.10.2019 1:38:05; Version: 2.1.6]
Pregap length 00:00:33.
[CTDB TOCID: 330wNqg7icskFAqC1bquyEK8gok-] found.
Track | CTDB Status
1 | (288/291) Accurately ripped
2 | ( 43/291) Accurately ripped
3 | (286/291) Accurately ripped
4 | ( 43/291) Accurately ripped
5 | (289/291) Accurately ripped
6 | (290/291) Accurately ripped
7 | (287/291) Accurately ripped
8 | (288/291) Accurately ripped
9 | (287/291) Accurately ripped
10 | (288/291) Accurately ripped
11 | (285/291) Accurately ripped
12 | (288/291) Accurately ripped
13 | (286/291) Accurately ripped
14 | (286/291) Accurately ripped
15 | (280/291) Accurately ripped
16 | (285/291) Accurately ripped
17 | (286/291) Accurately ripped
18 | ( 43/291) Accurately ripped
[AccurateRip ID: 00254d3e-01f6d3af-f00e7c12] found.
Track [ CRC | V2 ] Status
01 [d460a89b|43ad4ac9] (018+044/243) Accurately ripped
02 [ee9adf9c|03807eeb] (018+043/242) Accurately ripped
03 [c04c1e04|535d594f] (018+044/242) Accurately ripped
04 [23999c1e|6b7d353e] (018+043/242) Accurately ripped
05 [5c5d4bc4|873a806e] (018+044/243) Accurately ripped
06 [d8ee501f|eabd2d76] (018+043/244) Accurately ripped
07 [9bfdbb33|3e608095] (018+044/241) Accurately ripped
08 [1d3bc46c|15d14cb6] (018+043/240) Accurately ripped
09 [4e65c04c|7758b526] (018+041/238) Accurately ripped
10 [3e92f8f3|59943eb2] (018+040/236) Accurately ripped
11 [6aa0263d|9c22165c] (018+041/240) Accurately ripped
12 [9e7cbd70|afedc836] (018+042/244) Accurately ripped
13 [f221065c|6d86b39f] (018+042/238) Accurately ripped
14 [e7926988|82f67304] (018+042/238) Accurately ripped
15 [3ee873ac|773d61c1] (017+041/238) Accurately ripped
16 [785d4e42|30a1a68d] (018+043/242) Accurately ripped
17 [35fb1c05|e2f9258b] (017+042/240) Accurately ripped
18 [68b43d9a|31a563f9] (018+042/238) Accurately ripped
Offsetted by -1091:
01 [d4f89efd] (000/243) No match (V2 was not tested)
02 [c5f027da] (000/242) No match (V2 was not tested)
03 [89e0eb0e] (000/242) No match (V2 was not tested)
04 [3ceea5a8] (000/242) No match (V2 was not tested)
05 [d209d375] (000/243) No match (V2 was not tested)
06 [c8f63500] (000/244) No match (V2 was not tested)
07 [fa17c59a] (000/241) No match (V2 was not tested)
08 [e0b64b2f] (000/240) No match (V2 was not tested)
09 [93fb7ac2] (000/238) No match (V2 was not tested)
10 [463905d7] (000/236) No match (V2 was not tested)
11 [fc79e2cc] (000/240) No match (V2 was not tested)
12 [233d8cbd] (000/244) No match (V2 was not tested)
13 [194c954f] (000/238) No match (V2 was not tested)
14 [599880e5] (000/238) No match (V2 was not tested)
15 [d6313f50] (000/238) No match (V2 was not tested)
16 [2793276c] (002/242) Accurately ripped
17 [65914328] (000/240) No match (V2 was not tested)
18 [ba67131a] (000/238) No match (V2 was not tested)
Offsetted by -954:
01 [800ed4cf] (061/243) Accurately ripped
02 [ab92da1f] (000/242) No match (V2 was not tested)
03 [8442146b] (060/242) Accurately ripped
04 [4fd87a76] (000/242) No match (V2 was not tested)
05 [c8954c15] (062/243) Accurately ripped
06 [627f2e9d] (062/244) Accurately ripped
07 [d0b9995f] (060/241) Accurately ripped
08 [6e9e9ab4] (061/240) Accurately ripped
09 [ac05a026] (061/238) Accurately ripped
10 [e141adc4] (061/236) Accurately ripped
11 [680fb6fe] (061/240) Accurately ripped
12 [3acadecc] (063/244) Accurately ripped
13 [01931fed] (059/238) Accurately ripped
14 [bfb89e2d] (059/238) Accurately ripped
15 [f6e847a0] (062/238) Accurately ripped
16 [155b644d] (059/242) Accurately ripped
17 [6a1bae6e] (060/240) Accurately ripped
18 [8809f474] (000/238) No match (V2 was not tested)
Offsetted by -888:
01 [630953ee] (006/243) Accurately ripped
02 [29b1eeb6] (000/242) No match (V2 was not tested)
03 [233e6329] (006/242) Accurately ripped
04 [4082bcea] (000/242) No match (V2 was not tested)
05 [f371d811] (006/243) Accurately ripped
06 [0f849d27] (007/244) Accurately ripped
07 [58b3d8d8] (006/241) Accurately ripped
08 [b7919a0d] (006/240) Accurately ripped
09 [c6b266a9] (006/238) Accurately ripped
10 [3a28d405] (006/236) Accurately ripped
11 [0baca3bc] (005/240) Accurately ripped
12 [a3b9c17b] (006/244) Accurately ripped
13 [5bf627bc] (007/238) Accurately ripped
14 [68d78721] (006/238) Accurately ripped
15 [f4a5a141] (006/238) Accurately ripped
16 [08bd01e1] (006/242) Accurately ripped
17 [44011083] (006/240) Accurately ripped
18 [3e713946] (000/238) No match (V2 was not tested)

Track Peak [ CRC32 ] [W/O NULL] [ LOG ]
– 99,1 [8CAC057D] [942A1F1A] CRC32
01 79,1 [030EECC2] [C6C1979A]
02 78,7 [682A6CEC] [3097CB3E]
03 72,5 [1668B578] [9DA874EF]
04 82,3 [7688DFA5] [5F07AC6E]
05 90,2 [DCF060EF] [6ED9AA26]
06 68,4 [EE4BB545] [DE2D6346]
07 83,6 [FBA938E4] [522B4BC4]
08 74,3 [72C72853] [055310A0]
09 87,9 [C43F03BD] [DE89980E]
10 81,5 [51E16DB8] [33CF7B6F]
11 99,1 [738ABE04] [CAF31493]
12 92,5 [1EA3B95B] [A3F4BEEC]
13 80,9 [9B77BC84] [448A8405]
14 90,7 [060B283E] [7D8FF231]
15 84,0 [703D7FAA] [69751F38]
16 75,1 [E04368BE] [CDFABBEB]
17 78,8 [FDC69BD1] [E7D4B7C7]
18 82,9 [AEEEFA28] [CE5521F6]

Track List CD2:

01. Excerpt From Ommadawn [6:58]
02. Excerpt From Tubular Bells [8:35]
03. Excerpt From Hergest Ridge [4:21]
04. Excerpt From Incantations [4:41]
05. Excerpt From The Killing Fields (Evacuation) [4:12]
06. Sheba (Live) [3:30]
07. Mirage (Live) [5:14]
08. Platinum (Live) [14:25]
09. Mount Teide (Live) [4:33]

Exact Audio Copy V1.3 from 2. September 2016

EAC extraction logfile from 9. July 2018, 10:56

Mike Oldfield / The Complete Mike Oldfield - Disc 2

Used drive : TSSTcorpCDDVDW TS-H653B Adapter: 1 ID: 0

Read mode : Secure
Utilize accurate stream : Yes
Defeat audio cache : Yes
Make use of C2 pointers : No

Read offset correction : 6
Overread into Lead-In and Lead-Out : No
Fill up missing offset samples with silence : Yes
Delete leading and trailing silent blocks : No
Null samples used in CRC calculations : Yes
Used interface : Native Win32 interface for Win NT & 2000

Used output format : User Defined Encoder
Selected bitrate : 896 kBit/s
Quality : High
Add ID3 tag : No
Command line compressor : C:\Program Files (x86)\Exact Audio Copy\WavPack\wavpack.exe
Additional command line options : -hm %source% %dest%


TOC of the extracted CD

Track | Start | Length | Start sector | End sector
––––––––––––––––––––––––––––-
1 | 0:00.33 | 6:58.25 | 33 | 31407
2 | 6:58.58 | 8:35.37 | 31408 | 70069
3 | 15:34.20 | 4:20.38 | 70070 | 89607
4 | 19:54.58 | 4:41.37 | 89608 | 110719
5 | 24:36.20 | 4:12.13 | 110720 | 129632
6 | 28:48.33 | 3:30.02 | 129633 | 145384
7 | 32:18.35 | 5:13.63 | 145385 | 168922
8 | 37:32.23 | 14:24.60 | 168923 | 233782
9 | 51:57.08 | 4:33.25 | 233783 | 254282


Range status and errors

Selected range

Filename G:\MUSIC\NL[ZAM]\MO_TCMO_CD2\Mike Oldfield - The Complete Mike Oldfield - Disc 2.wav

Peak level 100.0 %
Extraction speed 7.0 X
Range quality 100.0 %
Test CRC D73E7D2A
Copy CRC D73E7D2A
Copy OK

No errors occurred


AccurateRip summary

Track 1 accurately ripped (confidence 37) [06AFC184] (AR v2)
Track 2 accurately ripped (confidence 38) [DF052CA7] (AR v2)
Track 3 accurately ripped (confidence 38) [B5E6446B] (AR v2)
Track 4 accurately ripped (confidence 39) [3A98016E] (AR v2)
Track 5 accurately ripped (confidence 38) [079EC755] (AR v2)
Track 6 accurately ripped (confidence 38) [E8A47ECE] (AR v2)
Track 7 accurately ripped (confidence 38) [57FC6D81] (AR v2)
Track 8 accurately ripped (confidence 36) [B289B896] (AR v2)
Track 9 accurately ripped (confidence 37) [E1173957] (AR v2)

All tracks accurately ripped

End of status report

–– CUETools DB Plugin V2.1.6

[CTDB TOCID: 8PJTPUh3skN2kEnrYIh0igd4ZAY-] found
Submit result: 8PJTPUh3skN2kEnrYIh0igd4ZAY- has been confirmed
Track | CTDB Status
1 | (29/30) Accurately ripped
2 | (30/30) Accurately ripped
3 | (30/30) Accurately ripped
4 | (30/30) Accurately ripped
5 | (30/30) Accurately ripped
6 | (30/30) Accurately ripped
7 | (30/30) Accurately ripped
8 | (29/30) Accurately ripped
9 | (29/30) Accurately ripped


==== Log checksum 5A7EAB36C8A707562FB381845FADF83088B659476F596B121BC83A0AF1B32913 ====

foobar2000 1.4 / Dynamic Range Meter 1.1.1
log date: 2019-10-02 01:50:46

––––––––––––––––––––––––––––––––––––––––
Analyzed: Mike Oldfield / The Complete Mike Oldfield - Disc 2
––––––––––––––––––––––––––––––––––––––––

DR Peak RMS Duration Track
––––––––––––––––––––––––––––––––––––––––
DR12 0.00 dB -15.51 dB 6:58 01-Excerpt From Ommadawn
DR12 -1.72 dB -18.72 dB 8:35 02-Excerpt From Tubular Bells
DR12 0.00 dB -16.48 dB 4:21 03-Excerpt From Hergest Ridge
DR11 -1.93 dB -17.52 dB 4:41 04-Excerpt From Incantations
DR13 -0.64 dB -18.43 dB 4:12 05-Excerpt From The Killing Fields (Evacuation)
DR12 -2.01 dB -18.90 dB 3:30 06-Sheba (Live)
DR13 -1.80 dB -18.54 dB 5:14 07-Mirage (Live)
DR14 -1.17 dB -18.61 dB 14:25 08-Platinum (Live)
DR12 -1.12 dB -18.95 dB 4:33 09-Mount Teide (Live)
––––––––––––––––––––––––––––––––––––––––

Number of tracks: 9
Official DR value: DR12

Samplerate: 44100 Hz
Channels: 2
Bits per sample: 16
Bitrate: 737 kbps
Codec: WavPack
================================================================================

[CUETools log; Date: 02.10.2019 1:39:04; Version: 2.1.6]
Pregap length 00:00:33.
[CTDB TOCID: 8PJTPUh3skN2kEnrYIh0igd4ZAY-] found.
Track | CTDB Status
1 | (45/46) Accurately ripped
2 | (46/46) Accurately ripped
3 | (46/46) Accurately ripped
4 | (46/46) Accurately ripped
5 | (46/46) Accurately ripped
6 | (46/46) Accurately ripped
7 | (46/46) Accurately ripped
8 | (45/46) Accurately ripped
9 | (45/46) Accurately ripped
[AccurateRip ID: 0012d3b6-0089019d-730d3e09] found.
Track [ CRC | V2 ] Status
01 [9519c8cc|06afc184] (15+42/57) Accurately ripped
02 [794eaaa8|df052ca7] (15+43/58) Accurately ripped
03 [f4f4b002|b5e6446b] (15+43/58) Accurately ripped
04 [b452c713|3a98016e] (16+44/60) Accurately ripped
05 [c926586c|079ec755] (16+43/59) Accurately ripped
06 [3fa8969b|e8a47ece] (15+43/58) Accurately ripped
07 [b075602d|57fc6d81] (15+43/58) Accurately ripped
08 [d9d71fc7|b289b896] (15+41/56) Accurately ripped
09 [410ff7fc|e1173957] (15+42/57) Accurately ripped

Track Peak [ CRC32 ] [W/O NULL] [ LOG ]
– 100,0 [D73E7D2A] [708692C3] CRC32
01 100,0 [8C8C7115] [21F8BDD5]
02 82,0 [4E79FAF5] [E1E82FB9]
03 100,0 [9687F4A0] [4F55E058]
04 80,0 [9A22E037] [1D9A8650]
05 92,9 [3204213B] [CA50739C]
06 79,3 [FA864960] [F0983360]
07 81,2 [D3400DE3] [9689A050]
08 87,3 [6D5C8EA8] [54FE49EE]
09 87,8 [636F8EF3] [DE1B71A6]

Mike Oldfield - The Complete Mike Oldfield (1985)


All thanks go to Alex ZAM

>>> Mike Oldfield in my Blog <<<

DOWNLOAD: