Subcategories

Mike Oldfield - Crises (1983) [Non-Remastered] (Repost)

Posted By: gribovar
Mike Oldfield - Crises (1983) [Non-Remastered] (Repost)

Mike Oldfield - Crises (1983) [Non-Remastered]
EAC Rip | WavPack (image+.cue+log) - 223 MB | MP3 CBR 320 kbps (LAME 3.93) - 88 MB | Covers - 28 MB
Genre: Progressive Rock | RAR 3% Rec. | Label: Virgin Records (CDV 2262)

Following a long-established production pattern, Mike Oldfield assembled some relatively simple pop- and rock-flavored numbers following one long introductory piece on his 1983 Disky release, Crisis. The 20-minute opening title-track is a quintessential Oldfield texture study that consists of sparkling synth washes with edgier material weaving in and out. A fine setup, this track cleanses the aural pallet, preparing the listener nicely for the tunes that follow. Yes fans who can adjust to the sugary highlight "In High Places" will enjoy Jon Anderson's springy vocal work on the track. The energetic guitar romp "Taurus 3" will also appeal to most prog and art rock fans. Those in search of more ethereal Oldfield material should be aware of this record's pop leanings, but open-minded listeners will have a good time exploring Crisis, one of Oldfield's better releases of this type.

Tracklist:
01. Crises
02. Moonlight Shadow
03. In High Places
04. Foreign Affair
05. Taurus 3
06. Shadow on the Wall

Total time: 37:20

Exact Audio Copy V1.0 beta 3 from 29. August 2011

EAC extraction logfile from 27. June 2012, 14:02

Mike Oldfield / Crises [Virgin CDV2262]

Used drive : HL-DT-STDVDRAM GH22NS90 Adapter: 4 ID: 0

Read mode : Secure
Utilize accurate stream : Yes
Defeat audio cache : Yes
Make use of C2 pointers : No

Read offset correction : 6
Overread into Lead-In and Lead-Out : No
Fill up missing offset samples with silence : Yes
Delete leading and trailing silent blocks : No
Null samples used in CRC calculations : Yes
Used interface : Installed external ASPI interface

Used output format : User Defined Encoder
Selected bitrate : 1024 kBit/s
Quality : High
Add ID3 tag : No
Command line compressor : D:\Program Files (x86)\Exact Audio Copy\wavpack.exe
Additional command line options : -hlmx2 %source% %dest%


TOC of the extracted CD

Track | Start | Length | Start sector | End sector
––––––––––––––––––––––––––––-
1 | 0:00.33 | 20:40.45 | 33 | 93077
2 | 20:41.03 | 3:38.07 | 93078 | 109434
3 | 24:19.10 | 3:33.00 | 109435 | 125409
4 | 27:52.10 | 3:53.30 | 125410 | 142914
5 | 31:45.40 | 2:25.35 | 142915 | 153824
6 | 34:11.00 | 3:08.50 | 153825 | 167974


Range status and errors

Selected range

Filename D:\eac\Mike Oldfield\Mike Oldfield - Crises [Virgin CDV2262].wav

Peak level 94.0 %
Extraction speed 2.4 X
Range quality 99.9 %
Test CRC 9B31E33B
Copy CRC 9B31E33B
Copy OK

No errors occurred


AccurateRip summary

Track 1 accurately ripped (confidence 5) [7F44601A] (AR v2)
Track 2 accurately ripped (confidence 5) [B4F27C55] (AR v2)
Track 3 accurately ripped (confidence 5) [1865F52B] (AR v2)
Track 4 accurately ripped (confidence 5) [7A2DAC5F] (AR v2)
Track 5 accurately ripped (confidence 5) [C7E5D1DA] (AR v2)
Track 6 accurately ripped (confidence 5) [38AEDB12] (AR v2)

All tracks accurately ripped

End of status report

–– CUETools DB Plugin V2.1.3

[CTDB TOCID: qwE_i4RBYQKjHZaz_j19WYkPnl8-] found, Submit result: discs with pregaps not supported in this protocol version
[c74c7958] (066/180) Differs in 1362 samples @29:52:06-29:52:07
[0a60a2ba] (114/180) Differs in 0 samples @
You can use CUETools to repair this rip.


==== Log checksum FAC4B19964369BFB54C764F036734880211B88A8B82BE2B9E50B8A63E3355EC5 ====

[CUETools log; Date: 11.02.2018 19:23:03; Version: 2.1.4]
Pregap length 00:00:33.
[CTDB TOCID: qwE_i4RBYQKjHZaz_j19WYkPnl8-] found.
Track | CTDB Status
1 | (408/434) Accurately ripped, or (1/434) differs in 965 samples @02:27:65,02:27:74-02:28:00,14:21:48-14:21:49,15:32:05-15:32:06
2 | (426/434) Accurately ripped
3 | (428/434) Accurately ripped
4 | (273/434) Accurately ripped, or (139/434) differs in 1362 samples @02:00:29-02:00:30, or (2/434) differs in 1362 samples @02:00:29-02:00:30, or (1/434) differs in 1715 samples @02:00:29-02:00:30,02:18:26-02:18:27,02:20:39,02:20:68,02:21:08
5 | (429/434) Accurately ripped
6 | (422/434) Accurately ripped
[AccurateRip ID: 000c185f-003a6eec-4508bf06] found.
Track [ CRC | V2 ] Status
01 [f19dddb4|7f44601a] (065+086/416) Accurately ripped
02 [ee5e37e2|b4f27c55] (068+093/440) Accurately ripped
03 [a3de64a2|1865f52b] (066+093/437) Accurately ripped
04 [e27b5db5|7a2dac5f] (066+091/431) Accurately ripped
05 [9d6cf294|c7e5d1da] (067+092/435) Accurately ripped
06 [ddd7d286|38aedb12] (067+092/429) Accurately ripped
Offsetted by -2047:
01 [70002232] (023/416) Accurately ripped
02 [08454b3c] (023/440) Accurately ripped
03 [be18f6e8] (024/437) Accurately ripped
04 [cede5305] (022/431) Accurately ripped
05 [1da57228] (024/435) Accurately ripped
06 [99d3244e] (022/429) Accurately ripped
Offsetted by -1555:
01 [506d1b80] (026/416) Accurately ripped
02 [2eb6d8b3] (027/440) Accurately ripped
03 [1ceeab1b] (027/437) Accurately ripped
04 [22b6574f] (027/431) Accurately ripped
05 [55fb23a3] (027/435) Accurately ripped
06 [b03e105f] (026/429) Accurately ripped
Offsetted by -2035:
01 [e0b585e6] (068/416) Accurately ripped
02 [4d98a9ff] (073/440) Accurately ripped
03 [4d5f053f] (070/437) Accurately ripped
04 [849b2906] (000/431) No match (V2 was not tested)
05 [ea11a68e] (068/435) Accurately ripped
06 [e7f115bf] (069/429) Accurately ripped
Offsetted by -547:
01 [bab5d535] (000/416) No match (V2 was not tested)
02 [71bd476c] (002/440) Accurately ripped
03 [86ccb9d5] (002/437) Accurately ripped
04 [d5eda5d8] (002/431) Accurately ripped
05 [bd627159] (002/435) Accurately ripped
06 [1f0acf68] (002/429) Accurately ripped
Offsetted by -535:
01 [941db6b7] (000/416) No match (V2 was not tested)
02 [5cd9bcd5] (000/440) No match (V2 was not tested)
03 [8d286d2c] (000/437) No match (V2 was not tested)
04 [981f3369] (000/431) No match (V2 was not tested)
05 [3eacc648] (000/435) No match (V2 was not tested)
06 [10162754] (000/429) No match (V2 was not tested)

Track Peak [ CRC32 ] [W/O NULL] [ LOG ]
– 94,0 [9B31E33B] [EA07739C] CRC32
01 94,0 [74DDBCC3] [371E5EBD]
02 79,6 [27149E51] [BCB5B8CE]
03 80,4 [6C4DE326] [84DC108C]
04 70,6 [8165865B] [B3B70B8E]
05 83,7 [F98FC58C] [A4D95C88]
06 84,1 [0F06F428] [F24DB546]

Thanks to taurus66

See also:
Mike Oldfield - Five Miles Out (1982) [Non-Remastered]
The Royal Symphonic Orchestra (Featuring Mike Oldfield) - The Orchestral Tubular Bells (1975) [Reissue 2003]