Subcategories

Miles Davis - Miles Davis Plays for Lovers (1965) [2012, Remastered with Bonus Tracks]

Posted By: BlondStyle
Miles Davis - Miles Davis Plays for Lovers (1965) [2012, Remastered with Bonus Tracks]

Miles Davis - Miles Davis Plays for Lovers (1965) [2012, Remastered with Bonus Tracks]
Jazz, Cool, Hard Bop, Trumpet Jazz | EAC Rip | FLAC, Tracks+CUE+LOG+Scans (JPEG) | 78:29 Min | 442,90 Mb
Label: Jackpot Records (Europe) | Cat.# 48727 | Released: 2012-05-14 (1965)
Miles Davis - Miles Davis Plays for Lovers (1965) [2012, Remastered with Bonus Tracks]

Miles Davis Plays for Lovers collects a number of ballads from the trumpeter's mid-'50s albums to create a lovely late-night disc for friends, night owls, and couples in love. The core band for three-quarters of the album consists of trumpeter Davis, tenor John Coltrane, pianist Red Garland, bassist Paul Chambers, and drummer Philly Joe Jones. There's an elegant beauty to pieces like "My Funny Valentine" and "You're My Everything," featuring the rhythm section's spare, tasteful backdrop and the carefully chosen notes of Davis' and Coltrane's horns. Even when this lineup shifts occasionally, the low-light mood remains. Bassist Charles Mingus lends a hand on "Smooch" and "Easy Living," while pianist Horace Silver chimes in on "You Don't Know What Love Is." There are fabulous takes of "'Round Midnight," originally recorded for Miles Davis and the Modern Jazz Giants, and the peaceful, melancholy closer, "When I Fall in Love." Davis' refined trumpet style, with its full-bodied notes and use of quiet spaces, has reached an early peak here. One also notices the intricate ensemble work by these various groups, with each musician playing just the right number of notes. Plays for Lovers is an exquisite disc that will also serve as a fine introduction to Davis' 1953-1956 work.
~Review by Ronnie D. Lankford, Jr.

Miles Davis - Miles Davis Plays for Lovers (1965) [2012, Remastered with Bonus Tracks]

Miles Davis - Miles Davis Plays for Lovers (1965) [2012, Remastered with Bonus Tracks]


Release of the album: 1965 [LP Prestige Records (USA), Cat.# PR 7352, USA]
Release of this CD: 2012, May, 14 [CD Jackpot Records (Europe), Cat.# 48727 / UPC: 8436542011310]
℗© 2012 Jackpot Records
Made in the EU

Notes: 24-bit Digitally Remastered Reissue with 8 bonus tracks

Miles Davis - Miles Davis Plays for Lovers (1965) [2012, Remastered with Bonus Tracks]

Credits:

Bass – Oscar Pettiford (tracks: 7, 8), Paul Chambers (tracks: 1, 2, 5), Percy Heath (tracks: 3, 4, 6)
Drums – Philly Joe Jones (tracks: 1, 2, 5, 7, 8), Art Blakey (tracks: 3), Kenny Clarke (tracks: 4), Max Roach (tracks: 6)
Piano – Charles Mingus (tracks: 6), Horace Silver (tracks: 3, 4), Red Garland (tracks: 1, 2, 5, 7, 8)
Recorded By – Rudy Van Gelder
Reissue Producer – Don Schlitten
Supervised By – Bob Weinstock
Trumpet – Miles Davis


Tracklist:

01. There Is No Greater Love (05:18)
02. Something That I Dreamed Last Night (06:13)
03. That Old Devil Moon (03:22)
04. You Don't Know What Love Is (04:22)
05. When I Fall In Love (04:21)
06. Smooch (03:05)
07. Will You Still Be Mine (06:19)
08. I See Your Face Before Me (04:43)

Bonus Tracks

09. It Never Entered My Mind (05:22)
10. You're My Everything (04:50)
11. My Funny Valentine (06:01)
12. 'Round Midnight (05:26)
13. In Your Own Sweet Way (04:36)
14. Stella By Starlight (04:44)
15. I Waited For You (03:33)
16. Nature Boy (06:15)

Exact Audio Copy V1.3 from 2. September 2016

EAC extraction logfile from 21. April 2018, 9:31

Miles Davis / Plays For Lovers

Used drive : TSSTcorpCDDVDW SE-208AB Adapter: 2 ID: 0

Read mode : Secure
Utilize accurate stream : Yes
Defeat audio cache : Yes
Make use of C2 pointers : No

Read offset correction : 6
Overread into Lead-In and Lead-Out : No
Fill up missing offset samples with silence : Yes
Delete leading and trailing silent blocks : No
Null samples used in CRC calculations : Yes
Used interface : Installed external ASPI interface
Gap handling : Appended to previous track

Used output format : User Defined Encoder
Selected bitrate : 768 kBit/s
Quality : High
Add ID3 tag : No
Command line compressor : C:\Program Files (x86)\Exact Audio Copy\Flac\flac.exe
Additional command line options : -8 -V -T "ARTIST=%artist%" -T "TITLE=%title%" -T "ALBUM=%albumtitle%" -T "DATE=%year%" -T "TRACKNUMBER=%tracknr%" -T "GENRE=%genre%" -T "COMMENT=%comment%" -T "BAND=%albuminterpret%" -T "ALBUMARTIST=%albuminterpret%" -T "COMPOSER=%composer%" %haslyrics%–tag-from-file=LYRICS="%lyricsfile%"%haslyrics% -T "DISCNUMBER=%cdnumber%" -T "TOTALDISCS=%totalcds%" -T "TOTALTRACKS=%numtracks%" %hascover%–picture="%coverfile%"%hascover% %source% -o %dest%


TOC of the extracted CD

Track | Start | Length | Start sector | End sector
––––––––––––––––––––––––––––-
1 | 0:00.00 | 5:18.25 | 0 | 23874
2 | 5:18.25 | 6:12.71 | 23875 | 51845
3 | 11:31.21 | 3:22.22 | 51846 | 67017
4 | 14:53.43 | 4:21.46 | 67018 | 86638
5 | 19:15.14 | 4:21.19 | 86639 | 106232
6 | 23:36.33 | 3:04.57 | 106233 | 120089
7 | 26:41.15 | 6:19.24 | 120090 | 148538
8 | 33:00.39 | 4:42.72 | 148539 | 169760
9 | 37:43.36 | 5:21.53 | 169761 | 193888
10 | 43:05.14 | 4:50.34 | 193889 | 215672
11 | 47:55.48 | 6:00.50 | 215673 | 242722
12 | 53:56.23 | 5:26.01 | 242723 | 267173
13 | 59:22.24 | 4:35.47 | 267174 | 287845
14 | 63:57.71 | 4:43.39 | 287846 | 309109
15 | 68:41.35 | 3:32.51 | 309110 | 325060
16 | 72:14.11 | 6:14.50 | 325061 | 353160


Track 1

Filename D:\Lietotājs\My Music\Flac\01. There Is No Greater Love.wav

Pre-gap length 0:00:02.00

Copy aborted

Track 2

Copy aborted

Track 3

Copy aborted

Track 4

Copy aborted

Track 5

Copy aborted

Track 6

Copy aborted

Track 7

Copy aborted

Track 8

Copy aborted

Track 9

Copy aborted

Track 10

Copy aborted

Track 11

Copy aborted

Track 12

Copy aborted

Track 13

Copy aborted

Track 14

Copy aborted

Track 15

Copy aborted

Track 16

Copy aborted


No tracks could be verified as accurate

There were errors

End of status report

==== Log checksum 768B86D6220DAE65256BCA5FC5758463ACAF83B6C43F6B8FFCB85E55B47DB279 ====

––––––––––––––––––––––––––––––

Exact Audio Copy V1.3 from 2. September 2016

EAC extraction logfile from 21. April 2018, 11:10

Miles Davis / Plays For Lovers

Used drive : TSSTcorpCDDVDW SE-208AB Adapter: 2 ID: 0

Read mode : Secure
Utilize accurate stream : Yes
Defeat audio cache : Yes
Make use of C2 pointers : No

Read offset correction : 6
Overread into Lead-In and Lead-Out : No
Fill up missing offset samples with silence : Yes
Delete leading and trailing silent blocks : No
Null samples used in CRC calculations : Yes
Used interface : Installed external ASPI interface
Gap handling : Appended to previous track

Used output format : User Defined Encoder
Selected bitrate : 768 kBit/s
Quality : High
Add ID3 tag : No
Command line compressor : C:\Program Files (x86)\Exact Audio Copy\Flac\flac.exe
Additional command line options : -8 -V -T "ARTIST=%artist%" -T "TITLE=%title%" -T "ALBUM=%albumtitle%" -T "DATE=%year%" -T "TRACKNUMBER=%tracknr%" -T "GENRE=%genre%" -T "COMMENT=%comment%" -T "BAND=%albuminterpret%" -T "ALBUMARTIST=%albuminterpret%" -T "COMPOSER=%composer%" %haslyrics%–tag-from-file=LYRICS="%lyricsfile%"%haslyrics% -T "DISCNUMBER=%cdnumber%" -T "TOTALDISCS=%totalcds%" -T "TOTALTRACKS=%numtracks%" %hascover%–picture="%coverfile%"%hascover% %source% -o %dest%


TOC of the extracted CD

Track | Start | Length | Start sector | End sector
––––––––––––––––––––––––––––-
1 | 0:00.00 | 5:18.25 | 0 | 23874
2 | 5:18.25 | 6:12.71 | 23875 | 51845
3 | 11:31.21 | 3:22.22 | 51846 | 67017
4 | 14:53.43 | 4:21.46 | 67018 | 86638
5 | 19:15.14 | 4:21.19 | 86639 | 106232
6 | 23:36.33 | 3:04.57 | 106233 | 120089
7 | 26:41.15 | 6:19.24 | 120090 | 148538
8 | 33:00.39 | 4:42.72 | 148539 | 169760
9 | 37:43.36 | 5:21.53 | 169761 | 193888
10 | 43:05.14 | 4:50.34 | 193889 | 215672
11 | 47:55.48 | 6:00.50 | 215673 | 242722
12 | 53:56.23 | 5:26.01 | 242723 | 267173
13 | 59:22.24 | 4:35.47 | 267174 | 287845
14 | 63:57.71 | 4:43.39 | 287846 | 309109
15 | 68:41.35 | 3:32.51 | 309110 | 325060
16 | 72:14.11 | 6:14.50 | 325061 | 353160


Track 1

Filename D:\Lietotājs\My Music\Flac\01. There Is No Greater Love.wav

Pre-gap length 0:00:02.00

Peak level 72.0 %
Extraction speed 1.0 X
Track quality 99.9 %
Test CRC E782A357
Copy CRC E782A357
Accurately ripped (confidence 1) [0CE7F408] (AR v2)
Copy OK

Track 2

Filename D:\Lietotājs\My Music\Flac\02. Something That I Dreamed Last Night.wav

Peak level 83.9 %
Extraction speed 1.4 X
Track quality 100.0 %
Test CRC 3D93D571
Copy CRC 3D93D571
Accurately ripped (confidence 1) [ED6A5CD0] (AR v2)
Copy OK

Track 3

Filename D:\Lietotājs\My Music\Flac\03. That Old Devil Moon.wav

Peak level 99.5 %
Extraction speed 1.4 X
Track quality 100.0 %
Test CRC 4B200FFB
Copy CRC 4B200FFB
Accurately ripped (confidence 1) [5BE1DDC5] (AR v2)
Copy OK

Track 4

Filename D:\Lietotājs\My Music\Flac\04. You Don't Know What Love Is.wav

Peak level 84.2 %
Extraction speed 1.4 X
Track quality 99.9 %
Test CRC A95A92F2
Copy CRC A95A92F2
Accurately ripped (confidence 1) [C994FF8F] (AR v2)
Copy OK

Track 5

Filename D:\Lietotājs\My Music\Flac\05. When I Fall In Love.wav

Peak level 73.0 %
Extraction speed 1.5 X
Track quality 99.9 %
Test CRC 5CB9AC06
Copy CRC 5CB9AC06
Accurately ripped (confidence 1) [E999A0FF] (AR v2)
Copy OK

Track 6

Filename D:\Lietotājs\My Music\Flac\06. Smooch.wav

Peak level 87.6 %
Extraction speed 1.6 X
Track quality 100.0 %
Test CRC 5D05D1DD
Copy CRC 5D05D1DD
Accurately ripped (confidence 1) [04C1F28F] (AR v2)
Copy OK

Track 7

Filename D:\Lietotājs\My Music\Flac\07. Will You Still Be Mine.wav

Peak level 93.0 %
Extraction speed 1.9 X
Track quality 100.0 %
Test CRC 6C877CBF
Copy CRC 6C877CBF
Accurately ripped (confidence 1) [94A170D7] (AR v2)
Copy OK

Track 8

Filename D:\Lietotājs\My Music\Flac\08. I See Your Face Before Me.wav

Peak level 87.0 %
Extraction speed 1.9 X
Track quality 100.0 %
Test CRC 1919C083
Copy CRC 1919C083
Accurately ripped (confidence 1) [A05018E5] (AR v2)
Copy OK

Track 9

Filename D:\Lietotājs\My Music\Flac\09. It Never Entered My Mind.wav

Peak level 69.8 %
Extraction speed 1.8 X
Track quality 99.9 %
Test CRC 3679E316
Copy CRC 3679E316
Accurately ripped (confidence 1) [891C3589] (AR v2)
Copy OK

Track 10

Filename D:\Lietotājs\My Music\Flac\10. You're My Everything.wav

Peak level 91.2 %
Extraction speed 2.1 X
Track quality 100.0 %
Test CRC EA9062FE
Copy CRC EA9062FE
Accurately ripped (confidence 1) [6F24F469] (AR v2)
Copy OK

Track 11

Filename D:\Lietotājs\My Music\Flac\11. My Funny Valentine.wav

Peak level 91.2 %
Extraction speed 2.2 X
Track quality 100.0 %
Test CRC 2B24CFDC
Copy CRC 2B24CFDC
Accurately ripped (confidence 1) [006914A0] (AR v2)
Copy OK

Track 12

Filename D:\Lietotājs\My Music\Flac\12. 'Round Midnight.wav

Peak level 91.2 %
Extraction speed 2.1 X
Track quality 99.9 %
Test CRC 68D39A6E
Copy CRC 68D39A6E
Accurately ripped (confidence 1) [BB3A0B03] (AR v2)
Copy OK

Track 13

Filename D:\Lietotājs\My Music\Flac\13. In Your Own Sweet Way.wav

Peak level 91.2 %
Extraction speed 2.3 X
Track quality 100.0 %
Test CRC AEDCED5B
Copy CRC AEDCED5B
Accurately ripped (confidence 1) [6FAC552D] (AR v2)
Copy OK

Track 14

Filename D:\Lietotājs\My Music\Flac\14. Stella By Starlight.wav

Peak level 91.2 %
Extraction speed 2.1 X
Track quality 99.9 %
Test CRC 4F5E8F22
Copy CRC 4F5E8F22
Accurately ripped (confidence 1) [EBFEAA83] (AR v2)
Copy OK

Track 15

Filename D:\Lietotājs\My Music\Flac\15. I Waited For You.wav

Peak level 91.2 %
Extraction speed 2.4 X
Track quality 100.0 %
Test CRC 11B6BA19
Copy CRC 11B6BA19
Accurately ripped (confidence 1) [964B073C] (AR v2)
Copy OK

Track 16

Filename D:\Lietotājs\My Music\Flac\16. Nature Boy.wav

Peak level 91.2 %
Extraction speed 2.6 X
Track quality 100.0 %
Test CRC 3E35110D
Copy CRC 3E35110D
Accurately ripped (confidence 1) [64E63F71] (AR v2)
Copy OK


All tracks accurately ripped

No errors occurred

End of status report

–– CUETools DB Plugin V2.1.6

[CTDB TOCID: VLhyWFVpK9v.TglxtnGNHu1pVPs-] found
Submit result: VLhyWFVpK9v.TglxtnGNHu1pVPs- has been confirmed
Track | CTDB Status
1 | (2/2) Accurately ripped
2 | (2/2) Accurately ripped
3 | (2/2) Accurately ripped
4 | (2/2) Accurately ripped
5 | (2/2) Accurately ripped
6 | (2/2) Accurately ripped
7 | (2/2) Accurately ripped
8 | (2/2) Accurately ripped
9 | (2/2) Accurately ripped
10 | (2/2) Accurately ripped
11 | (2/2) Accurately ripped
12 | (2/2) Accurately ripped
13 | (2/2) Accurately ripped
14 | (2/2) Accurately ripped
15 | (2/2) Accurately ripped
16 | (2/2) Accurately ripped


==== Log checksum 171B4A6C9F14BF5DEB1CFB5F10F74392C48F8E77A03388F2E9978E6029A1B102 ====

––––––––––––––––––––––––––––––––––––––––
Analyzed: Miles Davis / Plays For Lovers
––––––––––––––––––––––––––––––––––––––––

DR Peak RMS Duration Track
––––––––––––––––––––––––––––––––––––––––
DR13 -2.84 dB -19.06 dB 5:18 01-There Is No Greater Love
DR14 -1.52 dB -20.97 dB 6:13 02-Something That I Dreamed Last Night
DR12 -0.04 dB -14.03 dB 3:22 03-That Old Devil Moon
DR9 -1.49 dB -17.02 dB 4:22 04-You Don't Know What Love Is
DR15 -2.73 dB -21.11 dB 4:21 05-When I Fall In Love
DR11 -1.15 dB -15.61 dB 3:05 06-Smooch
DR13 -0.63 dB -15.28 dB 6:19 07-Will You Still Be Mine
DR14 -1.21 dB -18.97 dB 4:43 08-I See Your Face Before Me
DR15 -3.12 dB -22.55 dB 5:22 09-It Never Entered My Mind
DR11 -0.80 dB -14.44 dB 4:50 10-You're My Everything
DR11 -0.80 dB -14.43 dB 6:01 11-My Funny Valentine
DR7 -0.80 dB -10.02 dB 5:26 12-'Round Midnight
DR9 -0.80 dB -11.71 dB 4:36 13-In Your Own Sweet Way
DR9 -0.80 dB -12.63 dB 4:44 14-Stella By Starlight
DR8 -0.80 dB -11.25 dB 3:33 15-I Waited For You
DR7 -0.80 dB -10.83 dB 6:15 16-Nature Boy
––––––––––––––––––––––––––––––––––––––––

Number of tracks: 16
Official DR value: DR11

Samplerate: 44100 Hz
Channels: 2
Bits per sample: 16
Bitrate: 798 kbps
Codec: FLAC
================================================================================

Thanks to Olivierito

password: BlondStyle