Subcategories

Miles Davis - Milestones (1958) [MFSL, 2012]

Posted By: gribovar
Miles Davis - Milestones (1958) [MFSL, 2012]

Miles Davis - Milestones (1958) [MFSL, 2012]
EAC Rip | WavPack (image+.cue+log) - 227 MB | MP3 CBR 320 kbps (LAME 3.93) - 153 MB | Covers included
Genre: Jazz | RAR 3% Rec. | Label: Mobile Fidelity Sound Lab (UDSACD 2084), Mono

Miles Davis created just one studio album with his original sextet. He made every moment count. Pairing with Cannonball Adderley, John Coltrane, Red Garland, Paul Chambers, and Philly Joe Jones, the trumpeter not only laid the groundwork for the modalism that immediately followed but tailored a genuine modern-jazz masterwork laden with performances among the most explosive of his distinguished career. Due to its sandwiched position between the more famous ‘Round About Midnight and epochal Kind of Blue, Milestones remains, for too many music lovers, an overlooked classic.
Milestones has been restored to mono for the first time as to expose the record’s standing as one of the all-time great jazz efforts. Mastered from the original master tapes, and in mono for the first time ever, this unsurpassed digital edition grants each musician their own space in a well-defined, broadened soundstage. Colors, shapes, and dimensions appear in the manner they do when beheld from behind a studio-control room’s window.
Davis’ burnished trumpet? Rendered in three-dimensional perspective, coaxing his mates out to play with unburdened zest and commotion. Coltrane’s trademark saxophone? Witness it in life-size proportion, his solos working in tandem with and against the driving rhythms. Garland’s swaggering piano lines? Visualize the 88 keys as he hits full stride, the chords and fills slithering around skeletal frameworks.
If anything, Milestones is as famous for its title track as the players that produced it. The launching pad for many of Davis’ (and later, his contemporaries’) improvisational flights, the singular piece invites the tessellated explorations Coltrane would forever chase as well as the headliner’s argyle solo work, who broaches territories that far exceed what he had done with his bop-rooted past. Every song is a highlight, whether it’s the bravado “No Jackle,” featuring a hot-foot pace and bebop strains, or “Sid’s Ahead,” which continues the album’s blues theme while tossing around edgy harmonics and inside-out structures.
Then there’s “Straight, No Chaser,” the absolutely definitive rendition of Thelonious Monk’s signature piece. Coltrane’s marbled playing pulls at the tune’s lobed borders, Adderley takes liberty with solos, and Davis dances around his mates, at one point quoting “When the Saints Go Marching In” while demonstrating his knowledge of tradition and eye towards the future. A milestone if there ever was. And now, in resplendent mono sonics.
Tracklist:
01. Dr. Jekyll
02. Sid's Ahead
03. Two Bass Hit
04. Milestones
05. Billy Boy
06. Straight, No Chaser

Total time: 48:28

Exact Audio Copy V1.0 beta 3 from 29. August 2011

EAC extraction logfile from 24. September 2012, 18:30

Miles Davis / Milestones…… [MFSL UDSACD 2084]

Used drive : Optiarc DVD RW AD-7200S Adapter: 5 ID: 1

Read mode : Secure
Utilize accurate stream : Yes
Defeat audio cache : Yes
Make use of C2 pointers : No

Read offset correction : 48
Overread into Lead-In and Lead-Out : No
Fill up missing offset samples with silence : Yes
Delete leading and trailing silent blocks : No
Null samples used in CRC calculations : Yes
Used interface : Installed external ASPI interface

Used output format : User Defined Encoder
Selected bitrate : 1024 kBit/s
Quality : High
Add ID3 tag : No
Command line compressor : D:\Program Files (x86)\Exact Audio Copy\wavpack.exe
Additional command line options : -hlmx2 %source% %dest%


TOC of the extracted CD

Track | Start | Length | Start sector | End sector
––––––––––––––––––––––––––––-
1 | 0:00.00 | 5:55.48 | 0 | 26672
2 | 5:55.48 | 13:14.02 | 26673 | 86224
3 | 19:09.50 | 5:20.28 | 86225 | 110252
4 | 24:30.03 | 5:49.02 | 110253 | 136429
5 | 30:19.05 | 7:20.74 | 136430 | 169503
6 | 37:40.04 | 10:48.21 | 169504 | 218124


Range status and errors

Selected range

Filename D:\eac\Miles Davis\Miles Davis - Milestones…… [MFSL UDSACD 2084].wav

Peak level 98.9 %
Extraction speed 4.0 X
Range quality 99.9 %
Test CRC 22F137B8
Copy CRC 22F137B8
Copy OK

No errors occurred


AccurateRip summary

Track 1 not present in database
Track 2 not present in database
Track 3 not present in database
Track 4 not present in database
Track 5 not present in database
Track 6 not present in database

None of the tracks are present in the AccurateRip database

End of status report

–– CUETools DB Plugin V2.1.3

[CTDB TOCID: 6aeSe759m8KPSCOfSzWUL3WPLCI-] found, Submit result: 6aeSe759m8KPSCOfSzWUL3WPLCI- has been confirmed
[383d5f0d] (2/2) Accurately ripped


==== Log checksum 16BD6AF5B6BAA007273C40CD5B218386813A3AAA8FDF4962D0FC5DF49CBE0D33 ====

Thanks to taurus66

More MFSL releases from my blog on Avaxhome:
MFSL releases

Miles Davis - Milestones (1958) [MFSL, 2012]
LOSSLESS:

Filepost.com
________________

MP3 320 kbps:

Filepost.com