Tags
Language
Tags

Miley Cyrus - Plastic Hearts (2020) {Japanese Edition}

Posted By: popsakov
Miley Cyrus - Plastic Hearts (2020) {Japanese Edition}

Miley Cyrus - Plastic Hearts (2020) {Japanese Edition}
EAC Rip | FLAC (Tracks) + Cue +m3u + Log ~ 383 Mb | MP3 CBR320 ~ 132 Mb
Scans ~ 278 Mb | 00:54:38 | RAR 5% Recovery
Pop / Glam Rock / Power Pop / Soft Rock / Pop Rock
RCA / Sony Music Labels Inc. #SICP-6368

Plastic Hearts is the seventh studio album by American singer Miley Cyrus, released on November 27, 2020, by RCA Records. It marks a departure from Cyrus' previous releases, featuring a sound steeped in rock, pop, synth-pop, and glam rock, with influences from country, punk, new wave, arena rock, industrial, disco, and power pop. Most of the album was produced by Andrew Watt and Louis Bell, with further collaboration with Mark Ronson and Andrew Wyatt. Guest vocals include Billy Idol, Dua Lipa, Joan Jett and Stevie Nicks. Plastic Hearts received positive reviews from music critics. The album debuted at number two on the US Billboard 200, and at number one on the Billboard Top Rock Albums chart.

After all the stylistic shifts that have defined Miley Cyrus' career, on Plastic Hearts she reaches a balance – but not a compromise. On She Is Coming, her wild-child antics felt like an equal and opposite reaction to Younger Now's twangy contemplation. This time, she doesn't go to either extreme: Plastic Hearts' mix of polished pop, country heart, and 1980s rock edge builds on her image instead of taking a wrecking ball to it. Once again, well-chosen collaborators help her set the stage for this era. The album's creative team included Mark Ronson, a producer who's as savvy and versatile as Cyrus herself, and Plastic Hearts' songs are full of stylish, witty details. Ronson and company get just the right gated drums and neon synth washes on songs like "Gimme What I Want," where the stomping beat harks back to Animotion's "Obsession." Since the beginning of her career, Cyrus' rock-tinged moments have been among her strongest, and Plastic Hearts is no exception. It's no surprise that "Midnight Sky," Cyrus' deeply affectionate homage to the tough-girl cool of Stevie Nicks' "Edge of Seventeen," became one of her biggest hits. It's joined on the album by "Night Crawling," a duet with Billy Idol that captures the over-the-top, black and red leather sexuality of his best-loved singles so convincingly, it's almost uncanny. By comparison, the Joan Jett collaboration "Bad Karma" feels almost subdued, yet the heat she and Cyrus generate is undeniable, and Angel Olsen's guitar solo helps propel it to standout status. "Prisoner" is another highlight, with Dua Lipa's cool tones providing the perfect contrast to Miley's raspy warmth. Plastic Hearts' quieter moments, like the pedal steel-laden power ballad "High," offer some of Cyrus' best vocal performances in a while, and feel just as true to the album's spirit. Similarly, "Golden G String," a contemplative synth-country mini-memoir, feels very on-brand even as it reflects her growth as a songwriter and singer. Passionate and self-aware, Plastic Hearts is easily the finest incarnation of Cyrus' music yet.

~ Heather Phares, All Music

***************

Track List:

01. WTF Do I Know [2:52]
02. Plastic Hearts [3:26]
03. Angels Like You [3:17]
04. Prisoner [2:50]
05. Gimme What I Want [2:32]
06. Night Crawling [3:10]
07. Midnight Sky [3:44]
08. High [3:17]
09. Hate Me [2:38]
10. Bad Karma [3:09]
11. Never Be Me [3:36]
12. Golden G String [3:50]
13. Edge Of Midnight (Midnight Sky Remix) [3:41]
14. Heart Of Glass (Live from the iHeart Festival) [3:34]
15. Zombie (Live from the NIVA Save Our Stages Festival) [4:52]
16. Who Owns My Heart (Live from the iHeart Festival) [4:17]

Exact Audio Copy V1.6 from 23. October 2020

EAC extraction logfile from 21. December 2020, 21:28

Miley Cyrus / Plastic Hearts

Used drive : ASUS BW-16D1HT Adapter: 1 ID: 0

Read mode : Secure
Utilize accurate stream : Yes
Defeat audio cache : Yes
Make use of C2 pointers : No

Read offset correction : 6
Overread into Lead-In and Lead-Out : No
Fill up missing offset samples with silence : Yes
Delete leading and trailing silent blocks : No
Null samples used in CRC calculations : Yes
Used interface : Native Win32 interface for Win NT & 2000
Gap handling : Appended to previous track

Used output format : User Defined Encoder
Selected bitrate : 896 kBit/s
Quality : High
Add ID3 tag : No
Command line compressor : C:\Program Files (x86)\Exact Audio Copy\Flac\flac.exe
Additional command line options : -V -8 -T "Artist=%artist%" -T "Title=%title%" -T "Album=%albumtitle%" -T "Date=%year%" -T "Tracknumber=%tracknr%" -T "Genre=%genre%" -T "Comment=%comment%" -T "Band=%albuminterpret%" -T "Albumartist=%albuminterpret%" -T "Composer=%composer%" %haslyrics%–tag-from-file=Lyrics="%lyricsfile%"%haslyrics% -T "Discnumber=%cdnumber%" -T "Totaldiscs=%totalcds%" -T "Totaltracks=%numtracks%" %hascover%–picture="%coverfile%"%hascover% %source% -o %dest%


TOC of the extracted CD

Track | Start | Length | Start sector | End sector
––––––––––––––––––––––––––––-
1 | 0:00.00 | 2:51.60 | 0 | 12884
2 | 2:51.60 | 3:25.55 | 12885 | 28314
3 | 6:17.40 | 3:16.34 | 28315 | 43048
4 | 9:33.74 | 2:49.25 | 43049 | 55748
5 | 12:23.24 | 2:31.54 | 55749 | 67127
6 | 14:55.03 | 3:09.01 | 67128 | 81303
7 | 18:04.04 | 3:43.21 | 81304 | 98049
8 | 21:47.25 | 3:16.57 | 98050 | 112806
9 | 25:04.07 | 2:37.60 | 112807 | 124641
10 | 27:41.67 | 3:08.15 | 124642 | 138756
11 | 30:50.07 | 3:35.39 | 138757 | 154920
12 | 34:25.46 | 3:49.56 | 154921 | 172151
13 | 38:15.27 | 3:40.40 | 172152 | 188691
14 | 41:55.67 | 3:33.59 | 188692 | 204725
15 | 45:29.51 | 4:51.26 | 204726 | 226576
16 | 50:21.02 | 4:16.12 | 226577 | 245788


Track 1

Filename D:\CDrip\01. WTF Do I Know.wav

Pre-gap length 0:00:02.00

Peak level 98.8 %
Extraction speed 4.2 X
Track quality 100.0 %
Test CRC C97E14B9
Copy CRC C97E14B9
Track not present in AccurateRip database
Copy OK

Track 2

Filename D:\CDrip\02. Plastic Hearts.wav

Peak level 98.8 %
Extraction speed 4.7 X
Track quality 100.0 %
Test CRC 3247C328
Copy CRC 3247C328
Track not present in AccurateRip database
Copy OK

Track 3

Filename D:\CDrip\03. Angels Like You.wav

Peak level 98.8 %
Extraction speed 5.0 X
Track quality 100.0 %
Test CRC 56049284
Copy CRC 56049284
Track not present in AccurateRip database
Copy OK

Track 4

Filename D:\CDrip\04. Prisoner.wav

Peak level 98.8 %
Extraction speed 4.4 X
Track quality 99.9 %
Test CRC 141046AC
Copy CRC 141046AC
Track not present in AccurateRip database
Copy OK

Track 5

Filename D:\CDrip\05. Gimme What I Want.wav

Peak level 97.9 %
Extraction speed 4.5 X
Track quality 99.9 %
Test CRC D482C4F9
Copy CRC D482C4F9
Track not present in AccurateRip database
Copy OK

Track 6

Filename D:\CDrip\06. Night Crawling.wav

Peak level 99.8 %
Extraction speed 5.8 X
Track quality 100.0 %
Test CRC C685481E
Copy CRC C685481E
Track not present in AccurateRip database
Copy OK

Track 7

Filename D:\CDrip\07. Midnight Sky.wav

Peak level 99.8 %
Extraction speed 6.2 X
Track quality 100.0 %
Test CRC BB030FBA
Copy CRC BB030FBA
Track not present in AccurateRip database
Copy OK

Track 8

Filename D:\CDrip\08. High.wav

Peak level 99.9 %
Extraction speed 6.4 X
Track quality 100.0 %
Test CRC 9BE7CA2A
Copy CRC 9BE7CA2A
Track not present in AccurateRip database
Copy OK

Track 9

Filename D:\CDrip\09. Hate Me.wav

Peak level 99.0 %
Extraction speed 6.4 X
Track quality 100.0 %
Test CRC AD14430F
Copy CRC AD14430F
Track not present in AccurateRip database
Copy OK

Track 10

Filename D:\CDrip\10. Bad Karma.wav

Peak level 98.8 %
Extraction speed 5.8 X
Track quality 99.9 %
Test CRC 5F7E6737
Copy CRC 5F7E6737
Track not present in AccurateRip database
Copy OK

Track 11

Filename D:\CDrip\11. Never Be Me.wav

Peak level 96.6 %
Extraction speed 7.2 X
Track quality 100.0 %
Test CRC 76176D79
Copy CRC 76176D79
Track not present in AccurateRip database
Copy OK

Track 12

Filename D:\CDrip\12. Golden G String.wav

Peak level 99.9 %
Extraction speed 6.6 X
Track quality 99.9 %
Test CRC E04B4542
Copy CRC E04B4542
Track not present in AccurateRip database
Copy OK

Track 13

Filename D:\CDrip\13. Edge Of Midnight (Midnight Sky Remix).wav

Peak level 96.3 %
Extraction speed 1.8 X
Track quality 100.0 %
Test CRC EF8A236A
Copy CRC EF8A236A
Track not present in AccurateRip database
Copy OK

Track 14

Filename D:\CDrip\14. Heart Of Glass (Live from the iHeart Festival).wav

Peak level 99.8 %
Extraction speed 1.6 X
Track quality 99.9 %
Test CRC 999316D9
Copy CRC 999316D9
Track not present in AccurateRip database
Copy OK

Track 15

Filename D:\CDrip\15. Zombie (Live from the NIVA Save Our Stages Festival).wav

Peak level 99.8 %
Extraction speed 2.0 X
Track quality 100.0 %
Test CRC 6463FECD
Copy CRC 6463FECD
Track not present in AccurateRip database
Copy OK

Track 16

Filename D:\CDrip\16. Who Owns My Heart (Live from the iHeart Festival).wav

Peak level 97.6 %
Extraction speed 2.1 X
Track quality 100.0 %
Test CRC E42868CB
Copy CRC E42868CB
Track not present in AccurateRip database
Copy OK


None of the tracks are present in the AccurateRip database

No errors occurred

End of status report

–– CUETools DB Plugin V2.1.6

[CTDB TOCID: .Dd45R_qikQSmKT4LJDKyzQy_O0-] found
Submit result: already submitted
Track | CTDB Status
1 | (5/5) Accurately ripped
2 | (5/5) Accurately ripped
3 | (5/5) Accurately ripped
4 | (5/5) Accurately ripped
5 | (5/5) Accurately ripped
6 | (5/5) Accurately ripped
7 | (5/5) Accurately ripped
8 | (5/5) Accurately ripped
9 | (5/5) Accurately ripped
10 | (5/5) Accurately ripped
11 | (5/5) Accurately ripped
12 | (5/5) Accurately ripped
13 | (5/5) Accurately ripped
14 | (5/5) Accurately ripped
15 | (5/5) Accurately ripped
16 | (5/5) Accurately ripped


==== Log checksum B1FB6285FDF32B269C8093A4F600D690C4701887F621A8B4D500E90FC1C299BE ====

All thanks go to alxsha

>>> My Blog <<<

DOWNLOAD: