Subcategories

Milt Jackson - Wizard of the Vibes (1952) [Reissue 2001] (Repost)

Posted By: gribovar
Milt Jackson - Wizard of the Vibes (1952) [Reissue 2001] (Repost)

Milt Jackson - Wizard of the Vibes (1952) [Reissue 2001]
EAC Rip | WavPack (image+.cue+log) - 242 MB | MP3 CBR 320 kbps (LAME 3.93) - 140 MB | Covers (16 MB) included
Genre: Jazz | RAR 3% Rec. | Label: Blue Note (7243 5 32140 2 9)

The music on Wizard of the Vibes features Milt Jackson with the Thelonious Monk Quartet in a 1948 session combined with a 1952 date with his bandmates from the Modern Jazz Quartet (at that time including John Lewis, Percy Heath, and Kenny Clarke) along with alto saxophonist Lou Donaldson, who was oddly credited as the leader of the date on the original release, though it clearly seems to be Jackson in charge. The chemistry between Jackson and Monk on classics like "Misterioso," "Evidence," "I Mean You," and "Epistrophy" is immediately apparent, although Kenny "Pancho" Hagood's vocals on the standards "All the Things You Are" and "I Should Care" remain an acquired taste. Jackson introduces three originals on the latter session, including the debut of his highly acclaimed "Bag's Groove," which has long since become one of the most celebrated and popular jazz compositions. Lewis' uncanny musical ESP is evident throughout the session, as he feeds Jackson imaginative lines for his improvisations. Donaldson is enjoyable at times but doesn't always play at a level equal to the rhythm section, resorting to rather run-of-the-mill ideas in some of his improvisations. Milt Jackson's inventive playing throughout both dates makes this an important CD in his considerable discography, so it should be a part of any bop fan's collection.
Tracklist:
01. Tahiti
02. Lillie
03. Bags' Groove
04. What's New?
05. Don't Get Around Much Anymore
06. On The Scene
07. Lillie (Alternate Take)
08. What's New? (Alternate Take)
09. Don't Get Around Much Anymore (Alternate Take)
10. Evidence
11. Misterioso
12. Epistrophy
13. I Mean You
14. Misterioso (Alternate Take)
15. All The Things You Are
16. I Should Care
17. I Should Care (Alternate Take)

Total time: 52:19

Exact Audio Copy V0.99 prebeta 5 from 4. May 2009

EAC extraction logfile from 2. January 2012, 14:33

Milt Jackson / Wizard of the Vibes

Used drive : TSSTcorpCDDVDW SH-S223F Adapter: 3 ID: 0

Read mode : Secure
Utilize accurate stream : Yes
Defeat audio cache : Yes
Make use of C2 pointers : No

Read offset correction : 6
Overread into Lead-In and Lead-Out : No
Fill up missing offset samples with silence : Yes
Delete leading and trailing silent blocks : No
Null samples used in CRC calculations : Yes
Used interface : Native Win32 interface for Win NT & 2000

Used output format : User Defined Encoder
Selected bitrate : 1024 kBit/s
Quality : High
Add ID3 tag : No
Command line compressor : C:\Program Files\Exact Audio Copy\wavpack.exe
Additional command line options : -hlm %s


TOC of the extracted CD

Track | Start | Length | Start sector | End sector
––––––––––––––––––––––––––––-
1 | 0:00.00 | 3:29.07 | 0 | 15681
2 | 3:29.07 | 3:15.35 | 15682 | 30341
3 | 6:44.42 | 3:05.57 | 30342 | 44273
4 | 9:50.24 | 3:13.60 | 44274 | 58808
5 | 13:04.09 | 3:01.71 | 58809 | 72454
6 | 16:06.05 | 2:43.63 | 72455 | 84742
7 | 18:49.68 | 3:19.13 | 84743 | 99680
8 | 22:09.06 | 3:17.60 | 99681 | 114515
9 | 25:26.66 | 3:04.48 | 114516 | 128363
10 | 28:31.39 | 2:34.52 | 128364 | 139965
11 | 31:06.16 | 3:23.23 | 139966 | 155213
12 | 34:29.39 | 3:08.52 | 155214 | 169365
13 | 37:38.16 | 2:47.24 | 169366 | 181914
14 | 40:25.40 | 2:47.05 | 181915 | 194444
15 | 43:12.45 | 3:01.38 | 194445 | 208057
16 | 46:14.08 | 3:02.39 | 208058 | 221746
17 | 49:16.47 | 3:02.13 | 221747 | 235409


Range status and errors

Selected range

Filename D:\temp\Misic\Milt Jackson - Wizard of the Vibes\Milt Jackson - Wizard of the Vibes.wav

Peak level 97.9 %
Range quality 100.0 %
Test CRC D749BD2B
Copy CRC D749BD2B
Copy OK

No errors occurred


AccurateRip summary

Track 1 accurately ripped (confidence 11) [37AD0E46]
Track 2 accurately ripped (confidence 11) [BD4465A2]
Track 3 accurately ripped (confidence 11) [69DC441F]
Track 4 accurately ripped (confidence 11) [6F06A1F1]
Track 5 accurately ripped (confidence 11) [C860CBCE]
Track 6 accurately ripped (confidence 11) [E135F344]
Track 7 accurately ripped (confidence 11) [146C1A0D]
Track 8 accurately ripped (confidence 11) [AD7401B2]
Track 9 accurately ripped (confidence 11) [8BABB017]
Track 10 accurately ripped (confidence 11) [1F168BC6]
Track 11 accurately ripped (confidence 11) [8FD4073B]
Track 12 accurately ripped (confidence 11) [448BE535]
Track 13 accurately ripped (confidence 11) [7FC58AF4]
Track 14 accurately ripped (confidence 11) [D8B916D3]
Track 15 accurately ripped (confidence 11) [3842557F]
Track 16 accurately ripped (confidence 11) [8E18F269]
Track 17 accurately ripped (confidence 11) [098C76F3]

All tracks accurately ripped

End of status report

[CUETools log; Date: 15.01.2018 0:40:13; Version: 2.1.4]
[CTDB TOCID: yVxQTG5SZvpbbHgMeVSp9kD5BOw-] found.
Track | CTDB Status
1 | (52/52) Accurately ripped
2 | (52/52) Accurately ripped
3 | (51/52) Accurately ripped
4 | (52/52) Accurately ripped
5 | (52/52) Accurately ripped
6 | (52/52) Accurately ripped
7 | (52/52) Accurately ripped
8 | (52/52) Accurately ripped
9 | (52/52) Accurately ripped
10 | (52/52) Accurately ripped
11 | (52/52) Accurately ripped
12 | (52/52) Accurately ripped
13 | (52/52) Accurately ripped
14 | (52/52) Accurately ripped
15 | (52/52) Accurately ripped
16 | (52/52) Accurately ripped
17 | (52/52) Accurately ripped
[AccurateRip ID: 0020e1eb-019e127f-f20c4211] found.
Track [ CRC | V2 ] Status
01 [37ad0e46|48380515] (13+15/75) Accurately ripped
02 [bd4465a2|ac7e943c] (13+15/76) Accurately ripped
03 [69dc441f|b08a4378] (13+15/74) Accurately ripped
04 [6f06a1f1|3a2e5932] (13+15/74) Accurately ripped
05 [c860cbce|05bd2583] (13+15/76) Accurately ripped
06 [e135f344|3b269ff5] (13+15/75) Accurately ripped
07 [146c1a0d|d47d35bc] (13+15/73) Accurately ripped
08 [ad7401b2|e45197a9] (13+15/73) Accurately ripped
09 [8babb017|82fb7b26] (13+14/72) Accurately ripped
10 [1f168bc6|1fef95eb] (13+14/73) Accurately ripped
11 [8fd4073b|be749fc3] (13+14/72) Accurately ripped
12 [448be535|ec790cc9] (13+13/73) Accurately ripped
13 [7fc58af4|4fd74f45] (13+14/74) Accurately ripped
14 [d8b916d3|9e32fab8] (13+14/72) Accurately ripped
15 [3842557f|22bbe8fe] (13+14/74) Accurately ripped
16 [8e18f269|ecc610b8] (13+14/74) Accurately ripped
17 [098c76f3|491bbacd] (13+14/72) Accurately ripped
Offsetted by -269:
01 [fcfde652] (23/75) Accurately ripped
02 [34b3f77a] (23/76) Accurately ripped
03 [bbc2f7a2] (21/74) Accurately ripped
04 [6af5f6e4] (21/74) Accurately ripped
05 [e689ea59] (23/76) Accurately ripped
06 [332ba87b] (23/75) Accurately ripped
07 [8ca2c521] (21/73) Accurately ripped
08 [c7410b62] (21/73) Accurately ripped
09 [cbb36d3b] (21/72) Accurately ripped
10 [e6039b92] (22/73) Accurately ripped
11 [c1663128] (21/72) Accurately ripped
12 [9e35e9ed] (23/73) Accurately ripped
13 [fa66bbaf] (23/74) Accurately ripped
14 [86278782] (21/72) Accurately ripped
15 [0adfbc5d] (23/74) Accurately ripped
16 [4c3a3f6b] (23/74) Accurately ripped
17 [744dc921] (21/72) Accurately ripped
Offsetted by 3:
01 [c714d692] (02/75) Accurately ripped
02 [c0b18bfa] (03/76) Accurately ripped
03 [08d3fbb2] (03/74) Accurately ripped
04 [201517f4] (03/74) Accurately ripped
05 [838573e9] (03/76) Accurately ripped
06 [b75ff04b] (02/75) Accurately ripped
07 [9b2bbae1] (02/73) Accurately ripped
08 [843e5462] (02/73) Accurately ripped
09 [e282adfb] (02/72) Accurately ripped
10 [d8595fd2] (02/73) Accurately ripped
11 [75948a18] (02/72) Accurately ripped
12 [0e40b86d] (02/73) Accurately ripped
13 [e254663f] (02/74) Accurately ripped
14 [a17ec1d2] (02/72) Accurately ripped
15 [26aef8fd] (02/74) Accurately ripped
16 [2dc2eccb] (02/74) Accurately ripped
17 [e33e2cc1] (02/72) Accurately ripped

Track Peak [ CRC32 ] [W/O NULL] [ LOG ]
– 97,9 [D749BD2B] [792C8419] CRC32
01 97,9 [8E695E84] [1431DBA6]
02 87,2 [D1D0C19C] [1DA0495D]
03 97,9 [17A756E1] [23EB6D92]
04 89,4 [7C21553D] [93257744]
05 97,9 [C27C5727] [A5B84C5A]
06 97,9 [FFEEF7F2] [CD1E07F0]
07 81,5 [E9C095C3] [0F4A0F4B]
08 97,9 [6F125274] [E6A572CC]
09 97,9 [A9789440] [DC967382]
10 84,7 [AA2AED8F] [CBBDD1ED]
11 80,1 [13F4F000] [8031824B]
12 92,0 [B82C81F1] [20245335]
13 96,8 [FA14AB67] [9337E332]
14 89,2 [6DBB6C2C] [09674666]
15 64,2 [93AE6284] [805844C0]
16 65,6 [93600144] [FE649467]
17 61,2 [60B9F8B5] [12A21ED6]

Thanks to shatterhand