Subcategories

Milt Jackson & Oscar Peterson - Ain't But a Few of Us Left (1981) [Reissue 2006]

Posted By: gribovar
Milt Jackson & Oscar Peterson - Ain't But a Few of Us Left (1981) [Reissue 2006]

Milt Jackson & Oscar Peterson - Ain't But a Few of Us Left (1981) [Reissue 2006]
EAC Rip | FLAC (image+.cue+log) - 254 MB | MP3 CBR 320 kbps (LAME 3.93) - 94 MB | Covers - 29 MB
Genre: Jazz | RAR 3% Rec. | Label: Pablo Records (00025218678520)

Despite the pessimistic title, all of the members of this particular quartet (vibraphonist Milt Jackson, pianist Oscar Peterson, bassist Ray Brown and drummer Grady Tate) were still active into the mid-'90s. The music is unsurprising but still quite enjoyable and virtuosic as Bags and Co. perform blues, standards and ballads with their usual swing and bop-based creativity. Highlights include the title cut, "Stuffy," "What Am I Here For" and a vibes-piano duo version of "A Time for Love."
Tracklist:
01. Ain't But a Few of Us Left
02. Stuffy
03. A Time for Love
04. Body and Soul
05. If I Should Lose You
06. What Am I Here For?

Total time: 39:54

Exact Audio Copy V1.0 beta 1 from 15. November 2010

EAC extraction logfile from 28. April 2012, 9:53

Milt Jackson & Oscar Peterson / Ain't But a Few of Us Left

Used drive : ASUS DRW-24B1LT Adapter: 5 ID: 0

Read mode : Secure
Utilize accurate stream : Yes
Defeat audio cache : Yes
Make use of C2 pointers : No

Read offset correction : 6
Overread into Lead-In and Lead-Out : No
Fill up missing offset samples with silence : Yes
Delete leading and trailing silent blocks : No
Null samples used in CRC calculations : Yes
Used interface : Native Win32 interface for Win NT & 2000

Used output format : User Defined Encoder
Selected bitrate : 768 kBit/s
Quality : High
Add ID3 tag : No
Command line compressor : C:\Program Files\Exact Audio Copy\Flac\flac.exe
Additional command line options : -8 -V -T "ARTIST=%a" -T "TITLE=%t" -T "ALBUM=%g" -T "DATE=%y" -T "TRACKNUMBER=%n" -T "TOTALTRACKS=%x" -T "GENRE=%m" -T "ALBUMARTIST=%v" -T "ALBUM ARTIST=%v" -T "COMMENT=EAC Secure Mode, Test & Copy, AccurateRip, FLAC -8" %s


TOC of the extracted CD

Track | Start | Length | Start sector | End sector
––––––––––––––––––––––––––––-
1 | 0:00.00 | 7:28.03 | 0 | 33602
2 | 7:28.03 | 6:01.22 | 33603 | 60699
3 | 13:29.25 | 6:01.23 | 60700 | 87797
4 | 19:30.48 | 5:58.37 | 87798 | 114684
5 | 25:29.10 | 8:03.38 | 114685 | 150947
6 | 33:32.48 | 6:21.10 | 150948 | 179532


Range status and errors

Selected range

Filename F:\audio\Milt Jackson & Oscar Peterson - Ain't But a Few of Us Left.wav

Peak level 100.0 %
Extraction speed 0.8 X
Range quality 100.0 %
Test CRC DF9CF819
Copy CRC DF9CF819
Copy OK

No errors occurred


AccurateRip summary

Track 1 cannot be verified as accurate (confidence 2) [33EDD345], AccurateRip returned [E2C49BDD]
Track 2 cannot be verified as accurate (confidence 2) [5CE9FDC6], AccurateRip returned [58290F2D]
Track 3 cannot be verified as accurate (confidence 2) [075FE7B4], AccurateRip returned [6B8CFBE3]
Track 4 cannot be verified as accurate (confidence 2) [4AB62FD3], AccurateRip returned [F437FCC9]
Track 5 cannot be verified as accurate (confidence 2) [C536DB1E], AccurateRip returned [BBE895AE]
Track 6 cannot be verified as accurate (confidence 2) [858376FC], AccurateRip returned [D946E630]

No tracks could be verified as accurate
You may have a different pressing from the one(s) in the database

End of status report

==== Log checksum 15F02E933E068E6CA9FDA35E0EB617B7F64C1C5BA8FED47A60EB6DDF41F9EFB5 ====

[CUETools log; Date: 18.01.2018 3:07:58; Version: 2.1.4]
[CTDB TOCID: zc1q4nYrXMFNfzti6DZ443wXzi8-] found.
Track | CTDB Status
1 | (24/28) Accurately ripped
2 | (24/28) Accurately ripped
3 | (24/28) Accurately ripped
4 | (24/28) Accurately ripped
5 | (24/28) Accurately ripped
6 | (24/28) Accurately ripped
[AccurateRip ID: 00099243-0032e897-31095906] found.
Track [ CRC | V2 ] Status
01 [33edd345|d9ef7338] (00+03/24) Accurately ripped
02 [5ce9fdc6|03eaffdc] (00+03/23) Accurately ripped
03 [075fe7b4|13160188] (00+03/23) Accurately ripped
04 [4ab62fd3|61794426] (00+03/23) Accurately ripped
05 [c536db1e|cf920a8a] (00+03/23) Accurately ripped
06 [858376fc|46164873] (00+03/23) Accurately ripped
Offsetted by -195:
01 [fab80759] (04/24) Accurately ripped
02 [2d5fb314] (04/23) Accurately ripped
03 [1f2ec340] (04/23) Accurately ripped
04 [c0212dd1] (04/23) Accurately ripped
05 [14e700c8] (04/23) Accurately ripped
06 [598d1dfe] (04/23) Accurately ripped
Offsetted by 464:
01 [e2c49bdd] (02/24) Accurately ripped
02 [58290f2d] (02/23) Accurately ripped
03 [6b8cfbe3] (02/23) Accurately ripped
04 [f437fcc9] (02/23) Accurately ripped
05 [bbe895ae] (02/23) Accurately ripped
06 [d946e630] (02/23) Accurately ripped
Offsetted by 963:
01 [d42ad287] (03/24) Accurately ripped
02 [7c3f5866] (03/23) Accurately ripped
03 [bf45434b] (03/23) Accurately ripped
04 [774c7380] (03/23) Accurately ripped
05 [4af26e2a] (03/23) Accurately ripped
06 [68752318] (03/23) Accurately ripped
Offsetted by 576:
01 [8d197240] (00/24) No match (V2 was not tested)
02 [1c7d83aa] (00/23) No match (V2 was not tested)
03 [189480f6] (00/23) No match (V2 was not tested)
04 [56624b29] (00/23) No match (V2 was not tested)
05 [252620b0] (00/23) No match (V2 was not tested)
06 [19a18442] (00/23) No match (V2 was not tested)
Offsetted by 676:
01 [00475584] (00/24) No match (V2 was not tested)
02 [bc6736da] (00/23) No match (V2 was not tested)
03 [33754384] (00/23) No match (V2 was not tested)
04 [05ce3d39] (00/23) No match (V2 was not tested)
05 [5d41dd97] (00/23) No match (V2 was not tested)
06 [47d38657] (00/23) No match (V2 was not tested)
Offsetted by 698:
01 [1ae08aec] (00/24) No match (V2 was not tested)
02 [b88b19cb] (00/23) No match (V2 was not tested)
03 [ccaee245] (00/23) No match (V2 was not tested)
04 [089ba1ba] (00/23) No match (V2 was not tested)
05 [97587efd] (00/23) No match (V2 was not tested)
06 [10f89b79] (00/23) No match (V2 was not tested)

Track Peak [ CRC32 ] [W/O NULL] [ LOG ]
– 100,0 [DF9CF819] [8AD9C2A2] CRC32
01 100,0 [7D7A28D8] [262E0F84]
02 87,1 [59A976F8] [3B173747]
03 78,0 [7B2F9D72] [3DDEC70F]
04 85,3 [2F1E35DE] [ED249EDE]
05 100,0 [3EC3A000] [3ECCED73]
06 99,1 [60DDDBE0] [295D80EF]

Thanks to fiks22

See also: