Misha Maisky - J.S. Bach: 6 Cello-Suiten (1985)

Posted By: tirexiss
Misha Maisky - J.S. Bach: 6 Cello-Suiten (1985)

Misha Maisky: J.S. Bach - 6 Cello-Suiten (1985)
EAC | FLAC (image+.cue, log) | Covers Included | 02:47:24 | 802 MB
Genre: Classical | Label: Deutsche Grammophon | Catalog: 445 373-2

Many people have accused the Maisky interpretation of the Bach Unaccompanied Cello Suites as "romanticized." I have just two words for Maisky's critics: "So What?"
What truly matters is that Mischa Maisky is the most energetic and most original devotee of Bach. His version of the Bach Cello Suites is not only the best in the market today, but more importantly, demonstrates that music should be played by an artist, not for the sake of accuracy, but for the purpose of art and its resulting empathy which infuses the audience.
The Bach Cello Suites have never been played with such virtuosity. The flourishing vibrato and climaxes of the D minor Prelude, the joyous, celebratory exultations of the D major Gavotte and Gigue, and the haunting intonations of the C minor Sarabande, demonstrates that Mr. Maisky expresses and translates his own subjective, emotional candor in a very objective and skillful interpretation of the Bach Suites.
The Maisky interpretation does not fulfill the ascetic, baroque qualities of Bach, such as in the superb recordings of Yo-Yo Ma. Yet, it completely transcends Bach to a more modern and ethereal focus. Only a handful of Bach devotees have attempted to do this and still be able to maintain the spirit of Bach. These artists would include names such as, Glenn Gould, Arthur Grumiaux, Mstislav Rostropovich, Oscar Shumsky, and now, with his splendid interpretation, Mischa Maisky.
The criticism inflicted upon Mr. Maisky is probably as a result of the first impressions made with his expeditious rendition of the G major Prelude. At first, this unorthodox rendition threw me off as well, yet I became captivated with this approach, because of the enigmatic energy it exudes the more the listener accepts its uninhibited artistry.
Conductor Daniel Barenboim once said that musicians must have a "child-like" quality in their music. He stated this remark because music, in its essence, is an expression of unadulterated, spiritual creativity that musicians must express as if they are playing it for the first time, as a transcendent revelation. Maisky's interpretation, without a question, follows this philosophy and fills the void that has been lacking in Bach since the Rostropovich interpretation of the suites, seven years ago. Thus, it is not unfair to label Mischa Maisky's recording as "child-like," whereas his critics, and their criticism of his interpretation as romanticized, can be called "childish."

Misha Maisky - J.S. Bach: 6 Cello-Suiten (1985)

Track List:

CD 1:
Suite No. 1 G-dur BWV 1007
1. I. Prélude 2:39
2. II. Allemande 4:37
3. III. Courante 2:42
4. IV. Sarabande 3:58
5. V. Menuet I/II 3:52
6. VI. Gigue 1:55
Suite No. 4 Es-dur BWV 1010
7. I. Prélude 6:23
8. II. Allemande 4:32
9. III. Courante 4:10
10. IV. Sarabande 5:05
11. V. Bourrée I/II 5:52
12. VI. Gigue 2:59
Suite No. 5 c-moll BWV 1011
13. I. Prélude 7:50
14. II. Allemande 6:59
15. III. Courante 2:13
16. IV. Sarabande 4:54
17. V. Gavotte I/II
18. VI. Gigue 2:31

Exact Audio Copy V1.0 beta 3 from 29. August 2011

Отчёт EAC об извлечении, выполненном 11. ноября 2012, 15:08

Mischa Maisky / Johann Sebastian Bach 6 Cello-Suiten

Дисковод: Optiarc DVD RW AD-7261S Adapter: 0 ID: 3

Режим чтения : Достоверность
Использование точного потока : Да
Отключение кэша аудио : Да
Использование указателей C2 : Нет

Коррекция смещения при чтении : 48
Способность читать области Lead-in и Lead-out : Нет
Заполнение пропущенных сэмплов тишиной : Да
Удаление блоков с тишиной в начале и конце : Нет
При вычислениях CRC использовались нулевые сэмплы : Да
Интерфейс : Встроенный Win32-интерфейс для Win NT/2000

Выходной формат : Пользовательский кодировщик
Выбранный битрейт : 768 kBit/s
Качество : Высокий
Добавление ID3-тега : Нет
Утилита сжатия : C:\Program Files\Exact Audio Copy\FLAC\FLAC.EXE
Дополнительные параметры : -V -8 -T "Date=%year%" -T "Genre=%genre%" %source%


TOC извлечённого CD

Трек | Старт | Длительность | Начальный сектор | Конечный сектор
––––––––––––––––––––––––––––––––––-
1 | 0:00.33 | 2:39.00 | 33 | 11957
2 | 2:39.33 | 4:36.50 | 11958 | 32707
3 | 7:16.08 | 2:42.25 | 32708 | 44882
4 | 9:58.33 | 3:58.00 | 44883 | 62732
5 | 13:56.33 | 3:52.00 | 62733 | 80132
6 | 17:48.33 | 1:59.00 | 80133 | 89057
7 | 19:47.33 | 6:22.50 | 89058 | 117757
8 | 26:10.08 | 4:31.62 | 117758 | 138144
9 | 30:41.70 | 4:10.38 | 138145 | 156932
10 | 34:52.33 | 5:05.00 | 156933 | 179807
11 | 39:57.33 | 5:51.50 | 179808 | 206182
12 | 45:49.08 | 3:04.25 | 206183 | 220007
13 | 48:53.33 | 7:50.00 | 220008 | 255257
14 | 56:43.33 | 7:00.37 | 255258 | 286794
15 | 63:43.70 | 2:13.13 | 286795 | 296782
16 | 65:57.08 | 4:54.25 | 296783 | 318857
17 | 70:51.33 | 5:34.37 | 318858 | 343944
18 | 76:25.70 | 2:31.38 | 343945 | 355307


Характеристики диапазона извлечения и сообщения об ошибках

Выбранный диапазон

Имя файла E:\My musica\Misha Maisky - Bach Cello Suites\CD1\Mischa Maisky - Johann Sebastian Bach 6 Cello-Suiten.wav

Пиковый уровень 94.8 %
Скорость извлечения 4.6 X
Качество диапазона 100.0 %
CRC теста F7F2350A
CRC копии F7F2350A
Копирование… OK

Ошибок не произошло


AccurateRip: сводка

Трек 1 точность не определена (достоверность 7) [0C00AB97], AccurateRip вернул [6D2B6586] (AR v2)
Трек 2 точность не определена (достоверность 7) [121E134E], AccurateRip вернул [324FA354] (AR v2)
Трек 3 точность не определена (достоверность 6) [A32146F0], AccurateRip вернул [B00E327C] (AR v2)
Трек 4 точность не определена (достоверность 7) [4725DA42], AccurateRip вернул [99F6438A] (AR v2)
Трек 5 точность не определена (достоверность 7) [7732EDC7], AccurateRip вернул [ADAB9AF4] (AR v2)
Трек 6 точность не определена (достоверность 7) [5A820082], AccurateRip вернул [CF52D444] (AR v2)
Трек 7 точность не определена (достоверность 7) [190F2E8F], AccurateRip вернул [BC38D58D] (AR v2)
Трек 8 точность не определена (достоверность 6) [8ECB70AC], AccurateRip вернул [9466458E] (AR v2)
Трек 9 точность не определена (достоверность 6) [568B1213], AccurateRip вернул [B2B9FD47] (AR v2)
Трек 10 точность не определена (достоверность 7) [C6313342], AccurateRip вернул [DEAEF022] (AR v2)
Трек 11 точность не определена (достоверность 6) [4C91A69F], AccurateRip вернул [0FA42D40] (AR v2)
Трек 12 точность не определена (достоверность 6) [CF540EA9], AccurateRip вернул [93558FE7] (AR v2)
Трек 13 точность не определена (достоверность 7) [3CE2D50D], AccurateRip вернул [9AECBEF3] (AR v2)
Трек 14 точность не определена (достоверность 7) [64B5084E], AccurateRip вернул [BD0ADC2E] (AR v2)
Трек 15 точность не определена (достоверность 7) [6E613EF7], AccurateRip вернул [48D2E718] (AR v2)
Трек 16 точность не определена (достоверность 7) [14EC0300], AccurateRip вернул [3D92D60D] (AR v2)
Трек 17 точность не определена (достоверность 7) [8391DE78], AccurateRip вернул [8AAEDDFC] (AR v2)
Трек 18 точность не определена (достоверность 7) [7D9EFC08], AccurateRip вернул [8E045D26] (AR v2)

Ни один трек не прошёл проверки на точность
В вашей базе может быть иной вариант штамповки диска

Конец отчёта

==== Контрольная сумма отчёта A0774D30334E3565CED0EB2560A948F7F6090272D304277D6021F50F237EBA0B ====

[CUETools log; Date: 30.04.2017 11:03:44; Version: 2.1.5]
Pregap length 00:00:33.
[CTDB TOCID: C1sp93LJ.9rPYnAMWjC9064aNMs-] found.
Track | CTDB Status
1 | (22/22) Accurately ripped
2 | (21/22) Accurately ripped
3 | (22/22) Accurately ripped
4 | (21/22) Accurately ripped
5 | (22/22) Accurately ripped
6 | (22/22) Accurately ripped
7 | (22/22) Accurately ripped
8 | (22/22) Accurately ripped
9 | (22/22) Accurately ripped
10 | (21/22) Accurately ripped, or (1/22) differs in 5 samples @05:03:19
11 | (22/22) Accurately ripped
12 | (22/22) Accurately ripped
13 | (22/22) Accurately ripped
14 | (22/22) Accurately ripped
15 | (22/22) Accurately ripped
16 | (22/22) Accurately ripped
17 | (21/22) Accurately ripped
18 | (22/22) Accurately ripped
[AccurateRip ID: 0030c968-029bebca-13128112] found.
Track [ CRC | V2 ] Status
01 [784c15e7|0c00ab97] (00+00/29) No match
02 [201f42a5|121e134e] (00+00/29) No match
03 [6af56825|a32146f0] (00+00/28) No match
04 [ed98ea9d|4725da42] (00+00/29) No match
05 [436cd411|7732edc7] (00+00/29) No match
06 [35a88a6d|5a820082] (00+00/29) No match
07 [e1d2f89d|190f2e8f] (00+00/29) No match
08 [d9da5205|8ecb70ac] (00+00/28) No match
09 [417e3d4b|568b1213] (00+00/28) No match
10 [f38a72c4|c6313342] (00+00/29) No match
11 [76b33883|4c91a69f] (00+00/27) No match
12 [68f0c9a2|cf540ea9] (00+00/28) No match
13 [191bc1ff|3ce2d50d] (00+00/29) No match
14 [ca58c6ac|64b5084e] (00+00/29) No match
15 [d48edb98|6e613ef7] (00+00/29) No match
16 [dd3e9c66|14ec0300] (00+00/28) No match
17 [5296534d|8391de78] (00+00/29) No match
18 [e8f3697e|7d9efc08] (00+00/29) No match
Offsetted by -1111:
01 [5f4328da] (02/29) Accurately ripped
02 [bd61a035] (02/29) Accurately ripped
03 [3ca80307] (02/28) Accurately ripped
04 [cc84c1a2] (02/29) Accurately ripped
05 [c784d056] (02/29) Accurately ripped
06 [ecfce8fc] (02/29) Accurately ripped
07 [2ddbe4ea] (02/29) Accurately ripped
08 [4d8e4481] (02/28) Accurately ripped
09 [fdb0b84f] (02/28) Accurately ripped
10 [b7e34a4d] (02/29) Accurately ripped
11 [7e8395bc] (02/27) Accurately ripped
12 [8a485f0b] (02/28) Accurately ripped
13 [cea8cc31] (02/29) Accurately ripped
14 [64883307] (02/29) Accurately ripped
15 [b83e05e9] (02/29) Accurately ripped
16 [505ba56b] (02/28) Accurately ripped
17 [1547f24a] (02/29) Accurately ripped
18 [ac28a5c2] (02/29) Accurately ripped
Offsetted by -447:
01 [4b14007a] (02/29) Accurately ripped
02 [1db5a7c0] (02/29) Accurately ripped
03 [914ced8a] (02/28) Accurately ripped
04 [1f937090] (02/29) Accurately ripped
05 [76a923cf] (02/29) Accurately ripped
06 [dd006fff] (02/29) Accurately ripped
07 [abd37a8e] (02/29) Accurately ripped
08 [cf3cf8cd] (02/28) Accurately ripped
09 [53600b52] (02/28) Accurately ripped
10 [98e3d18d] (02/29) Accurately ripped
11 [a68bfe3b] (02/27) Accurately ripped
12 [4fbc75a1] (02/28) Accurately ripped
13 [94b9df4b] (02/29) Accurately ripped
14 [603d1059] (02/29) Accurately ripped
15 [27da2fad] (02/29) Accurately ripped
16 [6a7a4ba6] (02/28) Accurately ripped
17 [73cd019e] (02/29) Accurately ripped
18 [95265ec2] (02/29) Accurately ripped
Offsetted by 217:
01 [6d2b6586] (07/29) Accurately ripped
02 [324fa354] (07/29) Accurately ripped
03 [b00e327c] (06/28) Accurately ripped
04 [99f6438a] (07/29) Accurately ripped
05 [adab9af4] (07/29) Accurately ripped
06 [cf52d444] (07/29) Accurately ripped
07 [bc38d58d] (07/29) Accurately ripped
08 [9466458e] (06/28) Accurately ripped
09 [b2b9fd47] (06/28) Accurately ripped
10 [deaef022] (07/29) Accurately ripped
11 [0fa42d40] (06/27) Accurately ripped
12 [93558fe7] (06/28) Accurately ripped
13 [9aecbef3] (07/29) Accurately ripped
14 [bd0adc2e] (07/29) Accurately ripped
15 [48d2e718] (07/29) Accurately ripped
16 [3d92d60d] (07/28) Accurately ripped
17 [8aaeddfc] (07/29) Accurately ripped
18 [8e045d26] (07/29) Accurately ripped
Offsetted by 780:
01 [6a83bf18] (00/29) No match (V2 was not tested)
02 [7fdba987] (00/29) No match (V2 was not tested)
03 [b329d046] (00/28) No match (V2 was not tested)
04 [7cd7f7c6] (00/29) No match (V2 was not tested)
05 [dc33fda3] (00/29) No match (V2 was not tested)
06 [8bb9c4a2] (00/29) No match (V2 was not tested)
07 [0fe00235] (00/29) No match (V2 was not tested)
08 [63f0a334] (00/28) No match (V2 was not tested)
09 [098ad9ac] (00/28) No match (V2 was not tested)
10 [fe17f074] (00/29) No match (V2 was not tested)
11 [e99c8db8] (00/27) No match (V2 was not tested)
12 [887368d2] (00/28) No match (V2 was not tested)
13 [bad360f2] (00/29) No match (V2 was not tested)
14 [b1f64676] (00/29) No match (V2 was not tested)
15 [0e2e7691] (00/29) No match (V2 was not tested)
16 [7d548107] (00/28) No match (V2 was not tested)
17 [3bf87d8e] (00/29) No match (V2 was not tested)
18 [8b9c9165] (00/29) No match (V2 was not tested)

Track Peak [ CRC32 ] [W/O NULL] [ LOG ]
– 94,8 [F7F2350A] [3AA3595B] CRC32
01 87,4 [BBCDE1C7] [E9CA5F0A]
02 73,6 [BCF05108] [0C5E7CF2]
03 65,2 [5C5CA064] [9A7E2698]
04 66,1 [D7F8AF90] [0E62CD1B]
05 61,4 [089D121A] [20E05D6C]
06 94,8 [89A17FF0] [B896D31A]
07 62,6 [4EFCC8D8] [735A62DE]
08 58,5 [352D5EA1] [79C75880]
09 66,9 [81B923AE] [25E59730]
10 64,2 [2DFCD184] [6FB7423B]
11 90,1 [08A8E476] [14F37542]
12 86,5 [DE936BC2] [25F85B98]
13 93,3 [D853E946] [343CB9D7]
14 89,3 [C28EDEB8] [050011A4]
15 83,2 [82978CB2] [F7983254]
16 61,9 [379C3093] [89751F34]
17 94,5 [45FD6BC9] [9420EF57]
18 75,1 [72EA8860] [4F554D61]

CD 2:
Suite No. 3 C-dur BWV 1009
1. I. Prélude 4:41
2. II. Allemande 3:08
3. III. Courante 2:44
4. IV. Sarabande 6:02
5. V. Bourrée I/II 4:50
6. Gigue 3:14
Suite No. 2 d-moll BWV 1008
7. I. Prélude 4:23
8. II. Allemande 3:24
9. III. Courante 1:43
10. IV. Sarabande 6:54
11. V. Menuet I/II 3:55
12. VI. Gigue 3:03
Suite No. 6 D-dur BWV 1012
13. I. Prélude 5:47
14. II. Allemande 8:40
15. III. Courante 3:37
16. IV. Sarabande 3:38
17. V. Gavotte I/II 4:58
18. VI. Gigue 4:00

Exact Audio Copy V1.0 beta 3 from 29. August 2011

Отчёт EAC об извлечении, выполненном 11. ноября 2012, 15:48

Mischa Maisky / Johann Sebastian Bach 6 Cello-Suiten Disc 2

Дисковод: Optiarc DVD RW AD-7261S Adapter: 0 ID: 3

Режим чтения : Достоверность
Использование точного потока : Да
Отключение кэша аудио : Да
Использование указателей C2 : Нет

Коррекция смещения при чтении : 48
Способность читать области Lead-in и Lead-out : Нет
Заполнение пропущенных сэмплов тишиной : Да
Удаление блоков с тишиной в начале и конце : Нет
При вычислениях CRC использовались нулевые сэмплы : Да
Интерфейс : Встроенный Win32-интерфейс для Win NT/2000

Выходной формат : Пользовательский кодировщик
Выбранный битрейт : 768 kBit/s
Качество : Высокий
Добавление ID3-тега : Нет
Утилита сжатия : C:\Program Files\Exact Audio Copy\FLAC\FLAC.EXE
Дополнительные параметры : -V -8 -T "Date=%year%" -T "Genre=%genre%" %source%


TOC извлечённого CD

Трек | Старт | Длительность | Начальный сектор | Конечный сектор
––––––––––––––––––––––––––––––––––-
1 | 0:00.32 | 4:41.38 | 32 | 21144
2 | 4:41.70 | 3:08.37 | 21145 | 35281
3 | 7:50.32 | 2:44.00 | 35282 | 47581
4 | 10:34.32 | 6:02.00 | 47582 | 74731
5 | 16:36.32 | 4:50.00 | 74732 | 96481
6 | 21:26.32 | 3:20.00 | 96482 | 111481
7 | 24:46.32 | 4:23.00 | 111482 | 131206
8 | 29:09.32 | 3:24.00 | 131207 | 146506
9 | 32:33.32 | 1:43.00 | 146507 | 154231
10 | 34:16.32 | 6:54.00 | 154232 | 185281
11 | 41:10.32 | 3:55.00 | 185282 | 202906
12 | 45:05.32 | 3:07.00 | 202907 | 216931
13 | 48:12.32 | 5:46.38 | 216932 | 242919
14 | 53:58.70 | 8:42.00 | 242920 | 282069
15 | 62:40.70 | 3:35.37 | 282070 | 298231
16 | 66:16.32 | 3:37.00 | 298232 | 314506
17 | 69:53.32 | 4:58.20 | 314507 | 336876
18 | 74:51.52 | 4:02.55 | 336877 | 355081


Характеристики диапазона извлечения и сообщения об ошибках

Выбранный диапазон

Имя файла E:\My musica\Misha Maisky - Bach Cello Suites\CD2\Mischa Maisky - Johann Sebastian Bach 6 Cello-Suiten Disc 2.wav

Пиковый уровень 95.5 %
Скорость извлечения 4.6 X
Качество диапазона 100.0 %
CRC теста E93AC4AD
CRC копии E93AC4AD
Копирование… OK

Ошибок не произошло


AccurateRip: сводка

Трек 1 : извлечено точно (доверие 2) [46A72AB8] (AR v1)
Трек 2 : извлечено точно (доверие 2) [CD607D65] (AR v1)
Трек 3 : извлечено точно (доверие 2) [E9BC2A5A] (AR v1)
Трек 4 : извлечено точно (доверие 2) [568F3E6C] (AR v1)
Трек 5 : извлечено точно (доверие 2) [63E0B59F] (AR v1)
Трек 6 : извлечено точно (доверие 2) [E3249CE3] (AR v1)
Трек 7 : извлечено точно (доверие 2) [2C943806] (AR v1)
Трек 8 : извлечено точно (доверие 2) [046BFA05] (AR v1)
Трек 9 : извлечено точно (доверие 2) [857EFAE5] (AR v1)
Трек 10 : извлечено точно (доверие 2) [F146DF66] (AR v1)
Трек 11 : извлечено точно (доверие 2) [7A15BCD3] (AR v1)
Трек 12 : извлечено точно (доверие 2) [16F8EBE7] (AR v1)
Трек 13 : извлечено точно (доверие 2) [B8D7B3C3] (AR v1)
Трек 14 : извлечено точно (доверие 2) [88BB59A5] (AR v1)
Трек 15 : извлечено точно (доверие 2) [D307875E] (AR v1)
Трек 16 : извлечено точно (доверие 2) [037132B7] (AR v1)
Трек 17 : извлечено точно (доверие 2) [8456DD5A] (AR v1)
Трек 18 : извлечено точно (доверие 2) [DD73B325] (AR v1)

Все треки извлечены точно

Конец отчёта

==== Контрольная сумма отчёта 7B1F31F615561049215565896B7E77C7ACAD94BBFE0759F9C588CDC24CF491F4 ====

[CUETools log; Date: 30.04.2017 11:04:09; Version: 2.1.5]
Pregap length 00:00:32.
[CTDB TOCID: fIimEYEk6k4jdQss9m6RlnR9yIk-] found.
Track | CTDB Status
1 | (11/11) Accurately ripped
2 | (11/11) Accurately ripped
3 | (11/11) Accurately ripped
4 | (11/11) Accurately ripped
5 | (11/11) Accurately ripped
6 | (11/11) Accurately ripped
7 | (11/11) Accurately ripped
8 | (11/11) Accurately ripped
9 | (11/11) Accurately ripped
10 | (11/11) Accurately ripped
11 | (11/11) Accurately ripped
12 | (11/11) Accurately ripped
13 | (11/11) Accurately ripped
14 | (11/11) Accurately ripped
15 | (11/11) Accurately ripped
16 | (11/11) Accurately ripped
17 | (11/11) Accurately ripped
18 | ( 9/11) Accurately ripped
[AccurateRip ID: 0031a4f4-029ce114-32127e12] found.
Track [ CRC | V2 ] Status
01 [46a72ab8|8ecbc338] (03+02/17) Accurately ripped
02 [cd607d65|b225c881] (03+02/17) Accurately ripped
03 [e9bc2a5a|9d257eeb] (03+02/17) Accurately ripped
04 [568f3e6c|f570f0c5] (03+02/17) Accurately ripped
05 [63e0b59f|dcfc7aa3] (03+02/17) Accurately ripped
06 [e3249ce3|1a4b8123] (03+02/17) Accurately ripped
07 [2c943806|9d6226ab] (03+02/17) Accurately ripped
08 [046bfa05|7ecb7509] (03+02/17) Accurately ripped
09 [857efae5|2a492e2d] (03+02/17) Accurately ripped
10 [f146df66|9b035e36] (03+02/17) Accurately ripped
11 [7a15bcd3|5df82719] (03+02/17) Accurately ripped
12 [16f8ebe7|6d27cda6] (03+02/17) Accurately ripped
13 [b8d7b3c3|80ef8189] (03+02/17) Accurately ripped
14 [88bb59a5|da413601] (03+02/17) Accurately ripped
15 [d307875e|bfe01b11] (03+02/17) Accurately ripped
16 [037132b7|6af210a4] (03+02/17) Accurately ripped
17 [8456dd5a|390f80b3] (03+02/17) Accurately ripped
18 [dd73b325|7941cf4d] (03+02/17) Accurately ripped
Offsetted by 664:
01 [84b9faf9] (02/17) Accurately ripped
02 [baebafab] (02/17) Accurately ripped
03 [dcaa782e] (02/17) Accurately ripped
04 [b4964b24] (02/17) Accurately ripped
05 [7879e2ff] (02/17) Accurately ripped
06 [692b3c8a] (02/17) Accurately ripped
07 [e662d950] (02/17) Accurately ripped
08 [5f2511f9] (02/17) Accurately ripped
09 [d0a1fcb1] (02/17) Accurately ripped
10 [81c3c43e] (02/17) Accurately ripped
11 [d06fb7e1] (02/17) Accurately ripped
12 [207eb8ed] (02/17) Accurately ripped
13 [39c5f1ff] (02/17) Accurately ripped
14 [ba73e41c] (02/17) Accurately ripped
15 [cc9f6376] (02/17) Accurately ripped
16 [0ccd70b1] (02/17) Accurately ripped
17 [ae3a6543] (02/17) Accurately ripped
18 [3353f067] (02/17) Accurately ripped
Offsetted by -1353:
01 [d93e60cd] (00/17) No match (V2 was not tested)
02 [1be70d09] (00/17) No match (V2 was not tested)
03 [c5ed3661] (00/17) No match (V2 was not tested)
04 [9dd9d5ca] (00/17) No match (V2 was not tested)
05 [9121c51c] (00/17) No match (V2 was not tested)
06 [7df734c0] (00/17) No match (V2 was not tested)
07 [6aa91f9c] (00/17) No match (V2 was not tested)
08 [f0a55b29] (00/17) No match (V2 was not tested)
09 [e7dbadf6] (00/17) No match (V2 was not tested)
10 [580d00b9] (00/17) No match (V2 was not tested)
11 [f2fd8f64] (00/17) No match (V2 was not tested)
12 [7e078b24] (00/17) No match (V2 was not tested)
13 [1ded0922] (00/17) No match (V2 was not tested)
14 [bf62870d] (00/17) No match (V2 was not tested)
15 [b5256d0c] (00/17) No match (V2 was not tested)
16 [edc3f536] (00/17) No match (V2 was not tested)
17 [c86c7d86] (00/17) No match (V2 was not tested)
18 [0b4c079e] (00/17) No match (V2 was not tested)

Track Peak [ CRC32 ] [W/O NULL] [ LOG ]
– 95,5 [E93AC4AD] [E834127E] CRC32
01 95,5 [BA20CEF3] [46F828A5]
02 77,0 [8F1AC6A4] [CE5E78C9]
03 66,5 [9A8FF3E9] [727A8539]
04 62,7 [918FB926] [5D5C8B6A]
05 62,1 [92C83214] [13119678]
06 85,9 [81395115] [C2331AFB]
07 84,1 [60A8FD97] [D5BC3553]
08 89,7 [19CFCEA8] [9DDBBA1D]
09 73,7 [F3EA8C5E] [BCA12D43]
10 70,9 [967EAA51] [82EB21CC]
11 84,1 [D6A7B6C9] [2AE70DFD]
12 83,3 [F6F37C30] [A3F3F65E]
13 93,1 [5BB3C1DE] [C8F93218]
14 60,2 [D738089D] [C033320B]
15 84,8 [6245A6A9] [897452D2]
16 86,0 [3A0DC522] [3DFD06BD]
17 87,0 [51B96B2F] [E6C91B53]
18 85,7 [3E91DDA7] [C18FFA90]

Performers:
Mischa Maisky, cello

Thanks to the Original ripper 1000oceans!

Download: