Subcategories

Mission - Cecilia Bartoli (2012)

Posted By: peotuvave
Mission - Cecilia Bartoli (2012)

Mission - Cecilia Bartoli (2012)
EAC Rip | Flac (Tracks + cue + log) | 1 CD | Full Scans | 448 MB
Genre: Classical | Label: Decca | Catalog Number: 001742002

Autumn 2012 marks the release of Mission, a sensational new album from the world’s best-selling classical artist, Cecilia Bartoli, and a project with international politics, religious conflict, diplomatic secrecy, spying and sensational music at its heart.

The album showcases the music of a little-known Italian composer and will include solo arias of various moods and styles, several duets, solo numbers with chorus - all sung in Italian - and instrumental interludes that create an organic transition from one piece to the next and an arc that reaches from the beginning to the end of the album.

Such was the appeal of the project that longtime Bartoli admirer and global best-selling author Donna Leon decided to write a mystery novel - Jewels of Paradise - to accompany Cecilia’s album, which uses the mystery surrounding the composer’s story as the centre of its plot. Jewels of Paradise will be released simultaneously with Cecilia Bartoli’s album in English (UK and USA), German, French, Dutch, Spanish and Catalan.

Among the distinguished names appearing on Mission is star French counter-tenor Philippe Jaroussky who features in a first-time collaboration with Cecilia on a selection of duets, alongside the Coro della Radiotelevisione Svizzera, the period orchestra I Barocchisti from Lugano, Switzerland, and conductor Diego Fasolis.

Composer: Agostino Steffani
Performer: Cecilia Bartoli, Rosario Conte, Philippe Jaroussky
Conductor: Diego Fasolis
Orchestra/Ensemble: I Barocchisti, Swiss Radio Chorus

Reviews: "Ms. Bartoli has an eye for spying out unjustly overlooked repertory. Mystery lovers will want to join her on the trail of her latest discovery, Agostino Steffani, an Italian Baroque composer, priest and diplomat, whose secret missions took him across Germany and Northern Europe. Among the opera arias Ms. Bartoli dug up in the archives are some treasures, hypnotic, slow numbers in which voice and accompanying strings circle each other like spinning planets and jubilant vehicles for her rapid-fire coloratura singing. Mr. Fasolis stokes the fire with an impetuous period-instrument ensemble." – Zachary Woolfe, The New York Times [11/20/2012]

Cecilia Bartoli's latest project has international politics, religious conflict, diplomatic secrecy, spying, and sensational music at its heart. The singer turns to the early Baroque period for the first time in her recording career and uncovers a treasure of beautiful music in an album almost entirely composed of world-premiere recordings.

Mission showcases the music of little-known Italian composer Agostino Steffani (1654–1728) and includes solo arias, duets (including first-time collaborations with French countertenor Philippe Jaroussky), solo numbers with chorus, and instrumental interludes that create an organic arc from beginning to end.

Steffani's story is mysterious, to say the least. His name is largely absent from studies of Italian music, despite holding senior court positions during his lifetime and contemporary accounts acknowledging him as one of the greatest opera composers of the period and the acknowledged master of the vocal duet. His story even inspired longtime Bartoli admirer and global best-selling author Donna Leon to write a mystery novel, Jewels of Paradise (to be released at the same time as Mission), that centers its plot on the composer's enigmatic life. With Mission, Cecilia Bartoli brings Steffani's music out of the shadows for a happier fate that it richly deserves.

Tracklisting:

1. Alarico il Baltha: Schiere invitte, non tardate by Agostino Steffani
Performer: Cecilia Bartoli (Mezzo Soprano)
Conductor: Diego Fasolis
Orchestra/Ensemble: I Barocchisti
Period: Baroque
Written: by 1687

2. Servio Tullio: Ogni core può sperar by Agostino Steffani
Performer: Cecilia Bartoli (Mezzo Soprano)
Conductor: Diego Fasolis
Orchestra/Ensemble: I Barocchisti
Period: Baroque
Written: by 1686

3. Niobe, regina di Tebe: Ove son? Chi m’aita? In mezzo all’ombre…Dal mio petto by Agostino Steffani
Performer: Cecilia Bartoli (Mezzo Soprano)
Conductor: Diego Fasolis
Orchestra/Ensemble: I Barocchisti
Period: Baroque
Written: 1688

4. Tassilone: Più non v’ascondo by Agostino Steffani
Performer: Cecilia Bartoli (Mezzo Soprano)
Conductor: Diego Fasolis
Orchestra/Ensemble: I Barocchisti
Period: Baroque
Written: by 1709

5. Niobe, regina di Tebe: Amami, e vederai by Agostino Steffani
Performer: Cecilia Bartoli (Mezzo Soprano), Rosario Conte (Lute)
Conductor: Diego Fasolis
Orchestra/Ensemble: I Barocchisti
Period: Baroque
Written: 1688

6. Niobe, regina di Tebe: T’abbraccio, mia Diva…Ti stringo, mio Nume by Agostino Steffani
Performer: Cecilia Bartoli (Mezzo Soprano), Philippe Jaroussky (Countertenor)
Conductor: Diego Fasolis
Orchestra/Ensemble: I Barocchisti
Period: Baroque
Written: 1688

7. I trionfi del fato: Mie fide schiere, all’armi! by Agostino Steffani
Performer: Cecilia Bartoli (Mezzo Soprano)
Conductor: Diego Fasolis
Orchestra/Ensemble: I Barocchisti
Period: Baroque
Written: 1695

8. Arminio: Suoni, tuoni, il suolo scuota by Agostino Steffani
Performer: Cecilia Bartoli (Mezzo Soprano)
Conductor: Diego Fasolis
Orchestra/Ensemble: I Barocchisti
Period: Baroque
Written: 1707

9. Tassilone: Sposa, mancar mi sento…Deh non far colle tue lagrime by Agostino Steffani
Performer: Cecilia Bartoli (Mezzo Soprano)
Conductor: Diego Fasolis
Orchestra/Ensemble: I Barocchisti
Period: Baroque
Written: by 1709

10. La superbia d'Alessandro: Non prendo consiglio by Agostino Steffani
Performer: Cecilia Bartoli (Mezzo Soprano)
Conductor: Diego Fasolis
Orchestra/Ensemble: I Barocchisti
Period: Baroque
Written: by 1690

11. Alarico il Baltha: Sì, sì, riposa, o caro…Palpitanti sfere belle by Agostino Steffani
Performer: Cecilia Bartoli (Mezzo Soprano)
Conductor: Diego Fasolis
Orchestra/Ensemble: I Barocchisti
Period: Baroque
Written: by 1687

12. La libertà contenta: Notte amica al cieco Dio by Agostino Steffani
Performer: Cecilia Bartoli (Mezzo Soprano)
Conductor: Diego Fasolis
Orchestra/Ensemble: I Barocchisti
Period: Baroque
Written: by 1693

13. I trionfi del fato: Combatton quest’alma by Agostino Steffani
Performer: Cecilia Bartoli (Mezzo Soprano), Philippe Jaroussky (Countertenor)
Conductor: Diego Fasolis
Orchestra/Ensemble: I Barocchisti
Period: Baroque
Written: 1695

14. Tassilone: A facile vittoria by Agostino Steffani
Performer: Cecilia Bartoli (Mezzo Soprano)
Conductor: Diego Fasolis
Orchestra/Ensemble: I Barocchisti
Period: Baroque
Written: by 1709; Düsseldorf, Germany

15. La superbia d'Alessandro: Tra le guerre e le vittorie by Agostino Steffani
Performer: Cecilia Bartoli (Mezzo Soprano)
Conductor: Diego Fasolis
Orchestra/Ensemble: Swiss Radio Chorus, I Barocchisti
Period: Baroque
Written: by 1690

16. La libertà contenta: Foschi crepuscoli by Agostino Steffani
Performer: Cecilia Bartoli (Mezzo Soprano)
Conductor: Diego Fasolis
Orchestra/Ensemble: I Barocchisti
Period: Baroque
Written: by 1693

17. Niobe, regina di Tebe: Dell’alma stanca a raddolcir le tempre…Sfere amiche, or date al labbro by Agostino Steffani
Performer: Cecilia Bartoli (Mezzo Soprano)
Conductor: Diego Fasolis
Orchestra/Ensemble: I Barocchisti
Period: Baroque
Written: 1688

18. La lotta d'Hercole con Acheloo: La cerasta più terribile by Agostino Steffani
Performer: Cecilia Bartoli (Mezzo Soprano)
Conductor: Diego Fasolis
Orchestra/Ensemble: I Barocchisti
Period: Baroque
Written: by 1689

19. Niobe, regina di Tebe: Serena, o mio bel sole…Mia fiamma…Mio ardore by Agostino Steffani
Performer: Cecilia Bartoli (Mezzo Soprano), Philippe Jaroussky (Countertenor)
Conductor: Diego Fasolis
Orchestra/Ensemble: I Barocchisti
Period: Baroque
Written: 1688

20. Tassilone: Dal tuo labbro amor m’invita by Agostino Steffani
Performer: Cecilia Bartoli (Mezzo Soprano)
Conductor: Diego Fasolis
Orchestra/Ensemble: I Barocchisti
Period: Baroque
Written: by 1709

21. La libertà contenta: Deh stancati, o sorte by Agostino Steffani
Performer: Cecilia Bartoli (Mezzo Soprano)
Conductor: Diego Fasolis
Orchestra/Ensemble: I Barocchisti
Period: Baroque
Written: by 1693

22. La libertà contenta: Svenati, struggiti, combatti, suda by Agostino Steffani
Performer: Cecilia Bartoli (Mezzo Soprano)
Conductor: Diego Fasolis
Orchestra/Ensemble: I Barocchisti
Period: Baroque
Written: by 1693

23. Tassilone: Padre, s’è colpa in lui by Agostino Steffani
Performer: Cecilia Bartoli (Mezzo Soprano)
Conductor: Diego Fasolis
Orchestra/Ensemble: I Barocchisti
Period: Baroque
Written: by 1709

24. Le rivali concordi: Timori, ruine by Agostino Steffani
Performer: Philippe Jaroussky (Countertenor), Cecilia Bartoli (Mezzo Soprano)
Conductor: Diego Fasolis
Orchestra/Ensemble: Swiss Radio Chorus, I Barocchisti
Period: Baroque
Written: by 1692

25. Henrico Leone: Morirò fra strazi e scempi by Agostino Steffani
Performer: Cecilia Bartoli (Mezzo Soprano)
Conductor: Diego Fasolis
Orchestra/Ensemble: I Barocchisti
Period: Baroque
Written: by 1689

26. Marco Aurelio: Non si parli che di fede by Agostino Steffani
Conductor: Diego Fasolis
Orchestra/Ensemble: Swiss Radio Chorus, I Barocchisti
Period: Baroque
Written: by 1681

Exact Audio Copy V1.0 beta 3 from 29. August 2011

EAC extraction logfile from 5. January 2013, 23:19

Cecilia Bartoli / Mission

Used drive : PLDS DVD+-RW DH-16ABS Adapter: 1 ID: 0

Read mode : Secure
Utilize accurate stream : Yes
Defeat audio cache : Yes
Make use of C2 pointers : No

Read offset correction : 6
Overread into Lead-In and Lead-Out : No
Fill up missing offset samples with silence : Yes
Delete leading and trailing silent blocks : No
Null samples used in CRC calculations : Yes
Used interface : Native Win32 interface for Win NT & 2000
Gap handling : Appended to previous track

Used output format : User Defined Encoder
Selected bitrate : 1024 kBit/s
Quality : High
Add ID3 tag : No
Command line compressor : C:\Program Files (x86)\Exact Audio Copy\FLAC\FLAC.EXE
Additional command line options : -8 -V -T "ARTIST=%artist%" -T "TITLE=%title%" -T "ALBUM=%albumtitle%" -T "DATE=%year%" -T "TRACKNUMBER=%tracknr%" -T "GENRE=%genre%" -T "PERFORMER=%albuminterpret%" -T "COMPOSER=%composer%" %haslyrics%–tag-from-file=LYRICS="%lyricsfile%"%haslyrics% -T "ALBUMARTIST=%albumartist%" -T "ALBUM ARTIST=%albumartist%" -T "DISCNUMBER=%cdnumber%" -T "TOTALDISCS=%totalcds%" -T "TOTALTRACKS=%numtracks%" -T "COMMENT=EAC V1.0 beta 2, Secure Mode, Test & Copy, AccurateRip, FLAC -8" %source% -o %dest%


TOC of the extracted CD

Track | Start | Length | Start sector | End sector
––––––––––––––––––––––––––––-
1 | 0:00.00 | 2:14.33 | 0 | 10082
2 | 2:14.33 | 4:22.35 | 10083 | 29767
3 | 6:36.68 | 5:17.31 | 29768 | 53573
4 | 11:54.24 | 2:18.70 | 53574 | 63993
5 | 14:13.19 | 6:41.01 | 63994 | 94069
6 | 20:54.20 | 2:41.68 | 94070 | 106212
7 | 23:36.13 | 3:25.30 | 106213 | 121617
8 | 27:01.43 | 5:41.69 | 121618 | 147261
9 | 32:43.37 | 1:16.67 | 147262 | 153028
10 | 34:00.29 | 3:12.16 | 153029 | 167444
11 | 37:12.45 | 3:47.68 | 167445 | 184537
12 | 41:00.38 | 2:07.48 | 184538 | 194110
13 | 43:08.11 | 2:57.32 | 194111 | 207417
14 | 46:05.43 | 1:26.45 | 207418 | 213912
15 | 47:32.13 | 2:04.62 | 213913 | 223274
16 | 49:37.00 | 6:15.71 | 223275 | 251470
17 | 55:52.71 | 2:38.16 | 251471 | 263336
18 | 58:31.12 | 2:20.68 | 263337 | 273904
19 | 60:52.05 | 2:38.70 | 273905 | 285824
20 | 63:31.00 | 3:03.34 | 285825 | 299583
21 | 66:34.34 | 3:10.45 | 299584 | 313878
22 | 69:45.04 | 5:07.61 | 313879 | 336964
23 | 74:52.65 | 1:34.69 | 336965 | 344083
24 | 76:27.59 | 2:39.39 | 344084 | 356047
25 | 79:07.23 | 1:18.59 | 356048 | 361956


Track 1

Filename C:\Users\Knick\Music\FLAC\Cecilia Bartoli\Mission\01 Schiere invitte, non tardate [Alarico di Baltha, cioè L'audace re de' Gothi).wav

Pre-gap length 0:00:02.00

Peak level 95.6 %
Extraction speed 1.1 X
Track quality 99.9 %
Test CRC E7961E30
Copy CRC E7961E30
Accurately ripped (confidence 2) [C21BD3D4] (AR v2)
Copy OK

Track 2

Filename C:\Users\Knick\Music\FLAC\Cecilia Bartoli\Mission\02 Ogni core può sperar [Servio Tullio].wav

Peak level 76.4 %
Extraction speed 2.2 X
Track quality 100.0 %
Test CRC 6D07F772
Copy CRC 6D07F772
Accurately ripped (confidence 2) [B1E821D1] (AR v2)
Copy OK

Track 3

Filename C:\Users\Knick\Music\FLAC\Cecilia Bartoli\Mission\03 Ove son Chi m'aita In mezzo all'ombre… Dal mio petto [Niobe, regina di Tebe].wav

Peak level 80.4 %
Extraction speed 1.9 X
Track quality 99.9 %
Test CRC F8BCE842
Copy CRC F8BCE842
Accurately ripped (confidence 2) [965DE78F] (AR v2)
Copy OK

Track 4

Filename C:\Users\Knick\Music\FLAC\Cecilia Bartoli\Mission\04 Più non v'ascondo [Tassilone].wav

Peak level 66.1 %
Extraction speed 2.3 X
Track quality 100.0 %
Test CRC DF3EDA8E
Copy CRC DF3EDA8E
Accurately ripped (confidence 2) [8D9E34FB] (AR v2)
Copy OK

Track 5

Filename C:\Users\Knick\Music\FLAC\Cecilia Bartoli\Mission\05 Amami, e vederai [Niobe, regina di Tebe].wav

Peak level 60.4 %
Extraction speed 2.3 X
Track quality 99.9 %
Test CRC F4420F4E
Copy CRC F4420F4E
Accurately ripped (confidence 2) [8A279BEC] (AR v2)
Copy OK

Track 6

Filename C:\Users\Knick\Music\FLAC\Cecilia Bartoli\Mission\06 T'abbraccio, mia Diva… Ti stringo, mio Nume [Niobe, regina di Tebe] (with Philippe Jaroussky).wav

Peak level 64.8 %
Extraction speed 2.7 X
Track quality 100.0 %
Test CRC 6CE2081A
Copy CRC 6CE2081A
Accurately ripped (confidence 2) [2A925727] (AR v2)
Copy OK

Track 7

Filename C:\Users\Knick\Music\FLAC\Cecilia Bartoli\Mission\07 Mie fide schiere, all'armi! - Suoni, tuoni, il suolo scuota [Arminio].wav

Peak level 96.0 %
Extraction speed 2.9 X
Track quality 100.0 %
Test CRC 530B2B78
Copy CRC 530B2B78
Accurately ripped (confidence 2) [85D244A2] (AR v2)
Copy OK

Track 8

Filename C:\Users\Knick\Music\FLAC\Cecilia Bartoli\Mission\08 Sposa, mancar mi sento… Deh non far colle tue lagrime [Tassilone].wav

Peak level 61.2 %
Extraction speed 2.6 X
Track quality 99.9 %
Test CRC CD45A515
Copy CRC CD45A515
Accurately ripped (confidence 2) [7D6586C1] (AR v2)
Copy OK

Track 9

Filename C:\Users\Knick\Music\FLAC\Cecilia Bartoli\Mission\09 Non prendo consiglio [La superbia d'Alessandro].wav

Peak level 77.2 %
Extraction speed 2.5 X
Track quality 100.0 %
Test CRC 2955D56E
Copy CRC 2955D56E
Accurately ripped (confidence 2) [5D2E1450] (AR v2)
Copy OK

Track 10

Filename C:\Users\Knick\Music\FLAC\Cecilia Bartoli\Mission\10 Sì, sì, riposa, o caro…Palpitanti sfere belle [Alarico di Baltha].wav

Peak level 52.0 %
Extraction speed 2.2 X
Track quality 99.9 %
Test CRC 93032994
Copy CRC 93032994
Accurately ripped (confidence 2) [2526362D] (AR v2)
Copy OK

Track 11

Filename C:\Users\Knick\Music\FLAC\Cecilia Bartoli\Mission\11 Notte amica al cieco Dio [La libertà contenta].wav

Peak level 44.1 %
Extraction speed 3.3 X
Track quality 100.0 %
Test CRC 6241C3AE
Copy CRC 6241C3AE
Accurately ripped (confidence 2) [B3DA20C0] (AR v2)
Copy OK

Track 12

Filename C:\Users\Knick\Music\FLAC\Cecilia Bartoli\Mission\12 Combatton quest'alma (with Philippe Jaroussky).wav

Peak level 87.6 %
Extraction speed 3.0 X
Track quality 100.0 %
Test CRC 67267B8B
Copy CRC 67267B8B
Accurately ripped (confidence 2) [52AF8727] (AR v2)
Copy OK

Track 13

Filename C:\Users\Knick\Music\FLAC\Cecilia Bartoli\Mission\13 A facile vittoria [Tassilone].wav

Peak level 95.3 %
Extraction speed 3.3 X
Track quality 100.0 %
Test CRC 8FF3A09A
Copy CRC 8FF3A09A
Accurately ripped (confidence 2) [6FE299B4] (AR v2)
Copy OK

Track 14

Filename C:\Users\Knick\Music\FLAC\Cecilia Bartoli\Mission\14 Tra le guerre e le vittorie [La superbia d'Alessandro] (with Choir).wav

Peak level 95.0 %
Extraction speed 2.9 X
Track quality 100.0 %
Test CRC 4A1AED25
Copy CRC 4A1AED25
Accurately ripped (confidence 2) [296BA55D] (AR v2)
Copy OK

Track 15

Filename C:\Users\Knick\Music\FLAC\Cecilia Bartoli\Mission\15 Foschi crepuscoli [La libertà contenta].wav

Peak level 67.1 %
Extraction speed 2.0 X
Track quality 99.9 %
Test CRC 70DE2794
Copy CRC 70DE2794
Accurately ripped (confidence 2) [DCB823C9] (AR v2)
Copy OK

Track 16

Filename C:\Users\Knick\Music\FLAC\Cecilia Bartoli\Mission\16 Dell'alma stanca a raddolcir le tempre… Sfere amice, or date al labbro [Niobe, regina di Tebe].wav

Peak level 70.1 %
Extraction speed 3.9 X
Track quality 100.0 %
Test CRC 2EE19E5F
Copy CRC 2EE19E5F
Accurately ripped (confidence 2) [AC1A1D0A] (AR v2)
Copy OK

Track 17

Filename C:\Users\Knick\Music\FLAC\Cecilia Bartoli\Mission\17 La cerasta più terribile [La lotta d'Hercole con Acheloo].wav

Peak level 96.2 %
Extraction speed 3.6 X
Track quality 100.0 %
Test CRC E0993393
Copy CRC E0993393
Accurately ripped (confidence 2) [39635BAC] (AR v2)
Copy OK

Track 18

Filename C:\Users\Knick\Music\FLAC\Cecilia Bartoli\Mission\18 Serena, o mio bel sole… Mia fiamma… Mio ardore [Niobe, regina di Tebe] (with Philippe Jaroussky).wav

Peak level 54.6 %
Extraction speed 3.6 X
Track quality 100.0 %
Test CRC DEF477D9
Copy CRC DEF477D9
Accurately ripped (confidence 2) [31F9620F] (AR v2)
Copy OK

Track 19

Filename C:\Users\Knick\Music\FLAC\Cecilia Bartoli\Mission\19 Dal tuo labbro amor m'invita [Tassilone].wav

Peak level 86.5 %
Extraction speed 3.7 X
Track quality 100.0 %
Test CRC 7088CA91
Copy CRC 7088CA91
Accurately ripped (confidence 2) [B20419B1] (AR v2)
Copy OK

Track 20

Filename C:\Users\Knick\Music\FLAC\Cecilia Bartoli\Mission\20 Deh stancati, o sorte [La libertà contenta].wav

Peak level 55.6 %
Extraction speed 3.9 X
Track quality 100.0 %
Test CRC 588CFDAA
Copy CRC 588CFDAA
Accurately ripped (confidence 2) [9E606693] (AR v2)
Copy OK

Track 21

Filename C:\Users\Knick\Music\FLAC\Cecilia Bartoli\Mission\21 Svenati, struggiti, combatti, suda [La libertà contenta].wav

Peak level 96.0 %
Extraction speed 3.9 X
Track quality 100.0 %
Test CRC 58838D61
Copy CRC 58838D61
Accurately ripped (confidence 2) [BDFA002E] (AR v2)
Copy OK

Track 22

Filename C:\Users\Knick\Music\FLAC\Cecilia Bartoli\Mission\22 Padre, s'è colpa in lui [Tassilone].wav

Peak level 72.7 %
Extraction speed 4.3 X
Track quality 100.0 %
Test CRC 0739BD2C
Copy CRC 0739BD2C
Accurately ripped (confidence 2) [A99DCBD3] (AR v2)
Copy OK

Track 23

Filename C:\Users\Knick\Music\FLAC\Cecilia Bartoli\Mission\23 Timori, ruine [Le rivali concordi] (with Philippe Jaroussky and choir).wav

Peak level 92.0 %
Extraction speed 1.9 X
Track quality 99.8 %
Test CRC C2525F94
Copy CRC C2525F94
Accurately ripped (confidence 2) [10A1A9FD] (AR v2)
Copy OK

Track 24

Filename C:\Users\Knick\Music\FLAC\Cecilia Bartoli\Mission\24 Morirò fra strazi e scempi [Henrico Leone].wav

Peak level 56.9 %
Extraction speed 4.1 X
Track quality 100.0 %
Test CRC 1B7E226D
Copy CRC 1B7E226D
Accurately ripped (confidence 2) [E91FE3D8] (AR v2)
Copy OK

Track 25

Filename C:\Users\Knick\Music\FLAC\Cecilia Bartoli\Mission\25 Non si parli che di fede [Marco Aurelio] (Choir).wav

Peak level 95.9 %
Extraction speed 3.4 X
Track quality 100.0 %
Test CRC 3BEAE85B
Copy CRC 3BEAE85B
Accurately ripped (confidence 2) [E9C76BC1] (AR v2)
Copy OK


All tracks accurately ripped

No errors occurred

End of status report

–– CUETools DB Plugin V2.1.3

[CTDB TOCID: IOny3GRiamv.buFD8xs3jK.Rk5k-] found, Submit result: IOny3GRiamv.buFD8xs3jK.Rk5k- has been confirmed
[52f9d0f0] (25/27) Accurately ripped
[20fddb99] (01/27) No match
[bddec0b4] (01/27) No match


==== Log checksum 1CD22CC58E56E6231770B16C9EFCEAA850C4752D0F7395C0F3D00A427F748AB6 ====


Thanks to the original releaser
Download:

Uploaded

Part 1 | Part 2

Rapidgator

Part 1 | Part 2