Miroslav Vitous - Infinite Search (1970) {1998 eastwest/Atlantic Japan} **[RE-UP]**

Posted By: TestTickles
Miroslav Vitous - Infinite Search (1970) {1998 eastwest/Atlantic Japan} **[RE-UP]**

Miroslav Vitous - Infinite Search (1970) {1998 eastwest/Atlantic Japan}
EAC Rip | FLAC with CUE and log | scans | 264 mb
MP3 CBR 320kbps | RAR | 129 mb
Genre: jazz

Infinite Search is the 1970 album by Miroslav Vitous. Originally released on Embryo, the album was reissued two years later on Atlantic as Mountain In The Clouds (Atlantic SD 1622) mastered differently but this is based on the original album. This is from a 1998 Japanese remaster released by Atlantic on 25 July, 1998.
With John McLaughlin, Herbie Hancock, Joe Henderson, and Jack DeJohnette, this group rivaled the best fusion bands of the day. It must have been an intimidating challenge for a young Czech bassist to lead such a group on his debut album as a frontman, especially since he composed five of the six tracks. Recorded a year after the historic Bitches Brew and the year before Vitous began a stint with the innovative Weather Report, this was trend-setting fusion. It's produced by Herbie Mann, for whom Vitous played on such albums as Memphis Underground and Stone Flute.

Miroslav Vitous - Infinite Search (1970) {1998 eastwest/Atlantic Japan} **[RE-UP]**

1. Freedom Jazz Dance
2. Mountain In The Clouds
3. Epilogue
4. Cérecka
5. Infinite Search
6. I Will Tell Him On You
7. When Face Gets Pale
–-
Miroslav Vitous-bass
Joe Henderson-tenor saxophone
Mahavishnu John McLaughlin-guitar
Herbie Hancock-electric piano
Jack DeJohnette-drums

On "Cérecka" and "Epilogue", Joe Chambers replaces Jack DeJohnette on drums

Produced by Herbie Mann
Recorded at A&R Recording Studios, New York, NY in November 1969
Recording engineer: Dave Green
Re-mix engineer: Lew Hahn

Infinite Search is Miroslav Vitous' debut album. The track order for this 1998 Japanese remaster is for the remixed and reissued version of the album released in 1972, called Mountain In The Clouds. I do not know which mixes are used for this CD.

If you wish to hear the original Infinite Search track order, you can adjust accordingly:
1. Freedom Jazz Dance
2. Mountain In The Clouds
3. When Face Gets Pale
4. Infinite Search
5. I Will Tell Him On You
6. Epilogue

EAC extraction logfile from 12. February 2006, 15:23 for CD
Miroslav Vitous / Infinite Search {1998 eastwest, Atlantic Japan}

Used drive : LITE-ON DVDRW SOHW-1633S Adapter: 0 ID: 0
Read mode : Secure with NO C2, accurate stream, disable cache
Read offset correction : 12
Overread into Lead-In and Lead-Out : No

Used output format : Internal WAV Routines
44.100 Hz; 16 Bit; Stereo

Other options :
Fill up missing offset samples with silence : Yes
Delete leading and trailing silent blocks : No
Installed external ASPI interface


Track 1
Filename D:\FLAC\Miroslav Vitous - Infinite Search (1970) [FLAC] {1998 eastwest, Atlantic Japan}\01 - Freedom Jazz Dance.wav

Pre-gap length 0:00:02.49

Peak level 97.9 %
Track quality 99.9 %
Test CRC 0EC86DD6
Copy CRC 0EC86DD6
Copy OK

Track 2
Filename D:\FLAC\Miroslav Vitous - Infinite Search (1970) [FLAC] {1998 eastwest, Atlantic Japan}\02 - Mountain In The Clouds.wav

Pre-gap length 0:00:02.21

Peak level 97.9 %
Track quality 100.0 %
Test CRC 261554F1
Copy CRC 261554F1
Copy OK

Track 3
Filename D:\FLAC\Miroslav Vitous - Infinite Search (1970) [FLAC] {1998 eastwest, Atlantic Japan}\03 - Epilogue.wav

Pre-gap length 0:00:02.12

Peak level 97.9 %
Track quality 100.0 %
Test CRC 528E2CBC
Copy CRC 528E2CBC
Copy OK

Track 4
Filename D:\FLAC\Miroslav Vitous - Infinite Search (1970) [FLAC] {1998 eastwest, Atlantic Japan}\04 - Cerecka.wav

Pre-gap length 0:00:03.78

Peak level 97.9 %
Track quality 100.0 %
Test CRC 726EC1DC
Copy CRC 726EC1DC
Copy OK

Track 5
Filename D:\FLAC\Miroslav Vitous - Infinite Search (1970) [FLAC] {1998 eastwest, Atlantic Japan}\05 - Infinite Search.wav

Pre-gap length 0:00:04.18

Peak level 97.9 %
Track quality 100.0 %
Test CRC 6AF5280D
Copy CRC 6AF5280D
Copy OK

Track 6
Filename D:\FLAC\Miroslav Vitous - Infinite Search (1970) [FLAC] {1998 eastwest, Atlantic Japan}\06 - I Will Tell Him On You.wav

Pre-gap length 0:00:03.38

Peak level 97.9 %
Track quality 100.0 %
Test CRC C1E98DE6
Copy CRC C1E98DE6
Copy OK

Track 7
Filename D:\FLAC\Miroslav Vitous - Infinite Search (1970) [FLAC] {1998 eastwest, Atlantic Japan}\07 - When Face Gets Pale.wav

Pre-gap length 0:00:01.98

Peak level 97.9 %
Track quality 100.0 %
Test CRC D6C7BDF8
Copy CRC D6C7BDF8
Copy OK

No errors occured


End of status report


Miroslav Vitous - Infinite Search (1970) {1998 eastwest/Atlantic Japan} **[RE-UP]**


Check out other titles in my Avaxhome blog