Tags
Language
Tags

Moby - 18 B Sides [CD+DVD] (2003)

Posted By: gribovar
Moby - 18 B Sides [CD+DVD] (2003)

Moby - 18 B Sides [CD+DVD] (2003)
EAC Rip | FLAC (image+.cue+log) - 431 MB | MP3 CBR 320 kbps (LAME 3.93) - 164 MB | Covers - 75 MB
DVD9 | Video: MPEG 2, 720x480 (4:3), 29.97 fps | Audio: AC-3, 48.0 KHz, 6 ch/2 ch, 448 Kbps, 7,3 GB
Genre: Electronic, House, Pop | RAR 3% Rec. | Label: V2 Records (63881-27173 2)

As MP3s and the constant rise of the DVD bring into question how relevant traditional albums are, Moby digitizes his loose ends and uses new formats to provide more than anyone can possibly ingest in one sitting. The CD in this set features Moby's leftovers from the 18 album, and they are pretty much what you would expect with the quality notched up a little. A bit less polished than his album tracks, they'll generally remind you of some other Moby tunes, only in demo form. "Soul to Love" sounds just like a more sedate "Go" and "String Electro" sounds like most of Play, only they're both pleasantly naïve and much less ambitious. "Landing" (with guest vocals by Azure Ray) and "Stay" make for moody bookends that sound the most complete and make for just enough of the poptacular Moby to hold you over till the next album. But if you've ever had a hankering to spend countless hours in front of the television immersed in the world of Moby, the DVD is the reason to pick up the collection. There's the whole amazing Glastonbury concert, a slew of audio tracks, a hilarious episode of Moby TV with a puppet named Mr. Fish (kind of an obtuse Triumph the Insult Comic Dog), and a whole lot more. Much of the smotheringly charming Moby's content might not sway Eminem, but it's hard not to marvel at a guy who can churn out so much quality material, have such a high profile, and show no sign of being pompous. Bonus DVDs have generally been electronic press kits with a couple of videos, but this one sets a new standard. Couple it with a CD that's so-so and call it a draw.
CD Tracklist:
01. Landing
02. Love Of Strings
03. Nearer
04. Afterlife
05. String Electro
06. Downhill
07. Soul To Love
08. Bed
09. Piano & Strings
10. Horse & Carrot
11. Life's So Sweet
12. ISS
13. Stay

Total time: 01:09:52

Exact Audio Copy V0.99 prebeta 5 from 4. May 2009

EAC extraction logfile from 21. June 2009, 13:15

Moby / 18 B-Sides

Used drive : ASUS DRW-1608P Adapter: 2 ID: 0

Read mode : Secure
Utilize accurate stream : Yes
Defeat audio cache : Yes
Make use of C2 pointers : No

Read offset correction : 48
Overread into Lead-In and Lead-Out : No
Fill up missing offset samples with silence : Yes
Delete leading and trailing silent blocks : No
Null samples used in CRC calculations : Yes
Used interface : Native Win32 interface for Win NT & 2000

Used output format : Internal WAV Routines
Sample format : 44.100 Hz; 16 Bit; Stereo


TOC of the extracted CD

Track | Start | Length | Start sector | End sector
––––––––––––––––––––––––––––-
1 | 0:00.00 | 3:44.02 | 0 | 16801
2 | 3:44.02 | 6:10.48 | 16802 | 44599
3 | 9:54.50 | 4:19.15 | 44600 | 64039
4 | 14:13.65 | 3:56.02 | 64040 | 81741
5 | 18:09.67 | 6:56.65 | 81742 | 113006
6 | 25:06.57 | 5:19.58 | 113007 | 136989
7 | 30:26.40 | 4:27.70 | 136990 | 157084
8 | 34:54.35 | 4:17.02 | 157085 | 176361
9 | 39:11.37 | 5:18.00 | 176362 | 200211
10 | 44:29.37 | 6:54.00 | 200212 | 231261
11 | 51:23.37 | 6:32.45 | 231262 | 260706
12 | 57:56.07 | 8:44.53 | 260707 | 300059
13 | 66:40.60 | 3:10.55 | 300060 | 314364


Range status and errors

Selected range

Filename F:\Moby 18\Moby - 18 B-Sides.wav

Peak level 100.0 %
Range quality 100.0 %
Test CRC 3B552660
Copy CRC 3B552660
Copy OK

No errors occurred


AccurateRip summary

Track 1 accurately ripped (confidence 21) [4F331837]
Track 2 accurately ripped (confidence 20) [B2213811]
Track 3 accurately ripped (confidence 21) [C1EF1076]
Track 4 accurately ripped (confidence 20) [8797E949]
Track 5 accurately ripped (confidence 20) [21E59297]
Track 6 accurately ripped (confidence 20) [85944637]
Track 7 accurately ripped (confidence 20) [DA7C591E]
Track 8 accurately ripped (confidence 19) [495D527C]
Track 9 accurately ripped (confidence 19) [4BCB6A22]
Track 10 accurately ripped (confidence 19) [F79184B7]
Track 11 accurately ripped (confidence 20) [2B538755]
Track 12 accurately ripped (confidence 19) [03DC2F6F]
Track 13 accurately ripped (confidence 19) [9A9D044B]

All tracks accurately ripped

End of status report

[CUETools log; Date: 15.12.2018 0:01:57; Version: 2.1.4]
[CTDB TOCID: EwS4jOnClF1JWcE_dsnxfS.vZTc-] found.
Track | CTDB Status
1 | (73/73) Accurately ripped
2 | (73/73) Accurately ripped
3 | (73/73) Accurately ripped
4 | (73/73) Accurately ripped
5 | (73/73) Accurately ripped
6 | (73/73) Accurately ripped
7 | (73/73) Accurately ripped
8 | (72/73) Accurately ripped
9 | (72/73) Accurately ripped
10 | (71/73) Accurately ripped
11 | (73/73) Accurately ripped
12 | (73/73) Accurately ripped
13 | (72/73) Accurately ripped
[AccurateRip ID: 00200052-0144da59-b8105f0d] found.
Track [ CRC | V2 ] Status
01 [4f331837|02c27711] (28+34/71) Accurately ripped
02 [b2213811|eebc8865] (27+34/70) Accurately ripped
03 [c1ef1076|8049027b] (28+34/70) Accurately ripped
04 [8797e949|aad72ade] (27+34/70) Accurately ripped
05 [21e59297|7e316ed4] (27+33/68) Accurately ripped
06 [85944637|2d8329f7] (27+34/70) Accurately ripped
07 [da7c591e|e471fd3b] (27+34/70) Accurately ripped
08 [495d527c|e269c65c] (26+34/69) Accurately ripped
09 [4bcb6a22|87bab28d] (25+34/68) Accurately ripped
10 [f79184b7|989612bc] (25+33/67) Accurately ripped
11 [2b538755|919ae9e5] (26+33/68) Accurately ripped
12 [03dc2f6f|36900993] (25+33/66) Accurately ripped
13 [9a9d044b|3b4015e9] (26+33/68) Accurately ripped

Track Peak [ CRC32 ] [W/O NULL] [ LOG ]
– 99,9 [3B552660] [302DF2DA] CRC32
01 99,9 [D4B9141B] [A9D03067]
02 99,9 [A49D7BF9] [CC4F6977]
03 99,9 [16221CDE] [B9B043D5]
04 99,9 [19F8CA68] [8735988F]
05 99,9 [D6C39916] [44682465]
06 99,9 [9792E6BB] [DE840728]
07 99,9 [1E704EFF] [6705CC14]
08 99,9 [A4392975] [D6000FF5]
09 99,9 [BF453FDF] [1C750E83]
10 99,9 [A0150DB4] [03CC11AD]
11 99,9 [7137F4DE] [237C8A92]
12 99,9 [20B27051] [B287DC06]
13 99,9 [AF0F03AE] [ABCCC134]

DVD:

Outtakes And Bonus Songs - 1:29:49
01. Song We Made Together In 30 Minutes
02. Great Escape (Original Demo)
03. We Are All Made Of Stars (Original Slow Version)
04. E2D (Outtake From Play)
05. Guitar And Flute (Original Demo)
06. 18 (Original Demo)
07. Why Does My Heart Feel So Bad (Original Demo)
08. We Are All Made Of Stars (Slow Synth Mix)
09. KR (Outtake From Play)
10. Flatlands (B-Side Outtake From 18)
11. I Love To Watch You Sing (B-Side Outtake From 18)
12. American Dry (B-Side Outtake From 18)
13. Cunning (B-Side Outtake From 18)
14. Waiting (Outtake From 18)
15. 641 (B-Side Outtake From 18)
16. Extreme Ways (Live - Rough Bootleg Mix)
17. Say My Name (Recorded In My Bathroom With One Mic)
18. So Far Gone (Outtake From 18)
19. Tower (B-Side Outtake From 18)
20. Girl Bed (B-Side Outtake From 180
21. Offland

Megamix - 57:48
01. In This World (Push Vocal Club Mix)
02. Extreme Ways (DJ Tiesto's Instrumental Remix)
03. Sunday (West London Deep Club Mix)
04. In This World (Slacker's Rain Before Carnival Mix)
05. We Are All Made Of Stars (DJ Tiesto Full Vocal Remix)
06. In My Heart (Ferry Corsten Remix)
07. Jam For The Ladies (Nevin's Reggae Dub Banger)
08. Extreme Ways (John Creamer + Stephane K Remix)
09. In This World (ATFC's Southern Fried Vocal)
10. We Are All Made Of Stars (Timo Maas Dub Mix)
11. Jam For The Ladies (Voodoo Child Remix)
12. In My Heart (Sean Tyas Misses Twilo Mix)

Moby Live At Glastonbury 2003 - 1:14:29
01. Intro (18)
02. Natural Blues
03. Go
04. Porcelain
05. Another Woman
06. Find My Baby
07. In This World
08. In My Heart
09. Bring Back My Happiness
10. We Are All Made Of Stars
11. Why Does My Heart Feel So Bad
12. Jam For The Ladies
13. I Wanna Be Your Dog
14. Intro
15. Bodyrock
16. Honey
17. Feeling So Real (Back on stage for encore)
18. Creep (Fab Fireworks)

Videos
01. We Are All Made Of Stars
02. Jam For The Ladies (With Princess Superstar)
03. In This World
04. Extreme Ways
05. Jam For The Ladies (Contest Winner)
06. Sunday (The Day Before My Birthday)
Moby TV - 49:08

Moby - 18 B Sides [CD+DVD] (2003)

Moby - 18 B Sides [CD+DVD] (2003)

Moby - 18 B Sides [CD+DVD] (2003)

Moby - 18 B Sides [CD+DVD] (2003)

Moby - 18 B Sides [CD+DVD] (2003)

Moby - 18 B Sides [CD+DVD] (2003)

Thanks to bvstudio

See also:
Moby - Hotel (2005) [2CD Japanese Edition]
Moby - Go: The Very Best Of Moby (2006) [Japanese Edition]
Moby - Last Night (2008) [Japanese Edition]
Moby - Wait For Me (2009) [2CD Deluxe Edition]