Subcategories

Moby - Go: The Very Best Of Moby (2006) [Japanese Edition]

Posted By: gribovar
Moby - Go: The Very Best Of Moby (2006) [Japanese Edition]

Moby - Go: The Very Best Of Moby (2006) [Japanese Edition]
EAC Rip | FLAC (image+.cue+log) - 370 MB | MP3 CBR 320 kbps (LAME 3.93) - 129 MB | Covers - 121 MB
Genre: Electronic, House, Pop | RAR 3% Rec. | Label: Toshiba-EMI (TOCP-66629)

Go: The Very Best of Moby is not the career-spanning compilation implied by its title. Instead, it's based around 1999's Play, 2002's 18, and 2005's Hotel. With the exception of Everything Is Wrong's ambient epic "God Moving Over the Face of the Waters," Anders Trentemøller's fresh mix of "Go," and a rough-sounding live version of "Feeling So Real," nothing here references Moby's output prior to Play. The one new track, "New York, New York," is a fun Giorgio Moroder-inspired throwaway featuring Debbie Harry.
Tracklist:
01. Natural Blues
02. Lift Me Up
03. Porcelain
04. In This World
05. Why Does My Heart Feel So Bad
06. James Bond Theme (Moby's Re-Version)
07. Go
08. New York, New York
09. Find My Baby
10. In My Heart
11. Feeling So Real
12. We Are All Made Of Stars
13. Move
14. Honey
15. Slipping Away (Crier La Vie)

Total time: 54:49

Exact Audio Copy V0.99 prebeta 5 from 4. May 2009

EAC extraction logfile from 3. January 2010, 22:51

Moby / Go [The Very Best Of]

Used drive : PIONEER DVD-RW DVR-118L Adapter: 2 ID: 0

Read mode : Secure
Utilize accurate stream : Yes
Defeat audio cache : Yes
Make use of C2 pointers : No

Read offset correction : 6
Overread into Lead-In and Lead-Out : No
Fill up missing offset samples with silence : Yes
Delete leading and trailing silent blocks : No
Null samples used in CRC calculations : Yes
Used interface : Installed external ASPI interface

Used output format : User Defined Encoder
Selected bitrate : 1024 kBit/s
Quality : High
Add ID3 tag : No
Command line compressor : C:\Program Files (x86)\Exact Audio Copy\Flac\flac.exe
Additional command line options : -5 -V -T "ARTIST=%a" -T "TITLE=%t" -T "ALBUM=%g" -T "DATE=%y" -T "TRACKNUMBER=%n" -T "GENRE=%m" -T "COMMENT=EAC FLAC -5" %s


TOC of the extracted CD

Track | Start | Length | Start sector | End sector
––––––––––––––––––––––––––––-
1 | 0:00.00 | 3:02.59 | 0 | 13708
2 | 3:02.59 | 3:07.61 | 13709 | 27794
3 | 6:10.45 | 3:31.74 | 27795 | 43693
4 | 9:42.44 | 3:27.25 | 43694 | 59243
5 | 13:09.69 | 3:45.22 | 59244 | 76140
6 | 16:55.16 | 3:13.30 | 76141 | 90645
7 | 20:08.46 | 4:01.43 | 90646 | 108763
8 | 24:10.14 | 4:28.00 | 108764 | 128863
9 | 28:38.14 | 4:00.00 | 128864 | 146863
10 | 32:38.14 | 3:21.12 | 146864 | 161950
11 | 35:59.26 | 4:32.36 | 161951 | 182386
12 | 40:31.62 | 3:37.47 | 182387 | 198708
13 | 44:09.34 | 3:39.04 | 198709 | 215137
14 | 47:48.38 | 3:20.48 | 215138 | 230185
15 | 51:09.11 | 3:39.42 | 230186 | 246652


Range status and errors

Selected range

Filename F:\Moby - 2006 - Go - the very best of Moby (Japan)\Moby - Go [The Very Best Of].wav

Peak level 100.0 %
Range quality 100.0 %
Test CRC CE1B64FF
Copy CRC CE1B64FF
Copy OK

No errors occurred


AccurateRip summary

Track 1 accurately ripped (confidence 14) [CFCF4C27]
Track 2 accurately ripped (confidence 13) [28BA4DAD]
Track 3 accurately ripped (confidence 14) [10780517]
Track 4 accurately ripped (confidence 14) [E1BA20EC]
Track 5 accurately ripped (confidence 14) [73BB57A3]
Track 6 accurately ripped (confidence 14) [8F213D67]
Track 7 accurately ripped (confidence 14) [0AD9D82C]
Track 8 accurately ripped (confidence 14) [6969C131]
Track 9 accurately ripped (confidence 14) [DFCC7C96]
Track 10 accurately ripped (confidence 14) [A46559AC]
Track 11 accurately ripped (confidence 14) [DA984E26]
Track 12 accurately ripped (confidence 14) [6E64BBBE]
Track 13 accurately ripped (confidence 14) [D899380A]
Track 14 accurately ripped (confidence 14) [D13BA018]
Track 15 accurately ripped (confidence 14) [1AA59879]

All tracks accurately ripped

End of status report

[CUETools log; Date: 10.12.2018 11:17:18; Version: 2.1.4]
[CTDB TOCID: xRQFCYIh2pbqJBlki9GU0HuI9tA-] found.
Track | CTDB Status
1 | (423/428) Accurately ripped
2 | (424/428) Accurately ripped
3 | (423/428) Accurately ripped
4 | (423/428) Accurately ripped
5 | (424/428) Accurately ripped
6 | (424/428) Accurately ripped
7 | (422/428) Accurately ripped
8 | (421/428) Accurately ripped
9 | (420/428) Accurately ripped
10 | (424/428) Accurately ripped
11 | (420/428) Accurately ripped
12 | (422/428) Accurately ripped
13 | (418/428) Accurately ripped
14 | (416/428) Accurately ripped
15 | (417/428) Accurately ripped
[AccurateRip ID: 001d75f9-0151c57c-b00cd80f] found.
Track [ CRC | V2 ] Status
01 [cfcf4c27|85e30f84] (30+21/62) Accurately ripped
02 [28ba4dad|97a27e89] (29+21/60) Accurately ripped
03 [10780517|05490fd3] (30+20/60) Accurately ripped
04 [e1ba20ec|bf521d14] (30+20/60) Accurately ripped
05 [73bb57a3|2f7ddd09] (30+20/60) Accurately ripped
06 [8f213d67|ab71b8d8] (30+20/60) Accurately ripped
07 [0ad9d82c|31dcdf8a] (30+20/60) Accurately ripped
08 [6969c131|0c86cc34] (30+20/60) Accurately ripped
09 [dfcc7c96|0aa15d9d] (30+19/59) Accurately ripped
10 [a46559ac|1afa730b] (30+19/59) Accurately ripped
11 [da984e26|421e4ecd] (30+19/59) Accurately ripped
12 [6e64bbbe|a7492778] (30+19/59) Accurately ripped
13 [d899380a|cb2acbdd] (30+19/59) Accurately ripped
14 [d13ba018|56f94d77] (30+20/60) Accurately ripped
15 [1aa59879|969105fa] (30+19/59) Accurately ripped
Offsetted by -664:
01 [62167d7f] (03/62) Accurately ripped
02 [ac18085d] (04/60) Accurately ripped
03 [94b430df] (04/60) Accurately ripped
04 [1fdf6ed4] (04/60) Accurately ripped
05 [aa17f513] (04/60) Accurately ripped
06 [f80442a7] (04/60) Accurately ripped
07 [b9044794] (04/60) Accurately ripped
08 [13b2c891] (04/60) Accurately ripped
09 [9a665ba6] (04/59) Accurately ripped
10 [f1b2b974] (04/59) Accurately ripped
11 [cc23b2fe] (04/59) Accurately ripped
12 [9768620e] (04/59) Accurately ripped
13 [02ff88fa] (04/59) Accurately ripped
14 [cb828e70] (04/60) Accurately ripped
15 [8ffd8911] (04/59) Accurately ripped
Offsetted by -12:
01 [efc12993] (00/62) No match (V2 was not tested)
02 [2fba7485] (00/60) No match (V2 was not tested)
03 [0fc6373b] (00/60) No match (V2 was not tested)
04 [b9362d20] (00/60) No match (V2 was not tested)
05 [b891d5db] (00/60) No match (V2 was not tested)
06 [d0411a07] (00/60) No match (V2 was not tested)
07 [6c122120] (00/60) No match (V2 was not tested)
08 [c464e7e1] (00/60) No match (V2 was not tested)
09 [e1a1009e] (00/59) No match (V2 was not tested)
10 [6b30c5d0] (00/59) No match (V2 was not tested)
11 [21460152] (00/59) No match (V2 was not tested)
12 [f9ee0d66] (00/59) No match (V2 was not tested)
13 [345a4c02] (00/59) No match (V2 was not tested)
14 [bb8a0404] (00/60) No match (V2 was not tested)
15 [d8e97f85] (00/59) No match (V2 was not tested)
Offsetted by 6:
01 [3fd65d71] (00/62) No match (V2 was not tested)
02 [a53a3a41] (00/60) No match
03 [10d0ec05] (00/60) No match
04 [75fc1ad2] (00/60) No match
05 [d1501887] (00/60) No match
06 [ee914f17] (00/60) No match
07 [5a3db3b2] (00/60) No match
08 [3bec2dd9] (00/60) No match
09 [dee23a92] (00/59) No match
10 [40ffa39a] (00/59) No match
11 [b7417490] (00/59) No match
12 [28a012ea] (00/59) No match
13 [aab8ae0e] (00/59) No match
14 [5c146e22] (00/60) No match
15 [bb83a4f3] (00/59) No match

Track Peak [ CRC32 ] [W/O NULL] [ LOG ]
– 99,9 [CE1B64FF] [CFCF194F] CRC32
01 99,9 [C5221476] [BDEC3C01]
02 99,9 [296471E8] [87C26E55]
03 93,3 [D1E2E53D] [9AA1A8EB]
04 99,9 [1F13451A] [02ADDDDE]
05 96,6 [5627C372] [E220A6B8]
06 99,9 [96233523] [7633C6DA]
07 94,8 [DFF9164F] [EA23CA66]
08 99,9 [C241ECEC] [D33573A7]
09 99,9 [B1006B1E] [821D21BE]
10 99,9 [D3FA3068] [550E6F63]
11 99,9 [72A4C419] [8C287794]
12 99,9 [2064C47C] [E4FEF746]
13 99,9 [CBAB4EAC] [7F364876]
14 96,6 [07276790] [B4D6433A]
15 99,9 [C2230767] [8DA24055]

Thanks to bvstudio