Tags
Language
Tags

Moby - Hotel (2005) [2CD Japanese Edition]

Posted By:
Moby - Hotel (2005) [2CD Japanese Edition]

Moby - Hotel (2005) [2CD Japanese Edition]
EAC Rip | FLAC (image+.cue+log) - 671 MB | MP3 CBR 320 kbps (LAME 3.93) - 303 MB | Covers - 18 MB
Genre: Electronic, House, Pop, Ambient | RAR 3% Rec. | Label: Toshiba-EMI (VJCP-68738-39)

Hotel rarely shows, in any shape or form, traceable inspiration from the new wave and post-punk era Moby advertised as being in full effect. More surprising is that apart from the lovely ambient instrumentals that open and close it, the album is all valley and no peaks, suggesting that the shelving of his sampling device was the worst creative move he could've made. The first half contains simple - as in basic and/or emaciated, so we're talking poor - modern rock songs that tend to be anthemic and soul-searching in nature. Lead single "Beautiful" is one exception, a tongue-in-cheek thing Moby has imagined being sung by vacant celebrity couples. No matter how affable, vegan, liberal, bespectacled, or vertically challenged he is, the real irony is that a millionaire and former love interest of Natalie Portman has made a song of this kind (see also: Aerosmith's "Eat the Rich"). Beginning "C'mon bay-beh, c'mon girl, c'mon bay-beh, c'mon girl, I love you bay-beigh, I love you now, I love you bay-beigh, I love you now," the heart of the song doesn't say much more, and some of the guitar jerks are a lot closer to Eddie Money's "Shakin'" than anything related to Joy Division. And, speaking of Joy Division, a very gentle version of New Order's "Temptation" is the album's deepest connection to post-punk; it's telling that Moby opted to leave the vocals to Laura Dawn, since he's less a singer than Bernard Sumner. This begins the non-rock portion of the program, which fans of Play and 18 might find easier to enjoy, but it's not much better than what precedes it. For instance, does anybody need to hear him volley obvious bedroom come-ons with Dawn, as he does on "I Like It"? (Because it's about as appealing as a phrase like "Woody Allen nude scene.") Hotel's saving grace is a bonus disc containing an hour's worth of ambient techno that's good enough for separate release.
CD 1 Tracklist:
01. Hotel Intro
02. Raining Again
03. Beautiful
04. Lift Me Up
05. Where You End
06. Temptation
07. Spiders
08. Dream About Me
09. Very
10. I Like It
11. Love Should
12. Slipping Away
13. Forever
14. Homeward Angel
15. Put The Headphones On (Bonus track)
16. 35 Minutes (Hidden track)

Total time: 01:00:42

CD 2 Tracklist (Ambient):
01. Swear
02. Snowball
03. Blue Paper
04. Homeward Angel (Long)
05. Chord Sounds
06. Not Sensitive
07. Lilly
08. The Come Down
09. Overland
10. Live Forever
11. Aerial

Total time: 01:07:54

Exact Audio Copy V0.99 prebeta 5 from 4. May 2009

EAC extraction logfile from 19. December 2009, 15:59

Moby / Hotel

Used drive : _NEC DVD_RW ND-4570A Adapter: 1 ID: 0

Read mode : Secure
Utilize accurate stream : Yes
Defeat audio cache : Yes
Make use of C2 pointers : No

Read offset correction : 48
Overread into Lead-In and Lead-Out : No
Fill up missing offset samples with silence : Yes
Delete leading and trailing silent blocks : No
Null samples used in CRC calculations : Yes
Used interface : Native Win32 interface for Win NT & 2000

Used output format : User Defined Encoder
Selected bitrate : 128 kBit/s
Quality : High
Add ID3 tag : No
Command line compressor : C:\Program Files\Exact Audio Copy\Flac\flac.exe
Additional command line options : -8 -V %s


TOC of the extracted CD

Track | Start | Length | Start sector | End sector
––––––––––––––––––––––––––––-
1 | 0:00.00 | 1:55.60 | 0 | 8684
2 | 1:55.60 | 3:45.72 | 8685 | 25631
3 | 5:41.57 | 3:11.70 | 25632 | 40026
4 | 8:53.52 | 3:19.23 | 40027 | 54974
5 | 12:13.00 | 3:22.20 | 54975 | 70144
6 | 15:35.20 | 4:55.37 | 70145 | 92306
7 | 20:30.57 | 3:45.00 | 92307 | 109181
8 | 24:15.57 | 3:21.38 | 109182 | 124294
9 | 27:37.20 | 3:43.07 | 124295 | 141026
10 | 31:20.27 | 3:45.68 | 141027 | 157969
11 | 35:06.20 | 3:51.50 | 157970 | 175344
12 | 38:57.70 | 3:39.22 | 175345 | 191791
13 | 42:37.17 | 3:39.20 | 191792 | 208236
14 | 46:16.37 | 5:42.15 | 208237 | 233901
15 | 51:58.52 | 3:51.00 | 233902 | 251226
16 | 55:49.52 | 4:51.65 | 251227 | 273116
17 | 63:13.42 | 5:17.74 | 284517 | 308365


Range status and errors

Selected range

Filename D:\Moby - Hotel\CD 1\Moby - Hotel.wav

Peak level 98.8 %
Range quality 100.0 %
Test CRC 69304444
Copy CRC 69304444
Copy OK

No errors occurred


AccurateRip summary

Track 1 not present in database
Track 2 not present in database
Track 3 not present in database
Track 4 not present in database
Track 5 not present in database
Track 6 not present in database
Track 7 not present in database
Track 8 not present in database
Track 9 not present in database
Track 10 not present in database
Track 11 not present in database
Track 12 not present in database
Track 13 not present in database
Track 14 not present in database
Track 15 not present in database
Track 16 not present in database

None of the tracks are present in the AccurateRip database

End of status report

[CUETools log; Date: 14.12.2018 12:11:36; Version: 2.1.4]
CD-Extra data track length 05:17:74.
[CTDB TOCID: T_IajYHYEE4g8CV7a0w.mqcDKDY-] found.
Track | CTDB Status
1 | (32/33) Accurately ripped
2 | (32/33) Accurately ripped
3 | (32/33) Accurately ripped
4 | (32/33) Accurately ripped
5 | (32/33) Accurately ripped
6 | (32/33) Accurately ripped
7 | (20/33) Accurately ripped
8 | (20/33) Accurately ripped
9 | (20/33) Accurately ripped
10 | (20/33) Accurately ripped
11 | (20/33) Accurately ripped
12 | (20/33) Accurately ripped
13 | (20/33) Accurately ripped
14 | (20/33) Accurately ripped
15 | (20/33) Accurately ripped
16 | (20/33) Accurately ripped
[AccurateRip ID: 002176da-019c48c2-f8100f11] found.
Track [ CRC | V2 ] Status
01 [5166318b|be5e2baa] (0+6/9) Accurately ripped
02 [cc6668c3|6355a355] (0+6/9) Accurately ripped
03 [098fd3da|033a6a34] (0+6/9) Accurately ripped
04 [8174c0bb|e1e9de5c] (0+6/9) Accurately ripped
05 [5c1bb62d|751d1051] (0+6/9) Accurately ripped
06 [447e455e|0e9e5ddb] (0+6/9) Accurately ripped
07 [e6466da3|ce521b05] (0+6/9) Accurately ripped
08 [368850c7|24eb786f] (0+6/9) Accurately ripped
09 [15838364|6613199b] (0+6/9) Accurately ripped
10 [8d21e429|533f954e] (0+6/9) Accurately ripped
11 [ba0fdac1|730d6322] (0+6/9) Accurately ripped
12 [9ce0a609|2e7b6d9c] (0+6/9) Accurately ripped
13 [56856e87|4452fd8f] (0+6/9) Accurately ripped
14 [d98c0378|58d8860e] (0+6/9) Accurately ripped
15 [47856be7|86bdc0f1] (0+6/9) Accurately ripped
16 [8f7778f2|08b51cd6] (0+6/9) Accurately ripped
Offsetted by 788:
01 [8865edbf] (0/9) No match (V2 was not tested)
02 [698bf87f] (0/9) No match (V2 was not tested)
03 [98152216] (0/9) No match (V2 was not tested)
04 [b5f71a83] (0/9) No match (V2 was not tested)
05 [3f971ced] (0/9) No match (V2 was not tested)
06 [868a8b0a] (0/9) No match (V2 was not tested)
07 [2906cd4b] (0/9) No match (V2 was not tested)
08 [ac768ad6] (0/9) No match (V2 was not tested)
09 [76a3fae1] (0/9) No match (V2 was not tested)
10 [0ddeca75] (0/9) No match (V2 was not tested)
11 [077f1675] (0/9) No match (V2 was not tested)
12 [529ab582] (0/9) No match (V2 was not tested)
13 [2d1bf31e] (0/9) No match (V2 was not tested)
14 [32241c74] (0/9) No match (V2 was not tested)
15 [5c3bfad7] (0/9) No match (V2 was not tested)
16 [67fa786e] (0/9) No match (V2 was not tested)

Track Peak [ CRC32 ] [W/O NULL] [ LOG ]
– 98,8 [69304444] [254E33E5] CRC32
01 97,7 [731D6989] [9AAD4F83]
02 97,7 [CF51993D] [34B922B7]
03 97,7 [AC0CD3CA] [595F1E8E]
04 97,7 [8654719E] [879468ED]
05 97,7 [69A2F830] [49804854]
06 97,7 [236A7396] [5BF1BB2D]
07 97,7 [BEC59A69] [552EF8A2]
08 97,7 [EF83B199] [8D99CEAC]
09 98,0 [A984EE7F] [CB4BAFBB]
10 97,7 [CA9133A6] [0DDE9B1A]
11 98,8 [559751F0] [81254A59]
12 97,7 [9CB514D5] [E04DBB02]
13 97,7 [26C64FA3] [8D82AA93]
14 97,7 [B3378F22] [07E74DC8]
15 94,4 [ABB0F4FB] [51466FD9]
16 97,7 [BB648022] [FB71E435]

Exact Audio Copy V0.99 prebeta 5 from 4. May 2009

EAC extraction logfile from 19. December 2009, 16:29

Moby / Hotel / Ambient

Used drive : _NEC DVD_RW ND-4570A Adapter: 1 ID: 0

Read mode : Secure
Utilize accurate stream : Yes
Defeat audio cache : Yes
Make use of C2 pointers : No

Read offset correction : 48
Overread into Lead-In and Lead-Out : No
Fill up missing offset samples with silence : Yes
Delete leading and trailing silent blocks : No
Null samples used in CRC calculations : Yes
Used interface : Native Win32 interface for Win NT & 2000

Used output format : User Defined Encoder
Selected bitrate : 128 kBit/s
Quality : High
Add ID3 tag : No
Command line compressor : C:\Program Files\Exact Audio Copy\Flac\flac.exe
Additional command line options : -8 -V %s


TOC of the extracted CD

Track | Start | Length | Start sector | End sector
––––––––––––––––––––––––––––-
1 | 0:00.00 | 6:41.09 | 0 | 30083
2 | 6:41.09 | 4:25.58 | 30084 | 50016
3 | 11:06.67 | 6:07.53 | 50017 | 77594
4 | 17:14.45 | 10:57.40 | 77595 | 126909
5 | 28:12.10 | 7:25.07 | 126910 | 160291
6 | 35:37.17 | 3:10.23 | 160292 | 174564
7 | 38:47.40 | 3:53.58 | 174565 | 192097
8 | 42:41.23 | 5:18.12 | 192098 | 215959
9 | 47:59.35 | 6:49.39 | 215960 | 246673
10 | 54:48.74 | 7:15.47 | 246674 | 279345
11 | 62:04.46 | 5:49.63 | 279346 | 305583
12 | 70:26.34 | 3:31.41 | 316984 | 332849


Range status and errors

Selected range

Filename D:\Moby - Hotel\CD 2\Moby - HOTEL AMBIENT.wav

Peak level 98.8 %
Range quality 100.0 %
Test CRC 6E04BBB7
Copy CRC 6E04BBB7
Copy OK

No errors occurred


AccurateRip summary

Track 1 not present in database
Track 2 not present in database
Track 3 not present in database
Track 4 not present in database
Track 5 not present in database
Track 6 not present in database
Track 7 not present in database
Track 8 not present in database
Track 9 not present in database
Track 10 not present in database
Track 11 not present in database

None of the tracks are present in the AccurateRip database

End of status report

[CUETools log; Date: 14.12.2018 12:12:17; Version: 2.1.4]
CD-Extra data track length 03:31:41.
[CTDB TOCID: f3_l3pAkRoKhcj4BW0FCesACbdQ-] found.
Track | CTDB Status
1 | ( 50/138) Accurately ripped
2 | ( 56/138) Accurately ripped
3 | ( 52/138) Accurately ripped
4 | ( 57/138) Accurately ripped
5 | ( 59/138) Accurately ripped
6 | ( 64/138) Accurately ripped
7 | ( 61/138) Accurately ripped
8 | ( 67/138) Accurately ripped
9 | ( 56/138) Accurately ripped
10 | ( 56/138) Accurately ripped
11 | ( 58/138) Accurately ripped
[AccurateRip ID: 001cc8b7-00f98703-ad11560c] found.
Track [ CRC | V2 ] Status
01 [6ad4ce71|7ce8e3c3] (0+5/5) Accurately ripped
02 [67cda2cf|420433e9] (0+5/5) Accurately ripped
03 [3d9fd587|3615f2b5] (0+5/5) Accurately ripped
04 [592f7177|3ba16a0a] (0+5/5) Accurately ripped
05 [99c12d8d|621e6bcd] (0+5/5) Accurately ripped
06 [a51e5717|7f9bf055] (0+5/5) Accurately ripped
07 [71e1e597|57fc195f] (0+5/5) Accurately ripped
08 [19d9aef0|69da26e3] (0+5/5) Accurately ripped
09 [b77e2ba0|add3e8ff] (0+5/5) Accurately ripped
10 [6442c5f1|602c39d1] (0+5/5) Accurately ripped
11 [aa68bf9b|7560cd03] (0+5/5) Accurately ripped

Track Peak [ CRC32 ] [W/O NULL] [ LOG ]
– 98,8 [6E04BBB7] [8F662838] CRC32
01 97,7 [797BBEBD] [A665D7AC]
02 91,2 [C72AE647] [976C93F0]
03 95,0 [AED8AFA8] [F92F58ED]
04 92,7 [FCD73B09] [864F409C]
05 98,8 [572C71AF] [EC971DD0]
06 74,6 [CB65C6F4] [0E49BBD1]
07 79,1 [5B6A864B] [A6C72543]
08 72,7 [C1E91FF3] [F901052A]
09 73,9 [C6480AD2] [25969E01]
10 86,3 [B115A451] [2941F879]
11 61,3 [409AC909] [C59E44A1]

Thanks to unbalance

See also:
Moby - Go: The Very Best Of Moby (2006) [Japanese Edition]
Moby - Last Night (2008) [Japanese Edition]
Moby - Wait For Me (2009) [2CD Deluxe Edition]