Tags
Language
Tags

Moby - Innocents (2013) [2CD Japanese Edition]

Posted By: gribovar
Moby - Innocents (2013) [2CD Japanese Edition]

Moby - Innocents (2013) [2CD Japanese Edition]
EAC Rip | FLAC (tracks+.cue+log) - 567 MB | MP3 CBR 320 kbps (LAME 3.93) - 227 MB | Covers - 116 MB
Genre: Electronic, Downtempo, House, Pop | RAR 3% Rec. | Label: Beat Records (BRC-397DLX)

Innocents is in line with Wait for Me (2009) and Destroyed (2011), Moby's most intimate and isolated albums. Following a move from New York to Los Angeles, he recorded almost all the instrumentation by himself. He made a considerable change by seeking vocals from an extended cast of relatively known singers - including Mark Lanegan, the Flaming Lips' Wayne Coyne, Cold Specks, Skylar Grey, and Damien Jurado - rather than a handful of locals, and he had Mark "Spike" Stent mix it all. It's another downcast, occasionally grand-sounding set suited for solitary home listening. Not much moves the feet. "A Long Time" has an insistent, kind of dejected chug, while "Saints" sounds like Moby trying to recall how Massive Attack's "Unfinished Sympathy" goes. The emotional apex is "The Perfect Life," a neo-gospel number where Moby and Coyne are backed by a choir of ten voices. It would have provided a suitable end to the album, but instead, it's planted in the middle, surrounded by an ambient piano ballad and surprisingly understated showcase for Grey. Much of the album is rich with Moby's synthetic strings. This is the most liberal he's been with them - they're just about everywhere - but he thankfully restrains himself on "The Lonely Night," where Mark Lanegan's deep, weathered voice is relatively (rightfully) unornamented and dissipates amid soft drones after "Here come the lonely night…can't escape my mind." It helps make Innocents Moby's most powerful work in several years.
CD 1 Tracklist:
01. Everything That Rises
02. A Case For Shame
03. Almost Home
04. Going Wrong
05. The Perfect Life
06. The Last Day
07. Don't Love Me
08. A Long Time
09. Saints
10. Tell Me
11. The Lonely Night
12. The Dogs
13. The Perfect Life (Moby's m-90 edit) (Bonus track)

Total time: 01:08:13

CD 2 Tracklist (Everyone Is Gone EP):
01. I Tried
02. Illot Motto
03. Miss Lantern
04. Blindness
05. Everyone Is Gone
06. My Machines

Total time: 28:18

Exact Audio Copy V1.1 from 23. June 2015

EAC extraction logfile from 13. August 2015, 13:21

Moby / Innocents

Used drive : PLEXTOR DVDR PX-891SAW Adapter: 1 ID: 0

Read mode : Secure
Utilize accurate stream : Yes
Defeat audio cache : Yes
Make use of C2 pointers : No

Read offset correction : 48
Overread into Lead-In and Lead-Out : No
Fill up missing offset samples with silence : Yes
Delete leading and trailing silent blocks : No
Null samples used in CRC calculations : Yes
Used interface : Native Win32 interface for Win NT & 2000
Gap handling : Appended to previous track

Used output format : User Defined Encoder
Selected bitrate : 1024 kBit/s
Quality : High
Add ID3 tag : No
Command line compressor : C:\Program Files (x86)\Exact Audio Copy\Flac\flac.exe
Additional command line options : -8 -V -T "ARTIST=%artist%" -T "TITLE=%title%" -T "ALBUM=%albumtitle%" -T "DATE=%year%" -T "TRACKNUMBER=%tracknr%" -T "GENRE=%genre%" -T "PERFORMER=%albuminterpret%" -T "COMPOSER=%composer%" %haslyrics%–tag-from-file=LYRICS="%lyricsfile%"%haslyrics% -T "ALBUMARTIST=%albumartist%" -T "DISCNUMBER=%cdnumber%" -T "TOTALDISCS=%totalcds%" -T "TOTALTRACKS=%numtracks%" -T "COMMENT=%comment%" %source% -o %dest%


TOC of the extracted CD

Track | Start | Length | Start sector | End sector
––––––––––––––––––––––––––––-
1 | 0:00.00 | 4:38.27 | 0 | 20876
2 | 4:38.27 | 6:05.10 | 20877 | 48261
3 | 10:43.37 | 6:00.48 | 48262 | 75309
4 | 16:44.10 | 3:44.31 | 75310 | 92140
5 | 20:28.41 | 6:03.26 | 92141 | 119391
6 | 26:31.67 | 4:40.74 | 119392 | 140465
7 | 31:12.66 | 4:20.48 | 140466 | 160013
8 | 35:33.39 | 4:31.51 | 160014 | 180389
9 | 40:05.15 | 4:34.51 | 180390 | 200990
10 | 44:39.66 | 5:33.34 | 200991 | 225999
11 | 50:13.25 | 4:53.18 | 226000 | 247992
12 | 55:06.43 | 9:25.31 | 247993 | 290398
13 | 64:31.74 | 3:40.68 | 290399 | 306966


Track 1

Filename C:\Rips\01 - Everything That Rises.wav

Pre-gap length 0:00:02.00

Peak level 98.4 %
Extraction speed 4.9 X
Track quality 100.0 %
Test CRC B160835C
Copy CRC B160835C
Accurately ripped (confidence 2) [AB31CEBD] (AR v2)
Copy OK

Track 2

Filename C:\Rips\02 - A Case For Shame.wav

Peak level 98.4 %
Extraction speed 5.7 X
Track quality 100.0 %
Test CRC 3B40BFC3
Copy CRC 3B40BFC3
Accurately ripped (confidence 2) [11D8D172] (AR v2)
Copy OK

Track 3

Filename C:\Rips\03 - Almost Home.wav

Peak level 98.4 %
Extraction speed 6.3 X
Track quality 100.0 %
Test CRC 2903DBE3
Copy CRC 2903DBE3
Accurately ripped (confidence 2) [BB6B3864] (AR v2)
Copy OK

Track 4

Filename C:\Rips\04 - Going Wrong.wav

Peak level 98.4 %
Extraction speed 4.3 X
Track quality 99.9 %
Test CRC 646F9590
Copy CRC 646F9590
Accurately ripped (confidence 2) [DB3F1303] (AR v2)
Copy OK

Track 5

Filename C:\Rips\05 - The Perfect Life.wav

Peak level 98.4 %
Extraction speed 7.3 X
Track quality 100.0 %
Test CRC F8D3CE9F
Copy CRC F8D3CE9F
Accurately ripped (confidence 2) [C39CF74B] (AR v2)
Copy OK

Track 6

Filename C:\Rips\06 - The Last Day.wav

Peak level 98.4 %
Extraction speed 7.5 X
Track quality 100.0 %
Test CRC 11AC0F96
Copy CRC 11AC0F96
Accurately ripped (confidence 2) [715869BB] (AR v2)
Copy OK

Track 7

Filename C:\Rips\07 - Don't Love Me.wav

Peak level 98.4 %
Extraction speed 7.7 X
Track quality 100.0 %
Test CRC 7EE9FC4C
Copy CRC 7EE9FC4C
Accurately ripped (confidence 2) [B7CA9F02] (AR v2)
Copy OK

Track 8

Filename C:\Rips\08 - A Long Time.wav

Peak level 98.4 %
Extraction speed 8.1 X
Track quality 100.0 %
Test CRC FD042ED0
Copy CRC FD042ED0
Accurately ripped (confidence 2) [78F539AA] (AR v2)
Copy OK

Track 9

Filename C:\Rips\09 - Saints.wav

Peak level 98.4 %
Extraction speed 8.4 X
Track quality 100.0 %
Test CRC 40255C4D
Copy CRC 40255C4D
Accurately ripped (confidence 2) [49A473D5] (AR v2)
Copy OK

Track 10

Filename C:\Rips\10 - Tell Me.wav

Peak level 98.4 %
Extraction speed 8.9 X
Track quality 100.0 %
Test CRC 5F99DEC5
Copy CRC 5F99DEC5
Accurately ripped (confidence 2) [37902353] (AR v2)
Copy OK

Track 11

Filename C:\Rips\11 - The Lonely Night.wav

Peak level 98.4 %
Extraction speed 9.1 X
Track quality 100.0 %
Test CRC F26CA4F6
Copy CRC F26CA4F6
Accurately ripped (confidence 2) [B6F398FA] (AR v2)
Copy OK

Track 12

Filename C:\Rips\12 - The Dogs.wav

Peak level 98.4 %
Extraction speed 9.9 X
Track quality 100.0 %
Test CRC DE7907F6
Copy CRC DE7907F6
Accurately ripped (confidence 2) [419A1C72] (AR v2)
Copy OK

Track 13

Filename C:\Rips\13 - The Perfect Life (Moby's m-90 edit).wav

Peak level 98.4 %
Extraction speed 9.5 X
Track quality 100.0 %
Test CRC 0048530A
Copy CRC 0048530A
Accurately ripped (confidence 2) [0C11F180] (AR v2)
Copy OK


All tracks accurately ripped

No errors occurred

End of status report

–– CUETools DB Plugin V2.1.6

[CTDB TOCID: u9mfbt.pQvJgMpK4oEk9irDVXR8-] found
Submit result: u9mfbt.pQvJgMpK4oEk9irDVXR8- has been confirmed
Track | CTDB Status
1 | (1/1) Accurately ripped
2 | (1/1) Accurately ripped
3 | (1/1) Accurately ripped
4 | (1/1) Accurately ripped
5 | (1/1) Accurately ripped
6 | (1/1) Accurately ripped
7 | (1/1) Accurately ripped
8 | (1/1) Accurately ripped
9 | (1/1) Accurately ripped
10 | (1/1) Accurately ripped
11 | (1/1) Accurately ripped
12 | (1/1) Accurately ripped
13 | (1/1) Accurately ripped


==== Log checksum 1F3DDCEBDAA40536EB93926AEAA6CE4DEBA08DD2EEC108B1E2E2B62625BCFB62 ====

[CUETools log; Date: 14.01.2020 16:17:42; Version: 2.1.4]
[CTDB TOCID: u9mfbt.pQvJgMpK4oEk9irDVXR8-] found.
Track | CTDB Status
1 | (8/8) Accurately ripped
2 | (8/8) Accurately ripped
3 | (8/8) Accurately ripped
4 | (8/8) Accurately ripped
5 | (8/8) Accurately ripped
6 | (8/8) Accurately ripped
7 | (8/8) Accurately ripped
8 | (8/8) Accurately ripped
9 | (8/8) Accurately ripped
10 | (8/8) Accurately ripped
11 | (8/8) Accurately ripped
12 | (8/8) Accurately ripped
13 | (8/8) Accurately ripped
[AccurateRip ID: 00202f12-0141e751-a30ffc0d] found.
Track [ CRC | V2 ] Status
01 [1d9123e7|ab31cebd] (0+3/3) Accurately ripped
02 [16be9809|11d8d172] (0+3/3) Accurately ripped
03 [08a740a1|bb6b3864] (0+3/3) Accurately ripped
04 [1e58124e|db3f1303] (0+3/3) Accurately ripped
05 [13025966|c39cf74b] (0+3/3) Accurately ripped
06 [dffbe85f|715869bb] (0+3/3) Accurately ripped
07 [03f79c2c|b7ca9f02] (0+3/3) Accurately ripped
08 [8acd5521|78f539aa] (0+3/3) Accurately ripped
09 [db4d4f33|49a473d5] (0+3/3) Accurately ripped
10 [cfff4256|37902353] (0+3/3) Accurately ripped
11 [1f816b10|b6f398fa] (0+3/3) Accurately ripped
12 [7357d44c|419a1c72] (0+3/3) Accurately ripped
13 [0bcf4cc0|0c11f180] (0+3/3) Accurately ripped

Track Peak [ CRC32 ] [W/O NULL] [ LOG ]
– 98,4 [57E2A1F0] [A79D8B89]
01 98,4 [B160835C] [96D93062] CRC32
02 98,4 [3B40BFC3] [EF49F4B2] CRC32
03 98,4 [2903DBE3] [86D05254] CRC32
04 98,4 [646F9590] [972C5959] CRC32
05 98,4 [F8D3CE9F] [A0B9032D] CRC32
06 98,4 [11AC0F96] [4A8DC62E] CRC32
07 98,4 [7EE9FC4C] [E23397ED] CRC32
08 98,4 [FD042ED0] [76F887EF] CRC32
09 98,4 [40255C4D] [3CE09B1C] CRC32
10 98,4 [5F99DEC5] [6A64456E] CRC32
11 98,4 [F26CA4F6] [A9A3DE0B] CRC32
12 98,4 [DE7907F6] [AD6638E7] CRC32
13 98,4 [0048530A] [D0AC5DB3] CRC32

Exact Audio Copy V1.1 from 23. June 2015

EAC extraction logfile from 13. August 2015, 18:42

Moby / Innocents Disc 2

Used drive : PLEXTOR DVDR PX-891SAW Adapter: 1 ID: 0

Read mode : Secure
Utilize accurate stream : Yes
Defeat audio cache : Yes
Make use of C2 pointers : No

Read offset correction : 48
Overread into Lead-In and Lead-Out : No
Fill up missing offset samples with silence : Yes
Delete leading and trailing silent blocks : No
Null samples used in CRC calculations : Yes
Used interface : Native Win32 interface for Win NT & 2000
Gap handling : Appended to previous track

Used output format : User Defined Encoder
Selected bitrate : 1024 kBit/s
Quality : High
Add ID3 tag : No
Command line compressor : C:\Program Files (x86)\Exact Audio Copy\Flac\flac.exe
Additional command line options : -8 -V -T "ARTIST=%artist%" -T "TITLE=%title%" -T "ALBUM=%albumtitle%" -T "DATE=%year%" -T "TRACKNUMBER=%tracknr%" -T "GENRE=%genre%" -T "PERFORMER=%albuminterpret%" -T "COMPOSER=%composer%" %haslyrics%–tag-from-file=LYRICS="%lyricsfile%"%haslyrics% -T "ALBUMARTIST=%albumartist%" -T "DISCNUMBER=%cdnumber%" -T "TOTALDISCS=%totalcds%" -T "TOTALTRACKS=%numtracks%" -T "COMMENT=%comment%" %source% -o %dest%


TOC of the extracted CD

Track | Start | Length | Start sector | End sector
––––––––––––––––––––––––––––-
1 | 0:00.00 | 7:19.30 | 0 | 32954
2 | 7:19.30 | 3:38.55 | 32955 | 49359
3 | 10:58.10 | 4:43.05 | 49360 | 70589
4 | 15:41.15 | 5:39.46 | 70590 | 96060
5 | 21:20.61 | 2:31.24 | 96061 | 107409
6 | 23:52.10 | 4:25.57 | 107410 | 127341


Track 1

Filename C:\Rips\01 - I Tried.wav

Pre-gap length 0:00:02.00

Peak level 98.8 %
Extraction speed 5.0 X
Track quality 100.0 %
Test CRC 7DA791CC
Copy CRC 7DA791CC
Accurately ripped (confidence 2) [7EBBB39D] (AR v2)
Copy OK

Track 2

Filename C:\Rips\02 - Illot Motto.wav

Peak level 98.8 %
Extraction speed 5.3 X
Track quality 100.0 %
Test CRC B6C98E80
Copy CRC B6C98E80
Accurately ripped (confidence 2) [8B3F05EE] (AR v2)
Copy OK

Track 3

Filename C:\Rips\03 - Miss Lantern.wav

Peak level 98.8 %
Extraction speed 5.9 X
Track quality 100.0 %
Test CRC 49FF3D23
Copy CRC 49FF3D23
Accurately ripped (confidence 2) [4E57058A] (AR v2)
Copy OK

Track 4

Filename C:\Rips\04 - Blindness.wav

Peak level 98.8 %
Extraction speed 4.8 X
Track quality 99.9 %
Test CRC A4CE0C7B
Copy CRC A4CE0C7B
Accurately ripped (confidence 2) [61C45F89] (AR v2)
Copy OK

Track 5

Filename C:\Rips\05 - Everyone Is Gone.wav

Peak level 98.8 %
Extraction speed 6.1 X
Track quality 100.0 %
Test CRC 600FF10A
Copy CRC 600FF10A
Accurately ripped (confidence 2) [01D85D3A] (AR v2)
Copy OK

Track 6

Filename C:\Rips\06 - My Machines.wav

Peak level 98.8 %
Extraction speed 6.9 X
Track quality 100.0 %
Test CRC EAD09952
Copy CRC EAD09952
Accurately ripped (confidence 2) [7CE8863F] (AR v2)
Copy OK


All tracks accurately ripped

No errors occurred

End of status report

–– CUETools DB Plugin V2.1.6

[CTDB TOCID: 9rkmGNGcpXwEGUXuIdCAB_TZcEo-] found
Submit result: 9rkmGNGcpXwEGUXuIdCAB_TZcEo- has been confirmed
Track | CTDB Status
1 | (116/117) Accurately ripped
2 | (116/117) Accurately ripped
3 | (116/117) Accurately ripped
4 | (115/117) Accurately ripped
5 | (115/117) Accurately ripped
6 | (115/117) Accurately ripped


==== Log checksum 1E388599B605826F4A4500EE3171665D336DD694FC50B59C9F84505138AC5B1E ====

[CUETools log; Date: 14.01.2020 16:18:07; Version: 2.1.4]
[CTDB TOCID: 9rkmGNGcpXwEGUXuIdCAB_TZcEo-] found.
Track | CTDB Status
1 | (251/254) Accurately ripped
2 | (251/254) Accurately ripped
3 | (252/254) Accurately ripped
4 | (249/254) Accurately ripped
5 | (251/254) Accurately ripped
6 | (250/254) Accurately ripped
[AccurateRip ID: 00076186-0026567e-4006a106] found.
Track [ CRC | V2 ] Status
01 [47df0580|7ebbb39d] (000+003/154) Accurately ripped
02 [f17dbdae|8b3f05ee] (000+003/155) Accurately ripped
03 [33bb1444|4e57058a] (000+003/155) Accurately ripped
04 [bf74b786|61c45f89] (000+003/155) Accurately ripped
05 [4311dc69|01d85d3a] (000+003/155) Accurately ripped
06 [8cc42268|7ce8863f] (000+003/153) Accurately ripped
Offsetted by 19:
01 [a9e2d3f1] (009/154) Accurately ripped
02 [bdbe6c06] (010/155) Accurately ripped
03 [df765739] (010/155) Accurately ripped
04 [f16b5a04] (010/155) Accurately ripped
05 [b1c3105a] (010/155) Accurately ripped
06 [ae5d98ae] (010/153) Accurately ripped
Offsetted by -65:
01 [dd9c1ad5] (000/154) No match (V2 was not tested)
02 [f35d1866] (000/155) No match (V2 was not tested)
03 [10a63cad] (000/155) No match (V2 was not tested)
04 [4a6c55bc] (000/155) No match (V2 was not tested)
05 [0bc11d3e] (000/155) No match (V2 was not tested)
06 [a62b5d9f] (000/153) No match (V2 was not tested)
Offsetted by 13:
01 [f6b9346f] (000/154) No match (V2 was not tested)
02 [8ab77856] (000/155) No match (V2 was not tested)
03 [078c0c2f] (000/155) No match (V2 was not tested)
04 [0a0ffe48] (000/155) No match (V2 was not tested)
05 [815535d8] (000/155) No match (V2 was not tested)
06 [b3697a1c] (000/153) No match (V2 was not tested)
Offsetted by 25:
01 [5d0c7373] (000/154) No match (V2 was not tested)
02 [f0c55fb6] (000/155) No match (V2 was not tested)
03 [b760a243] (000/155) No match (V2 was not tested)
04 [d8c6b5c0] (000/155) No match (V2 was not tested)
05 [e230eadc] (000/155) No match (V2 was not tested)
06 [38b7fc4f] (000/153) No match (V2 was not tested)

Track Peak [ CRC32 ] [W/O NULL] [ LOG ]
– 98,8 [41B6B6A2] [EB256693]
01 98,8 [7DA791CC] [4037D5B9] CRC32
02 98,8 [B6C98E80] [3DD806C8] CRC32
03 98,8 [49FF3D23] [71F3AB7D] CRC32
04 98,8 [A4CE0C7B] [7CF6A770] CRC32
05 98,8 [600FF10A] [15E1973B] CRC32
06 98,8 [EAD09952] [5C13404A] CRC32

Thanks to thezabs

See also: