Tags
Language
Tags

Moby - Play (1999) [2CD Limited Festival Edition]

Posted By: gribovar
Moby - Play (1999) [2CD Limited Festival Edition]

Moby - Play (1999) [2CD Limited Festival Edition]
EAC Rip | FLAC (tracks+.cue+log) - 588 MB | MP3 CBR 320 kbps (LAME 3.93) - 232 MB | Covers - 139 MB
Genre: Downtempo, Breakbeat, Techno | RAR 3% Rec. | Label: Mute Records (391.0172.26)

Following a notorious flirtation with alternative rock, Moby returned to the electronic dance mainstream on the 1997 album I Like to Score. With 1999's Play, he made yet another leap back toward the electronica base that had passed him by during the mid-'90s. The first two tracks, "Honey" and "Find My Baby," weave short blues or gospel vocal samples around rather disinterested breakbeat techno. This version of blues-meets-electronica is undoubtedly intriguing to the all-important NPR crowd, but it is more than just a bit gimmicky to any techno fans who know their Carl Craig from Carl Cox. Fortunately, Moby redeems himself in a big way over the rest of the album with a spate of tracks that return him to the evocative, melancholy techno that's been a specialty since his early days. The tinkly piano line and warped string samples on "Porcelain" frame a meaningful, devastatingly understated vocal from the man himself, while "South Side" is just another pop song by someone who shouldn't be singing - that is, until the transcendent chorus redeems everything. Surprisingly, many of Moby's vocal tracks are highlights; he has an unerring sense of how to frame his fragile vocals with sympathetic productions. Occasionally, the similarities to contemporary dance superstars like Fatboy Slim and Chemical Brothers are just a bit too close for comfort, as on the stale big-beat anthem "Bodyrock." Still, Moby shows himself back in the groove after a long hiatus, balancing his sublime early sound with the breakbeat techno evolution of the '90s.
CD 1 Tracklist:
01. Honey
02. Find My Baby
03. Porcelain
04. Why Does My Heart Feel So Bad?
05. South Side
06. Rushing
07. Bodyrock
08. Natural Blues
09. Machete
10. 7
11. Run On
12. Down Slow
13. If Things Were Perfect
14. Everloving
15. Inside
16. Guitar Flute & String
17. The Sky Is Broken
18. My Weakness

Total time: 01:03:12

CD 2 Tracklist:
01. The Whispering Wind
02. Honey (Rollo & Sister Bliss Blunt Edit)
03. Spirit
04. Why Does My Heart Feel So Bad? (Ferry Corsten Remix)
05. Sunspot
06. Natural Blues (Mike D Remix)

Total time: 32:02

Exact Audio Copy V1.3 from 2. September 2016

EAC extraction logfile from 27. June 2018, 1:02

Moby / Play

Used drive : PIONEER DVD-RW DVR-215 Adapter: 1 ID: 2

Read mode : Secure
Utilize accurate stream : Yes
Defeat audio cache : Yes
Make use of C2 pointers : No

Read offset correction : 48
Overread into Lead-In and Lead-Out : No
Fill up missing offset samples with silence : Yes
Delete leading and trailing silent blocks : No
Null samples used in CRC calculations : Yes
Used interface : Native Win32 interface for Win NT & 2000
Gap handling : Appended to previous track

Used output format : User Defined Encoder
Selected bitrate : 1024 kBit/s
Quality : High
Add ID3 tag : No
Command line compressor : C:\Program Files (x86)\Exact Audio Copy\FLAC\FLAC.EXE
Additional command line options : -6 -V -T "COMMENT=Ripped by RRC" -T "ARTIST=%artist%" -T "TITLE=%title%" -T "ALBUM=%albumtitle%" -T "DATE=%year%" -T "TRACKNUMBER=%tracknr%" -T "GENRE=%genre%" -T "BAND=%albuminterpret%" -T "ALBUMARTIST=%albuminterpret%" -T "COMPOSER=%composer%" %haslyrics%–tag-from-file=LYRICS="%lyricsfile%"%haslyrics% -T "DISCNUMBER=%cdnumber%" -T "TOTALDISCS=%totalcds%" -T "TOTALTRACKS=%numtracks%" %hascover%–picture="%coverfile%"%hascover% %source%


TOC of the extracted CD

Track | Start | Length | Start sector | End sector
––––––––––––––––––––––––––––-
1 | 0:00.00 | 3:28.50 | 0 | 15649
2 | 3:28.50 | 3:59.30 | 15650 | 33604
3 | 7:28.05 | 4:01.12 | 33605 | 51691
4 | 11:29.17 | 4:24.63 | 51692 | 71554
5 | 15:54.05 | 3:49.55 | 71555 | 88784
6 | 19:43.60 | 3:00.20 | 88785 | 102304
7 | 22:44.05 | 3:36.32 | 102305 | 118536
8 | 26:20.37 | 4:13.58 | 118537 | 137569
9 | 30:34.20 | 3:37.55 | 137570 | 153899
10 | 34:12.00 | 1:02.02 | 153900 | 158551
11 | 35:14.02 | 3:45.10 | 158552 | 175436
12 | 38:59.12 | 1:34.65 | 175437 | 182551
13 | 40:34.02 | 4:18.48 | 182552 | 201949
14 | 44:52.50 | 3:25.42 | 201950 | 217366
15 | 48:18.17 | 4:48.45 | 217367 | 239011
16 | 53:06.62 | 2:09.15 | 239012 | 248701
17 | 55:16.02 | 4:18.43 | 248702 | 268094
18 | 59:34.45 | 3:37.42 | 268095 | 284411


Track 1

Filename E:\RRCLtd Rip\01-Honey.wav

Pre-gap length 0:00:02.00

Peak level 89.1 %
Extraction speed 4.1 X
Track quality 100.0 %
Test CRC 364DCE5B
Copy CRC 364DCE5B
Accurately ripped (confidence 200) [90DE8E48] (AR v2)
Copy OK

Track 2

Filename E:\RRCLtd Rip\02-Find My Baby.wav

Pre-gap length 0:00:01.15

Peak level 100.0 %
Extraction speed 4.2 X
Track quality 99.9 %
Test CRC 859B5D29
Copy CRC 859B5D29
Accurately ripped (confidence 200) [7832CA1C] (AR v2)
Copy OK

Track 3

Filename E:\RRCLtd Rip\03-Porcelain.wav

Pre-gap length 0:00:01.10

Peak level 100.0 %
Extraction speed 5.1 X
Track quality 100.0 %
Test CRC 58A6201A
Copy CRC 58A6201A
Accurately ripped (confidence 200) [BEAA3524] (AR v2)
Copy OK

Track 4

Filename E:\RRCLtd Rip\04-Why Does My Heart Feel So Bad.wav

Pre-gap length 0:00:01.35

Peak level 100.0 %
Extraction speed 5.6 X
Track quality 100.0 %
Test CRC 0B9F1EE8
Copy CRC 0B9F1EE8
Accurately ripped (confidence 200) [2993B913] (AR v2)
Copy OK

Track 5

Filename E:\RRCLtd Rip\05-South Side.wav

Pre-gap length 0:00:01.10

Peak level 100.0 %
Extraction speed 5.2 X
Track quality 99.9 %
Test CRC F0D9B756
Copy CRC F0D9B756
Accurately ripped (confidence 200) [8842AB00] (AR v2)
Copy OK

Track 6

Filename E:\RRCLtd Rip\06-Rushing.wav

Pre-gap length 0:00:01.09

Peak level 100.0 %
Extraction speed 5.0 X
Track quality 99.9 %
Test CRC 336DA06A
Copy CRC 336DA06A
Accurately ripped (confidence 200) [D8D8FE3F] (AR v2)
Copy OK

Track 7

Filename E:\RRCLtd Rip\07-Bodyrock.wav

Pre-gap length 0:00:01.35

Peak level 100.0 %
Extraction speed 5.5 X
Track quality 99.9 %
Test CRC 8397FE57
Copy CRC 8397FE57
Accurately ripped (confidence 200) [FDA7AE68] (AR v2)
Copy OK

Track 8

Filename E:\RRCLtd Rip\08-Natural Blues.wav

Pre-gap length 0:00:01.35

Peak level 100.0 %
Extraction speed 6.6 X
Track quality 100.0 %
Test CRC 23C71EFD
Copy CRC 23C71EFD
Accurately ripped (confidence 200) [ADBAACF0] (AR v2)
Copy OK

Track 9

Filename E:\RRCLtd Rip\09-Machete.wav

Pre-gap length 0:00:01.10

Peak level 100.0 %
Extraction speed 6.8 X
Track quality 100.0 %
Test CRC F2644404
Copy CRC F2644404
Accurately ripped (confidence 200) [353D5857] (AR v2)
Copy OK

Track 10

Filename E:\RRCLtd Rip\10-7.wav

Pre-gap length 0:00:01.08

Peak level 100.0 %
Extraction speed 5.0 X
Track quality 100.0 %
Test CRC CE156D41
Copy CRC CE156D41
Accurately ripped (confidence 200) [9ACE3D16] (AR v2)
Copy OK

Track 11

Filename E:\RRCLtd Rip\11-Run On.wav

Pre-gap length 0:00:01.10

Peak level 100.0 %
Extraction speed 7.1 X
Track quality 100.0 %
Test CRC A1BCDCF3
Copy CRC A1BCDCF3
Accurately ripped (confidence 200) [B661D2A5] (AR v2)
Copy OK

Track 12

Filename E:\RRCLtd Rip\12-Down Slow.wav

Pre-gap length 0:00:01.35

Peak level 100.0 %
Extraction speed 6.0 X
Track quality 100.0 %
Test CRC C83C820F
Copy CRC C83C820F
Accurately ripped (confidence 200) [15990134] (AR v2)
Copy OK

Track 13

Filename E:\RRCLtd Rip\13-If Things Were Perfect.wav

Peak level 99.9 %
Extraction speed 6.8 X
Track quality 99.9 %
Test CRC 7556EC2C
Copy CRC 7556EC2C
Accurately ripped (confidence 200) [EC12A49F] (AR v2)
Copy OK

Track 14

Filename E:\RRCLtd Rip\14-Everloving.wav

Peak level 100.0 %
Extraction speed 7.6 X
Track quality 100.0 %
Test CRC E1E2C0E1
Copy CRC E1E2C0E1
Accurately ripped (confidence 200) [AA1D60C7] (AR v2)
Copy OK

Track 15

Filename E:\RRCLtd Rip\15-Inside.wav

Pre-gap length 0:00:01.10

Peak level 100.0 %
Extraction speed 7.1 X
Track quality 100.0 %
Test CRC 7C2875E8
Copy CRC 7C2875E8
Accurately ripped (confidence 200) [4E036B35] (AR v2)
Copy OK

Track 16

Filename E:\RRCLtd Rip\16-Guitar Flute & String.wav

Pre-gap length 0:00:01.10

Peak level 82.4 %
Extraction speed 7.2 X
Track quality 100.0 %
Test CRC 5334ED5D
Copy CRC 5334ED5D
Accurately ripped (confidence 200) [EE748A5F] (AR v2)
Copy OK

Track 17

Filename E:\RRCLtd Rip\17-The Sky Is Broken.wav

Pre-gap length 0:00:01.35

Peak level 100.0 %
Extraction speed 8.2 X
Track quality 100.0 %
Test CRC E6CAD478
Copy CRC E6CAD478
Accurately ripped (confidence 200) [EBA55EE0] (AR v2)
Copy OK

Track 18

Filename E:\RRCLtd Rip\18-My Weakness.wav

Pre-gap length 0:00:01.35

Peak level 100.0 %
Extraction speed 8.4 X
Track quality 100.0 %
Test CRC 5C6F86CD
Copy CRC 5C6F86CD
Accurately ripped (confidence 200) [B6832E21] (AR v2)
Copy OK


All tracks accurately ripped

No errors occurred

End of status report

–– CUETools DB Plugin V2.1.6

[CTDB TOCID: q0W8oo7I0sF7PJjJXQSEA7R3LsY-] found
Submit result: q0W8oo7I0sF7PJjJXQSEA7R3LsY- has been confirmed, q0W8oo7I0sF7PJjJXQSEA7R3LsY- has been confirmed
Track | CTDB Status
1 | (4436/4510) Accurately ripped, or (2/4510) differs in 207 samples @00:25:41,00:25:67,01:18:35,01:19:57,01:24:66,01:26:59-01:26:60,01:27:20,01:28:61-01:28:62,01:28:70-01:28:71,01:31:16,01:33:54,01:34:51,01:35:21,01:35:39,01:35:48,01:35:66,01:36:72,01:38:29-01:38:30,01:38:56-01:38:57,01:43:24,01:45:18,02:09:63
2 | (4440/4510) Accurately ripped, or (2/4510) differs in 8 samples @00:23:18,01:12:59,03:50:44
3 | (4435/4510) Accurately ripped
4 | (4439/4510) Accurately ripped
5 | (4441/4510) Accurately ripped
6 | (4440/4510) Accurately ripped
7 | (4435/4510) Accurately ripped
8 | (4440/4510) Accurately ripped
9 | (4440/4510) Accurately ripped
10 | (4450/4510) Accurately ripped
11 | (4430/4510) Accurately ripped
12 | (4446/4510) Accurately ripped
13 | (4433/4510) Accurately ripped
14 | (4436/4510) Accurately ripped
15 | (4419/4510) Accurately ripped
16 | (4434/4510) Accurately ripped
17 | (4420/4510) Accurately ripped
18 | (4396/4510) Accurately ripped, or (3/4510) differs in 4372 samples @03:37:27-03:37:34, or (2/4510) differs in 7 samples @03:01:22-03:01:23


==== Log checksum 2ED207FA902D9240F5404186696D4F49DCA35993FBD8AFAABBA5D77C40A1FCC8 ====

[CUETools log; Date: 15.04.2021 0:25:39; Version: 2.1.4]
[CTDB TOCID: q0W8oo7I0sF7PJjJXQSEA7R3LsY-] found.
Track | CTDB Status
1 | (7933/8052) Accurately ripped, or (4/8052) differs in 207 samples @00:25:41,00:25:67,01:18:35,01:19:57,01:24:66,01:26:59-01:26:60,01:27:20,01:28:61-01:28:62,01:28:70-01:28:71,01:31:16,01:33:54,01:34:51,01:35:21,01:35:39,01:35:48,01:35:66,01:36:72,01:38:29-01:38:30,01:38:56-01:38:57,01:43:24,01:45:18,02:09:63
2 | (7936/8052) Accurately ripped, or (4/8052) differs in 8 samples @00:23:18,01:12:59,03:50:44
3 | (7937/8052) Accurately ripped
4 | (7936/8052) Accurately ripped
5 | (7939/8052) Accurately ripped
6 | (7936/8052) Accurately ripped
7 | (7936/8052) Accurately ripped
8 | (7939/8052) Accurately ripped
9 | (7933/8052) Accurately ripped
10 | (7948/8052) Accurately ripped
11 | (7918/8052) Accurately ripped
12 | (7937/8052) Accurately ripped
13 | (7919/8052) Accurately ripped
14 | (7919/8052) Accurately ripped
15 | (7899/8052) Accurately ripped
16 | (7928/8052) Accurately ripped
17 | (7893/8052) Accurately ripped
18 | (7843/8052) Accurately ripped, or (4/8052) differs in 4372 samples @03:37:27-03:37:34, or (3/8052) differs in 4400 samples @03:37:27-03:37:34, or (2/8052) differs in 7 samples @03:01:22-03:01:23
[AccurateRip ID: 0029f4ee-022953eb-f90ed012] found.
Track [ CRC | V2 ] Status
01 [67806612|90de8e48] (200+200/1944) Accurately ripped
02 [4927c320|7832ca1c] (200+200/1941) Accurately ripped
03 [bfb705a5|beaa3524] (200+200/1940) Accurately ripped
04 [8e901109|2993b913] (200+200/1941) Accurately ripped
05 [862b5fd1|8842ab00] (200+200/1927) Accurately ripped
06 [fcebb014|d8d8fe3f] (200+200/1926) Accurately ripped
07 [c2c2f659|fda7ae68] (200+200/1933) Accurately ripped
08 [29aab70b|adbaacf0] (200+200/1932) Accurately ripped
09 [76512e32|353d5857] (200+200/1927) Accurately ripped
10 [c36879a5|9ace3d16] (200+200/1921) Accurately ripped
11 [4e97425b|b661d2a5] (200+200/1927) Accurately ripped
12 [760b3c75|15990134] (200+200/1921) Accurately ripped
13 [1db191e6|ec12a49f] (200+200/1918) Accurately ripped
14 [a9ad232f|aa1d60c7] (200+200/1919) Accurately ripped
15 [42e46ce9|4e036b35] (200+200/1922) Accurately ripped
16 [371c642a|ee748a5f] (200+200/1925) Accurately ripped
17 [f81e8823|eba55ee0] (200+200/1911) Accurately ripped
18 [0e6b1ace|b6832e21] (200+200/1914) Accurately ripped
Offsetted by 2:
01 [ba48bcfc] (006/1944) Accurately ripped
02 [49b3df8e] (005/1941) Accurately ripped
03 [6050109d] (005/1940) Accurately ripped
04 [1770bfc7] (005/1941) Accurately ripped
05 [7b63d5d9] (005/1927) Accurately ripped
06 [e5710ee0] (005/1926) Accurately ripped
07 [19c637ab] (005/1933) Accurately ripped
08 [c539b0bf] (005/1932) Accurately ripped
09 [9bdedc44] (005/1927) Accurately ripped
10 [3e5ffa27] (005/1921) Accurately ripped
11 [432cbb03] (005/1927) Accurately ripped
12 [9a5a3743] (005/1921) Accurately ripped
13 [aa6dd020] (005/1918) Accurately ripped
14 [de89efb7] (005/1919) Accurately ripped
15 [225d90f1] (005/1922) Accurately ripped
16 [aac95b2c] (005/1925) Accurately ripped
17 [2f288049] (005/1911) Accurately ripped
18 [f2d30ee4] (005/1914) Accurately ripped
Offsetted by 535:
01 [67d73795] (005/1944) Accurately ripped
02 [db8f7811] (006/1941) Accurately ripped
03 [8fa1fbc9] (006/1940) Accurately ripped
04 [1556a892] (005/1941) Accurately ripped
05 [42aab52d] (005/1927) Accurately ripped
06 [f4483e3e] (005/1926) Accurately ripped
07 [2ea9b788] (006/1933) Accurately ripped
08 [3590a2a1] (006/1932) Accurately ripped
09 [b3dc9201] (005/1927) Accurately ripped
10 [4107417c] (005/1921) Accurately ripped
11 [60c6d5e7] (005/1927) Accurately ripped
12 [66924eb6] (005/1921) Accurately ripped
13 [2c649781] (005/1918) Accurately ripped
14 [6664db4b] (005/1919) Accurately ripped
15 [c5f99345] (005/1922) Accurately ripped
16 [96587ec1] (005/1925) Accurately ripped
17 [fb0953d8] (005/1911) Accurately ripped
18 [390aa7cb] (005/1914) Accurately ripped
Offsetted by 681:
01 [02f8004f] (025/1944) Accurately ripped
02 [0383936f] (025/1941) Accurately ripped
03 [5b461c81] (024/1940) Accurately ripped
04 [1d687cc0] (025/1941) Accurately ripped
05 [2fc45d75] (024/1927) Accurately ripped
06 [4250466a] (024/1926) Accurately ripped
07 [fe9757ea] (024/1933) Accurately ripped
08 [9155d6f5] (024/1932) Accurately ripped
09 [69433523] (024/1927) Accurately ripped
10 [519ae68e] (024/1921) Accurately ripped
11 [1f663dcf] (023/1927) Accurately ripped
12 [c117d374] (023/1921) Accurately ripped
13 [4e12560b] (023/1918) Accurately ripped
14 [795b2e13] (023/1919) Accurately ripped
15 [7f84d98d] (023/1922) Accurately ripped
16 [92aaee53] (023/1925) Accurately ripped
17 [ace116ae] (023/1911) Accurately ripped
18 [5aaf4211] (023/1914) Accurately ripped
Offsetted by 1801:
01 [1936202f] (004/1944) Accurately ripped
02 [3601c40f] (004/1941) Accurately ripped
03 [aa0e1b01] (004/1940) Accurately ripped
04 [88e6bc60] (004/1941) Accurately ripped
05 [9b468ef5] (004/1927) Accurately ripped
06 [e60fa4aa] (004/1926) Accurately ripped
07 [55b63b4a] (004/1933) Accurately ripped
08 [da1810b5] (004/1932) Accurately ripped
09 [8f2ffc83] (004/1927) Accurately ripped
10 [4f0402ee] (003/1921) Accurately ripped
11 [265e2d4f] (004/1927) Accurately ripped
12 [2ddc7614] (004/1921) Accurately ripped
13 [29da74eb] (004/1918) Accurately ripped
14 [1c5a9793] (004/1919) Accurately ripped
15 [5883ab0d] (004/1922) Accurately ripped
16 [9d0742b3] (004/1925) Accurately ripped
17 [12afe9ce] (003/1911) Accurately ripped
18 [fe153231] (003/1914) Accurately ripped
Offsetted by 1828:
01 [f6c6b586] (005/1944) Accurately ripped
02 [3d6543dc] (005/1941) Accurately ripped
03 [22202f15] (005/1940) Accurately ripped
04 [40bff365] (005/1941) Accurately ripped
05 [09c0c861] (005/1927) Accurately ripped
06 [2918246c] (005/1926) Accurately ripped
07 [6c622d1d] (005/1933) Accurately ripped
08 [8e223bb3] (005/1932) Accurately ripped
09 [8a28aa76] (005/1927) Accurately ripped
10 [cb1149c9] (005/1921) Accurately ripped
11 [8c400a2b] (005/1927) Accurately ripped
12 [1806aff1] (003/1921) Accurately ripped
13 [95c7bcfa] (004/1918) Accurately ripped
14 [65ff60bf] (004/1919) Accurately ripped
15 [21671179] (004/1922) Accurately ripped
16 [36a6494e] (004/1925) Accurately ripped
17 [79b67fcf] (004/1911) Accurately ripped
18 [8990915a] (004/1914) Accurately ripped
Offsetted by 1848:
01 [329a1aaa] (030/1944) Accurately ripped
02 [42de6028] (029/1941) Accurately ripped
03 [681a9cc5] (032/1940) Accurately ripped
04 [9986c6d1] (030/1941) Accurately ripped
05 [9df564b1] (030/1927) Accurately ripped
06 [3e4dd864] (030/1926) Accurately ripped
07 [d282ba51] (031/1933) Accurately ripped
08 [a1b7fcbb] (032/1932) Accurately ripped
09 [01b1772a] (029/1927) Accurately ripped
10 [98bc4edd] (029/1921) Accurately ripped
11 [1a16c0bb] (031/1927) Accurately ripped
12 [831c7bfd] (030/1921) Accurately ripped
13 [15222b3e] (029/1918) Accurately ripped
14 [769f5e0f] (030/1919) Accurately ripped
15 [dc2279c9] (030/1922) Accurately ripped
16 [bb67ef62] (029/1925) Accurately ripped
17 [a01a314b] (029/1911) Accurately ripped
18 [75a01a36] (027/1914) Accurately ripped
Offsetted by 1934:
01 [1a40b3f8] (002/1944) Accurately ripped
02 [5a6726a2] (002/1941) Accurately ripped
03 [61cf746d] (002/1940) Accurately ripped
04 [974420bb] (002/1941) Accurately ripped
05 [ce713809] (002/1927) Accurately ripped
06 [4cb4c4a8] (002/1926) Accurately ripped
07 [700eb317] (002/1933) Accurately ripped
08 [c2bbedf7] (002/1932) Accurately ripped
09 [507db430] (002/1927) Accurately ripped
10 [404ee4b3] (002/1921) Accurately ripped
11 [2f3204f3] (002/1927) Accurately ripped
12 [9c609c97] (002/1921) Accurately ripped
13 [b8c09efc] (002/1918) Accurately ripped
14 [57b5b8e7] (002/1919) Accurately ripped
15 [657b8721] (002/1922) Accurately ripped
16 [29756cb8] (002/1925) Accurately ripped
17 [dec6dfad] (002/1911) Accurately ripped
18 [d31619e8] (002/1914) Accurately ripped
Offsetted by 2359:
01 [518cd935] (005/1944) Accurately ripped
02 [ceb4bff1] (005/1941) Accurately ripped
03 [b0d90f49] (005/1940) Accurately ripped
04 [b5c52d72] (005/1941) Accurately ripped
05 [dbcf31ad] (005/1927) Accurately ripped
06 [4f69f4fe] (005/1926) Accurately ripped
07 [2a426ba8] (005/1933) Accurately ripped
08 [62ea33e1] (005/1932) Accurately ripped
09 [7c98b221] (005/1927) Accurately ripped
10 [52c1109c] (005/1921) Accurately ripped
11 [b544ac67] (005/1927) Accurately ripped
12 [bfefcc96] (005/1921) Accurately ripped
13 [8b024621] (005/1918) Accurately ripped
14 [b8fd7fcb] (005/1919) Accurately ripped
15 [e589efc5] (005/1922) Accurately ripped
16 [ae8875e1] (005/1925) Accurately ripped
17 [0e8d5b38] (004/1911) Accurately ripped
18 [eb60362b] (005/1914) Accurately ripped
Offsetted by 2406:
01 [6af0d3b0] (038/1944) Accurately ripped
02 [db915c0a] (038/1941) Accurately ripped
03 [6ee5910d] (038/1940) Accurately ripped
04 [c66537e3] (038/1941) Accurately ripped
05 [de7e0769] (038/1927) Accurately ripped
06 [a7a828b8] (038/1926) Accurately ripped
07 [a70eeaaf] (038/1933) Accurately ripped
08 [2a8a1fe7] (038/1932) Accurately ripped
09 [ef1a2cc8] (038/1927) Accurately ripped
10 [9c795c8b] (038/1921) Accurately ripped
11 [a8fd3fd3] (038/1927) Accurately ripped
12 [152fd27f] (038/1921) Accurately ripped
13 [7649fc74] (038/1918) Accurately ripped
14 [13424647] (038/1919) Accurately ripped
15 [6928be81] (038/1922) Accurately ripped
16 [cce92290] (038/1925) Accurately ripped
17 [9bf7a2b5] (038/1911) Accurately ripped
18 [62eb1e30] (037/1914) Accurately ripped
Offsetted by 2474:
01 [698c5ec4] (002/1944) Accurately ripped
02 [ee2d22a6] (002/1941) Accurately ripped
03 [c33905fd] (002/1940) Accurately ripped
04 [f43c6d1f] (002/1941) Accurately ripped
05 [6ffdb479] (002/1927) Accurately ripped
06 [895ebfd0] (002/1926) Accurately ripped
07 [357d9793] (002/1933) Accurately ripped
08 [d38749cf] (002/1932) Accurately ripped
09 [ebeb4b2c] (002/1927) Accurately ripped
10 [f1586dcf] (002/1921) Accurately ripped
11 [24d74623] (002/1927) Accurately ripped
12 [e7ad21db] (002/1921) Accurately ripped
13 [274a4028] (002/1918) Accurately ripped
14 [18957057] (002/1919) Accurately ripped
15 [173f8791] (002/1922) Accurately ripped
16 [29e1f0d4] (002/1925) Accurately ripped
17 [eb4a97c1] (002/1911) Accurately ripped
18 [b8b9891c] (002/1914) Accurately ripped
Offsetted by 2492:
01 [52976cfe] (200/1944) Accurately ripped
02 [f31a2284] (200/1941) Accurately ripped
03 [689a68b5] (200/1940) Accurately ripped
04 [c42291cd] (200/1941) Accurately ripped
05 [0ef9dac1] (200/1927) Accurately ripped
06 [b60f14fc] (200/1926) Accurately ripped
07 [449ae375] (200/1933) Accurately ripped
08 [4b8e1123] (200/1932) Accurately ripped
09 [3de669ce] (200/1927) Accurately ripped
10 [440bf261] (200/1921) Accurately ripped
11 [be18840b] (200/1927) Accurately ripped
12 [2e73f319] (200/1921) Accurately ripped
13 [19e87032] (200/1918) Accurately ripped
14 [f458a11f] (200/1919) Accurately ripped
15 [f281cbd9] (200/1922) Accurately ripped
16 [3af69fe6] (200/1925) Accurately ripped
17 [daa45117] (200/1911) Accurately ripped
18 [c0611de2] (200/1914) Accurately ripped
Offsetted by 2512:
01 [8e6ad222] (200/1944) Accurately ripped
02 [f8933ed0] (200/1941) Accurately ripped
03 [ae94d665] (200/1940) Accurately ripped
04 [1ce96539] (200/1941) Accurately ripped
05 [a32e7711] (200/1927) Accurately ripped
06 [cb44c8f4] (200/1926) Accurately ripped
07 [aabb70a9] (200/1933) Accurately ripped
08 [5f23d22b] (200/1932) Accurately ripped
09 [b56f3682] (200/1927) Accurately ripped
10 [11b6f775] (200/1921) Accurately ripped
11 [4bef3a9b] (200/1927) Accurately ripped
12 [9989bf25] (200/1921) Accurately ripped
13 [9942de76] (200/1918) Accurately ripped
14 [04f89e6f] (200/1919) Accurately ripped
15 [ad3d3429] (200/1922) Accurately ripped
16 [bfb845fa] (200/1925) Accurately ripped
17 [01080293] (200/1911) Accurately ripped
18 [ac70a6be] (200/1914) Accurately ripped
Offsetted by 2529:
01 [ce11b4e7] (002/1944) Accurately ripped
02 [fd3a3077] (002/1941) Accurately ripped
03 [03a9b3a1] (002/1940) Accurately ripped
04 [285f3288] (002/1941) Accurately ripped
05 [478e6255] (002/1927) Accurately ripped
06 [83b26eba] (002/1926) Accurately ripped
07 [0e571be2] (002/1933) Accurately ripped
08 [09631ca5] (002/1932) Accurately ripped
09 [f4a37e1b] (002/1927) Accurately ripped
10 [26eebbc6] (002/1921) Accurately ripped
11 [eae5bc2f] (002/1927) Accurately ripped
12 [ce2912fc] (002/1921) Accurately ripped
13 [4582ef63] (002/1918) Accurately ripped
14 [464d68f3] (002/1919) Accurately ripped
15 [18c2e66d] (002/1922) Accurately ripped
16 [16f6798b] (002/1925) Accurately ripped
17 [54dcbfd6] (002/1911) Accurately ripped
18 [c1e44179] (002/1914) Accurately ripped
Offsetted by 2619:
01 [5b48fc09] (148/1944) Accurately ripped
02 [15db2fcd] (146/1941) Accurately ripped
03 [3e90a139] (145/1940) Accurately ripped
04 [37dde9ee] (147/1941) Accurately ripped
05 [627b21bd] (144/1927) Accurately ripped
06 [63241896] (144/1926) Accurately ripped
07 [59e9974c] (146/1933) Accurately ripped
08 [61850149] (145/1932) Accurately ripped
09 [8e8b1745] (145/1927) Accurately ripped
10 [c47052a0] (145/1921) Accurately ripped
11 [e92bf1b7] (143/1927) Accurately ripped
12 [300b2932] (142/1921) Accurately ripped
13 [0299df95] (142/1918) Accurately ripped
14 [911d5cdb] (142/1919) Accurately ripped
15 [610e3bd5] (144/1922) Accurately ripped
16 [6c5de4e5] (143/1925) Accurately ripped
17 [019d5e84] (141/1911) Accurately ripped
18 [e82a2957] (138/1914) Accurately ripped
Offsetted by -1275:
01 [c19bf65b] (000/1944) No match (V2 was not tested)
02 [ec3ef733] (000/1941) No match (V2 was not tested)
03 [d29a3511] (000/1940) No match (V2 was not tested)
04 [330ceae4] (000/1941) No match (V2 was not tested)
05 [5e1172e5] (000/1927) No match (V2 was not tested)
06 [f4cc1f12] (000/1926) No match (V2 was not tested)
07 [9427cca6] (000/1933) No match (V2 was not tested)
08 [491fe54d] (000/1932) No match (V2 was not tested)
09 [f200345f] (000/1927) No match (V2 was not tested)
10 [8c11f5ea] (000/1921) No match (V2 was not tested)
11 [bc5f4bff] (000/1927) No match (V2 was not tested)
12 [0b5dac78] (000/1921) No match (V2 was not tested)
13 [a6ec9c77] (000/1918) No match (V2 was not tested)
14 [85d5ce83] (000/1919) No match (V2 was not tested)
15 [c2b932fd] (000/1922) No match (V2 was not tested)
16 [a7e348af] (000/1925) No match (V2 was not tested)
17 [68cb1582] (000/1911) No match (V2 was not tested)
18 [31ded5f4] (000/1914) No match (V2 was not tested)
Offsetted by -681:
01 [cc08cbd5] (000/1944) No match (V2 was not tested)
02 [8ecbf2d1] (000/1941) No match (V2 was not tested)
03 [2427eec9] (000/1940) No match (V2 was not tested)
04 [ffb7a552] (000/1941) No match (V2 was not tested)
05 [dc92622d] (000/1927) No match (V2 was not tested)
06 [b78719be] (000/1926) No match (V2 was not tested)
07 [86ee94c8] (000/1933) No match (V2 was not tested)
08 [c1ff9721] (000/1932) No match (V2 was not tested)
09 [835f2741] (000/1927) No match (V2 was not tested)
10 [35360cbc] (000/1921) No match (V2 was not tested)
11 [7dc846e7] (000/1927) No match (V2 was not tested)
12 [2afea576] (000/1921) No match (V2 was not tested)
13 [ed50cdc1] (000/1918) No match (V2 was not tested)
14 [d9ff184b] (000/1919) No match (V2 was not tested)
15 [06440045] (000/1922) No match (V2 was not tested)
16 [db8dda01] (000/1925) No match (V2 was not tested)
17 [435bf998] (000/1911) No match (V2 was not tested)
18 [c226f38b] (000/1914) No match (V2 was not tested)
Offsetted by -659:
01 [5aa487e3] (000/1944) No match
02 [94d12b8b] (000/1941) No match (V2 was not tested)
03 [0abb6771] (000/1940) No match (V2 was not tested)
04 [e15f277c] (002/1941) Accurately ripped
05 [65ff7485] (002/1927) Accurately ripped
06 [b5422c82] (000/1926) No match (V2 was not tested)
07 [4412634e] (002/1933) Accurately ripped
08 [712451dd] (002/1932) Accurately ripped
09 [2075a207] (002/1927) Accurately ripped
10 [7dd89252] (002/1921) Accurately ripped
11 [0034761f] (002/1927) Accurately ripped
12 [ba636c50] (002/1921) Accurately ripped
13 [f9677a3f] (002/1918) Accurately ripped
14 [1f7be223] (002/1919) Accurately ripped
15 [a0788c9d] (002/1922) Accurately ripped
16 [d3fc7717] (002/1925) Accurately ripped
17 [a0c9a33a] (002/1911) Accurately ripped
18 [929e707d] (002/1914) Accurately ripped
Offsetted by -646:
01 [f4babcd4] (002/1944) Accurately ripped
02 [985fe456] (002/1941) Accurately ripped
03 [1e9e2ebd] (002/1940) Accurately ripped
04 [db13974f] (002/1941) Accurately ripped
05 [1fee73b9] (002/1927) Accurately ripped
06 [9ca514b0] (002/1926) Accurately ripped
07 [f9a78be3] (002/1933) Accurately ripped
08 [e445a8ef] (002/1932) Accurately ripped
09 [148e8d7c] (002/1927) Accurately ripped
10 [9d21559f] (000/1921) No match (V2 was not tested)
11 [b6000663] (002/1927) Accurately ripped
12 [a664ca8b] (002/1921) Accurately ripped
13 [8c2f0eb8] (002/1918) Accurately ripped
14 [f7171397] (002/1919) Accurately ripped
15 [4d0bf6d1] (000/1922) No match (V2 was not tested)
16 [43e0bca4] (002/1925) Accurately ripped
17 [868a7031] (002/1911) Accurately ripped
18 [df42230c] (000/1914) No match (V2 was not tested)
Offsetted by 6:
01 [5fd96ad0] (000/1944) No match
02 [4acc186a] (000/1941) No match
03 [a182268d] (000/1940) No match
04 [29321d43] (000/1941) No match
05 [65d4c1e9] (000/1927) No match
06 [b67bcc78] (000/1926) No match
07 [c7ccba4f] (000/1933) No match
08 [fc57a427] (000/1932) No match
09 [e6fa3868] (000/1927) No match
10 [344efb2b] (000/1921) No match (V2 was not tested)
11 [2c57ac53] (000/1927) No match (V2 was not tested)
12 [e2f82cdf] (000/1921) No match (V2 was not tested)
13 [c3e64c94] (000/1918) No match
14 [484388c7] (000/1919) No match
15 [e14fd901] (000/1922) No match
16 [92234930] (000/1925) No match (V2 was not tested)
17 [9d3c7095] (002/1911) Accurately ripped
18 [bba2f710] (000/1914) No match
Offsetted by 305:
01 [37d82c77] (000/1944) No match (V2 was not tested)
02 [9c9eb2a7] (000/1941) No match (V2 was not tested)
03 [6ae20e61] (000/1940) No match (V2 was not tested)
04 [98682938] (000/1941) No match (V2 was not tested)
05 [1a4daf95] (000/1927) No match (V2 was not tested)
06 [805ea89a] (000/1926) No match (V2 was not tested)
07 [18335fb2] (000/1933) No match (V2 was not tested)
08 [545676c5] (000/1932) No match (V2 was not tested)
09 [d5375feb] (000/1927) No match (V2 was not tested)
10 [03d88716] (000/1921) No match (V2 was not tested)
11 [81a1a26f] (000/1927) No match (V2 was not tested)
12 [1717a42c] (000/1921) No match (V2 was not tested)
13 [f3d4a373] (000/1918) No match (V2 was not tested)
14 [a734fa33] (000/1919) No match (V2 was not tested)
15 [628e63ad] (000/1922) No match (V2 was not tested)
16 [9fa588db] (000/1925) No match (V2 was not tested)
17 [418edac6] (000/1911) No match (V2 was not tested)
18 [9e5801e9] (000/1914) No match (V2 was not tested)
Offsetted by 518:
01 [283054d0] (000/1944) No match (V2 was not tested)
02 [d6e8866a] (000/1941) No match (V2 was not tested)
03 [3a8d1e8d] (000/1940) No match (V2 was not tested)
04 [09e0db43] (000/1941) No match (V2 was not tested)
05 [9e4ac9e9] (000/1927) No match (V2 was not tested)
06 [3bda9878] (000/1926) No match (V2 was not tested)
07 [cb0e0c4f] (000/1933) No match (V2 was not tested)
08 [8b515827] (000/1932) No match (V2 was not tested)
09 [74a84a68] (000/1927) No match (V2 was not tested)
10 [2bcf7d2b] (000/1921) No match (V2 was not tested)
11 [c1d05453] (000/1927) No match (V2 was not tested)
12 [31f2fadf] (000/1921) No match (V2 was not tested)
13 [80248694] (000/1918) No match (V2 was not tested)
14 [251010c7] (000/1919) No match (V2 was not tested)
15 [5a73e101] (000/1922) No match (V2 was not tested)
16 [3f1a4b30] (000/1925) No match (V2 was not tested)
17 [a7349695] (000/1911) No match (V2 was not tested)
18 [23970d10] (000/1914) No match (V2 was not tested)
Offsetted by 1258:
01 [cdbdf304] (000/1944) No match
02 [a1699d66] (000/1941) No match
03 [57bef8fd] (000/1940) No match
04 [de9d69df] (000/1941) No match
05 [09e56179] (000/1927) No match
06 [4c9d9b50] (000/1926) No match
07 [8dc274d3] (000/1933) No match
08 [5ff63e4f] (000/1932) No match
09 [bb6de06c] (000/1927) No match
10 [e587390f] (000/1921) No match
11 [41d8b723] (000/1927) No match
12 [ac19789b] (000/1921) No match (V2 was not tested)
13 [e8367668] (000/1918) No match
14 [8c2fad57] (000/1919) No match
15 [5789f491] (000/1922) No match
16 [6f174c14] (000/1925) No match
17 [339d3d81] (000/1911) No match
18 [41d5d4dc] (000/1914) No match
Offsetted by 1788:
01 [7f1feb3e] (000/1944) No match (V2 was not tested)
02 [32730b44] (000/1941) No match (V2 was not tested)
03 [962b53b5] (000/1940) No match (V2 was not tested)
04 [8f324c8d] (000/1941) No match (V2 was not tested)
05 [e1578fc1] (000/1927) No match (V2 was not tested)
06 [feacbc7c] (000/1926) No match (V2 was not tested)
07 [a02112b5] (000/1933) No match (V2 was not tested)
08 [66f6b9a3] (000/1932) No match (V2 was not tested)
09 [9b17110e] (000/1927) No match (V2 was not tested)
10 [2fbb3fa1] (000/1921) No match (V2 was not tested)
11 [70929d0b] (000/1927) No match (V2 was not tested)
12 [41db17d9] (000/1921) No match (V2 was not tested)
13 [9712e072] (000/1918) No match (V2 was not tested)
14 [44bf661f] (000/1919) No match (V2 was not tested)
15 [abf040d9] (000/1922) No match (V2 was not tested)
16 [2d22fd26] (000/1925) No match (V2 was not tested)
17 [2cef1cd7] (000/1911) No match (V2 was not tested)
18 [b1717fa2] (000/1914) No match (V2 was not tested)
Offsetted by 1789:
01 [288416b3] (000/1944) No match (V2 was not tested)
02 [32b9197b] (000/1941) No match (V2 was not tested)
03 [e677d931] (000/1940) No match (V2 was not tested)
04 [53a2a3ec] (000/1941) No match (V2 was not tested)
05 [dbf3cac5] (000/1927) No match (V2 was not tested)
06 [72ef6be2] (000/1926) No match (V2 was not tested)
07 [4ba2b35e] (000/1933) No match (V2 was not tested)
08 [34be367d] (000/1932) No match (V2 was not tested)
09 [addde817] (000/1927) No match (V2 was not tested)
10 [6d36ffe2] (000/1921) No match (V2 was not tested)
11 [6add595f] (000/1927) No match (V2 was not tested)
12 [54029540] (000/1921) No match (V2 was not tested)
13 [dd70ff8f] (000/1918) No match (V2 was not tested)
14 [df2dcc63] (000/1919) No match (V2 was not tested)
15 [1bacd2dd] (000/1922) No match (V2 was not tested)
16 [e6f978a7] (000/1925) No match (V2 was not tested)
17 [c87418ea] (000/1911) No match (V2 was not tested)
18 [a3a579ad] (000/1914) No match (V2 was not tested)
Offsetted by 1795:
01 [20dd1b71] (000/1944) No match (V2 was not tested)
02 [345d6ec5] (000/1941) No match
03 [c842fa19] (000/1940) No match
04 [ee44b026] (000/1941) No match
05 [bb9d2cdd] (000/1927) No match
06 [2c7f8846] (000/1926) No match
07 [50ac7754] (000/1933) No match
08 [076b2399] (000/1932) No match
09 [1e86f24d] (000/1927) No match
10 [de1d8168] (000/1921) No match
11 [489dc357] (000/1927) No match
12 [c0ef85aa] (000/1921) No match
13 [83a5ba3d] (000/1918) No match
14 [7dc431fb] (000/1919) No match
15 [ba183ef5] (000/1922) No match
16 [42005dad] (000/1925) No match
17 [6d92015c] (000/1911) No match
18 [50dd55ef] (000/1914) No match
Offsetted by 1803:
01 [6bfe7719] (000/1944) No match (V2 was not tested)
02 [368de07d] (000/1941) No match (V2 was not tested)
03 [4aa725f9] (000/1940) No match (V2 was not tested)
04 [11c76b1e] (000/1941) No match (V2 was not tested)
05 [907f04fd] (000/1927) No match (V2 was not tested)
06 [ce950376] (000/1926) No match (V2 was not tested)
07 [acb97c9c] (000/1933) No match (V2 was not tested)
08 [75a70a69] (000/1932) No match (V2 was not tested)
09 [b4bdaa95] (000/1927) No match (V2 was not tested)
10 [c9fb8370] (000/1921) No match (V2 was not tested)
11 [1af3a5f7] (000/1927) No match (V2 was not tested)
12 [522b70e2] (000/1921) No match (V2 was not tested)
13 [b696b325] (000/1918) No match (V2 was not tested)
14 [5137641b] (000/1919) No match (V2 was not tested)
15 [37fccf15] (000/1922) No match (V2 was not tested)
16 [10b439b5] (000/1925) No match (V2 was not tested)
17 [49b9e1f4] (000/1911) No match (V2 was not tested)
18 [e27d2647] (000/1914) No match (V2 was not tested)
Offsetted by 1834:
01 [ef1fba44] (000/1944) No match (V2 was not tested)
02 [3f099926] (000/1941) No match (V2 was not tested)
03 [03eb4ffd] (000/1940) No match (V2 was not tested)
04 [db61ff9f] (000/1941) No match (V2 was not tested)
05 [e96a2a79] (000/1927) No match
06 [e2a840d0] (000/1926) No match
07 [716bf113] (000/1933) No match
08 [60cf28cf] (000/1932) No match
09 [fad1b4ac] (000/1927) No match
10 [3bf7cb4f] (000/1921) No match
11 [6a007423] (000/1927) No match
12 [84f3a05b] (000/1921) No match
13 [3bfc77a8] (000/1918) No match
14 [0495c657] (000/1919) No match
15 [bfd27d91] (000/1922) No match
16 [91ad2e54] (000/1925) No match (V2 was not tested)
17 [1ed46841] (000/1911) No match (V2 was not tested)
18 [36c86d9c] (000/1914) No match (V2 was not tested)
Offsetted by 1836:
01 [41e8112e] (002/1944) Accurately ripped
02 [3f95b594] (002/1941) Accurately ripped
03 [a4845af5] (002/1940) Accurately ripped
04 [6442ae5d] (002/1941) Accurately ripped
05 [dea2a081] (002/1927) Accurately ripped
06 [cb2d9f9c] (002/1926) Accurately ripped
07 [c86f3265] (002/1933) Accurately ripped
08 [fc5e2283] (000/1932) No match (V2 was not tested)
09 [205f62be] (002/1927) Accurately ripped
10 [b6ef4bd1] (002/1921) Accurately ripped
11 [5e95eccb] (002/1927) Accurately ripped
12 [a9429b29] (002/1921) Accurately ripped
13 [c8b8b5e2] (000/1918) No match (V2 was not tested)
14 [397292df] (000/1919) No match (V2 was not tested)
15 [9f4ba199] (002/1922) Accurately ripped
16 [055a2556] (002/1925) Accurately ripped
17 [55de6067] (000/1911) No match (V2 was not tested)
18 [1b3061b2] (000/1914) No match (V2 was not tested)
Offsetted by 1853:
01 [818ef3f3] (002/1944) Accurately ripped
02 [443ca73b] (002/1941) Accurately ripped
03 [f9993831] (002/1940) Accurately ripped
04 [6fb87bac] (000/1941) No match
05 [83028bc5] (000/1927) No match
06 [839b4562] (000/1926) No match
07 [2c0add9e] (000/1933) No match
08 [a69d6cfd] (000/1932) No match
09 [5f93aa57] (000/1927) No match
10 [cc271022] (000/1921) No match
11 [fd8c6e5f] (000/1927) No match
12 [dde1ef00] (000/1921) No match
13 [74f8c6cf] (000/1918) No match
14 [7ac75d63] (000/1919) No match
15 [0ad153dd] (000/1922) No match
16 [5c9858e7] (000/1925) No match
17 [a9b31daa] (000/1911) No match
18 [30a3fc6d] (000/1914) No match
Offsetted by 1861:
01 [ccb04f9b] (000/1944) No match (V2 was not tested)
02 [466d18f3] (000/1941) No match (V2 was not tested)
03 [7bfd6411] (000/1940) No match (V2 was not tested)
04 [933b36a4] (000/1941) No match (V2 was not tested)
05 [57e463e5] (000/1927) No match (V2 was not tested)
06 [25b0c092] (000/1926) No match (V2 was not tested)
07 [8817e2e6] (000/1933) No match (V2 was not tested)
08 [14d953cd] (000/1932) No match (V2 was not tested)
09 [f5ca629f] (000/1927) No match (V2 was not tested)
10 [b805122a] (000/1921) No match (V2 was not tested)
11 [cfe250ff] (000/1927) No match (V2 was not tested)
12 [6f1dda38] (000/1921) No match (V2 was not tested)
13 [a7e9bfb7] (000/1918) No match (V2 was not tested)
14 [4e3a8f83] (000/1919) No match (V2 was not tested)
15 [88b5e3fd] (000/1922) No match (V2 was not tested)
16 [2b4c34ef] (000/1925) No match (V2 was not tested)
17 [85dafe42] (000/1911) No match (V2 was not tested)
18 [c243ccc5] (000/1914) No match
Offsetted by 1885:
01 [ae146293] (000/1944) No match (V2 was not tested)
02 [4cfe6e1b] (000/1941) No match (V2 was not tested)
03 [0329e7b1] (000/1940) No match (V2 was not tested)
04 [fdc3678c] (000/1941) No match (V2 was not tested)
05 [d689ec45] (000/1927) No match (V2 was not tested)
06 [0bf13222] (000/1926) No match (V2 was not tested)
07 [9c3ef2be] (000/1933) No match (V2 was not tested)
08 [5f8d083d] (000/1932) No match (V2 was not tested)
09 [b86e8b77] (000/1927) No match (V2 was not tested)
10 [7b9f1842] (000/1921) No match (V2 was not tested)
11 [46e3f8df] (000/1927) No match (V2 was not tested)
12 [22d19be0] (000/1921) No match (V2 was not tested)
13 [40bcaa6f] (000/1918) No match (V2 was not tested)
14 [c89425e3] (000/1919) No match (V2 was not tested)
15 [0263945d] (000/1922) No match (V2 was not tested)
16 [9767c907] (000/1925) No match (V2 was not tested)
17 [1a52a00a] (000/1911) No match (V2 was not tested)
18 [77233dcd] (000/1914) No match (V2 was not tested)
More than 16 offsets match!

Track Peak [ CRC32 ] [W/O NULL] [ LOG ]
– 99,9 [7490CBF3] [2CB61F1C]
01 89,1 [364DCE5B] [81AFEAA4] CRC32
02 99,9 [859B5D29] [354918B9] CRC32
03 99,9 [58A6201A] [B3EA1CA5] CRC32
04 99,9 [0B9F1EE8] [9E386944] CRC32
05 99,9 [F0D9B756] [3588E7A8] CRC32
06 99,9 [336DA06A] [F1799C12] CRC32
07 99,9 [8397FE57] [5156F3BA] CRC32
08 99,9 [23C71EFD] [D8499CEE] CRC32
09 99,9 [F2644404] [967E0867] CRC32
10 99,9 [CE156D41] [0D830F11] CRC32
11 99,9 [A1BCDCF3] [CAC841BB] CRC32
12 99,9 [C83C820F] [1FD7C2E7] CRC32
13 99,9 [7556EC2C] [D08099D1] CRC32
14 99,9 [E1E2C0E1] [68347880] CRC32
15 99,9 [7C2875E8] [93FF4C5B] CRC32
16 82,4 [5334ED5D] [B6C0EA25] CRC32
17 99,9 [E6CAD478] [3F4CE0B6] CRC32
18 99,9 [5C6F86CD] [692BA515] CRC32

Exact Audio Copy V1.3 from 2. September 2016

EAC extraction logfile from 27. June 2018, 1:17

Moby / Play (Bonus CD)

Used drive : PIONEER DVD-RW DVR-215 Adapter: 1 ID: 2

Read mode : Secure
Utilize accurate stream : Yes
Defeat audio cache : Yes
Make use of C2 pointers : No

Read offset correction : 48
Overread into Lead-In and Lead-Out : No
Fill up missing offset samples with silence : Yes
Delete leading and trailing silent blocks : No
Null samples used in CRC calculations : Yes
Used interface : Native Win32 interface for Win NT & 2000
Gap handling : Appended to previous track

Used output format : User Defined Encoder
Selected bitrate : 1024 kBit/s
Quality : High
Add ID3 tag : No
Command line compressor : C:\Program Files (x86)\Exact Audio Copy\FLAC\FLAC.EXE
Additional command line options : -6 -V -T "COMMENT=Ripped by RRC" -T "ARTIST=%artist%" -T "TITLE=%title%" -T "ALBUM=%albumtitle%" -T "DATE=%year%" -T "TRACKNUMBER=%tracknr%" -T "GENRE=%genre%" -T "BAND=%albuminterpret%" -T "ALBUMARTIST=%albuminterpret%" -T "COMPOSER=%composer%" %haslyrics%–tag-from-file=LYRICS="%lyricsfile%"%haslyrics% -T "DISCNUMBER=%cdnumber%" -T "TOTALDISCS=%totalcds%" -T "TOTALTRACKS=%numtracks%" %hascover%–picture="%coverfile%"%hascover% %source%


TOC of the extracted CD

Track | Start | Length | Start sector | End sector
––––––––––––––––––––––––––––-
1 | 0:00.00 | 6:06.08 | 0 | 27457
2 | 6:06.08 | 4:02.65 | 27458 | 45672
3 | 10:08.73 | 4:09.67 | 45673 | 64414
4 | 14:18.65 | 6:41.48 | 64415 | 94537
5 | 21:00.38 | 6:47.55 | 94538 | 125117
6 | 27:48.18 | 4:14.25 | 125118 | 144192


Track 1

Filename E:\RRCLtd Rip\01-The Whispering Wind.wav

Pre-gap length 0:00:02.00

Peak level 92.5 %
Extraction speed 4.7 X
Track quality 100.0 %
Test CRC 181E4DAA
Copy CRC 181E4DAA
Accurately ripped (confidence 5) [514B4BBB] (AR v2)
Copy OK

Track 2

Filename E:\RRCLtd Rip\02-Honey (Rollo & Sister Bliss Blunt Edit).wav

Pre-gap length 0:00:01.12

Peak level 99.7 %
Extraction speed 5.0 X
Track quality 100.0 %
Test CRC 65D806DA
Copy CRC 65D806DA
Accurately ripped (confidence 5) [36038917] (AR v2)
Copy OK

Track 3

Filename E:\RRCLtd Rip\03-Spirit.wav

Pre-gap length 0:00:01.13

Peak level 98.9 %
Extraction speed 5.4 X
Track quality 100.0 %
Test CRC 6E2D5F72
Copy CRC 6E2D5F72
Accurately ripped (confidence 5) [6919FE96] (AR v2)
Copy OK

Track 4

Filename E:\RRCLtd Rip\04-Why Does My Heart Feel So Bad (Ferry Corsten Remix).wav

Pre-gap length 0:00:01.12

Peak level 98.8 %
Extraction speed 6.2 X
Track quality 100.0 %
Test CRC 7795F7F7
Copy CRC 7795F7F7
Accurately ripped (confidence 5) [0CB6552B] (AR v2)
Copy OK

Track 5

Filename E:\RRCLtd Rip\05-Sunspot.wav

Pre-gap length 0:00:01.13

Peak level 94.2 %
Extraction speed 6.8 X
Track quality 100.0 %
Test CRC 39FBBE15
Copy CRC 39FBBE15
Accurately ripped (confidence 5) [BCABD152] (AR v2)
Copy OK

Track 6

Filename E:\RRCLtd Rip\06-Natural Blues (Mike D Remix).wav

Pre-gap length 0:00:01.13

Peak level 88.3 %
Extraction speed 6.0 X
Track quality 99.9 %
Test CRC F296C044
Copy CRC F296C044
Accurately ripped (confidence 5) [CE2392BB] (AR v2)
Copy OK


All tracks accurately ripped

No errors occurred

End of status report

–– CUETools DB Plugin V2.1.6

[CTDB TOCID: 9VE3Uko89cP6YGSYzuYRzKgs9_I-] found
Submit result: 9VE3Uko89cP6YGSYzuYRzKgs9_I- has been confirmed
Track | CTDB Status
1 | (19/19) Accurately ripped
2 | (19/19) Accurately ripped
3 | (19/19) Accurately ripped
4 | (19/19) Accurately ripped
5 | (19/19) Accurately ripped
6 | (19/19) Accurately ripped


==== Log checksum 0CAD9A7132E9D46FE4E49232F04415C58E0F803919248C6324AA9B040F961456 ====

[CUETools log; Date: 15.04.2021 0:26:28; Version: 2.1.4]
[CTDB TOCID: 9VE3Uko89cP6YGSYzuYRzKgs9_I-] found.
Track | CTDB Status
1 | (29/29) Accurately ripped
2 | (29/29) Accurately ripped
3 | (29/29) Accurately ripped
4 | (29/29) Accurately ripped
5 | (27/29) Accurately ripped
6 | (29/29) Accurately ripped
[AccurateRip ID: 0007a693-0028ede9-41078206] found.
Track [ CRC | V2 ] Status
01 [113bb204|514b4bbb] (08+07/15) Accurately ripped
02 [db312696|36038917] (08+07/15) Accurately ripped
03 [65e2ab61|6919fe96] (08+07/15) Accurately ripped
04 [976339c1|0cb6552b] (07+06/13) Accurately ripped
05 [0433ed50|bcabd152] (09+07/16) Accurately ripped
06 [2735c4df|ce2392bb] (09+07/16) Accurately ripped

Track Peak [ CRC32 ] [W/O NULL] [ LOG ]
– 99,7 [A1329D5D] [676A7292]
01 92,5 [181E4DAA] [3AD52AAC] CRC32
02 99,7 [65D806DA] [544EBC5C] CRC32
03 98,9 [6E2D5F72] [09341606] CRC32
04 98,8 [7795F7F7] [16EABBB9] CRC32
05 94,2 [39FBBE15] [D5B55B61] CRC32
06 88,3 [F296C044] [A54DFDBD] CRC32

Thanks to RRC

See also: