Tags
Language
Tags

Moby & The Void Pacific Choir - These Systems Are Failing (2016) [Japanese Edition]

Posted By: gribovar
Moby & The Void Pacific Choir - These Systems Are Failing (2016) [Japanese Edition]

Moby & The Void Pacific Choir - These Systems Are Failing (2016) [Japanese Edition]
EAC Rip | FLAC (tracks+.cue+log) - 380 MB | MP3 CBR 320 kbps (LAME 3.93) - 115 MB | Covers - 87 MB
Genre: New Wave, Post-Punk, Electronic | RAR 3% Rec. | Label: Beat Records (BRC-533)

Co-credited to the Void Pacific Choir - a name derived from a D.H. Lawrence quote - These Systems Are Failing is only slightly more collaborative than Moby's solitary ambient work, and its effect is the opposite of that. Fully energized and tightly concentrated, the producer's first studio album in three years is a concise and infrequently relenting set of songs that rail against those who have caused emotional and planetary harm. Moby revisits his punk and post-punk roots with a needling attack. Battering programmed drums, searing synthesizers, and torrents of rhythm guitar serve as prodding backdrops for his belting, often multi-tracked vocals. (The actual choir, a seven-member group including Moby, appears on two songs.) All the chanted choruses and seething verses over riotous rhythms evoke an apocalyptic glam-punk protest of sorts, with Moby indignant about "Selling off heaven for a perfect hell," dejectedly reciting "Burn a courtyard, say it's done/Throwing knives at a dying sun," and referencing other ills in bleak terms. A couple shafts of light break through. The one that lasts longest is somewhere in "A Simple Love," which projects a little hope before the despair resumes. In an accompanying essay, Moby says he views the album's title as a phrase that prompts thought. Any deep thinking will likely have to occur once these brickbats are muted.
Tracklist:
01. Hey! Hey!
02. Break.Doubt
03. I Wait For You
04. Don't Leave Me
05. Erupt & Matter
06. Are You Lost In The World Like Me?
07. A Simple Love
08. The Light Is Clear In My Eyes
09. And It Hurts
10. Almost Loved
11. The Nighttime
12. Dark Star

Total time: 48:54

Exact Audio Copy V1.1 from 23. June 2015

EAC extraction logfile from 3. November 2016, 19:43

Moby & The Voice Pacific Choir / These Systems Are Failing

Used drive : PLEXTOR DVDR PX-891SAW Adapter: 1 ID: 0

Read mode : Secure
Utilize accurate stream : Yes
Defeat audio cache : Yes
Make use of C2 pointers : No

Read offset correction : 48
Overread into Lead-In and Lead-Out : No
Fill up missing offset samples with silence : Yes
Delete leading and trailing silent blocks : No
Null samples used in CRC calculations : Yes
Used interface : Native Win32 interface for Win NT & 2000
Gap handling : Appended to previous track

Used output format : User Defined Encoder
Selected bitrate : 1024 kBit/s
Quality : High
Add ID3 tag : No
Command line compressor : C:\Program Files (x86)\Exact Audio Copy\Flac\flac.exe
Additional command line options : -8 -V -T "ARTIST=%artist%" -T "TITLE=%title%" -T "ALBUM=%albumtitle%" -T "DATE=%year%" -T "TRACKNUMBER=%tracknr%" -T "GENRE=%genre%" -T "PERFORMER=%albuminterpret%" -T "COMPOSER=%composer%" %haslyrics%–tag-from-file=LYRICS="%lyricsfile%"%haslyrics% -T "ALBUMARTIST=%albumartist%" -T "DISCNUMBER=%cdnumber%" -T "TOTALDISCS=%totalcds%" -T "TOTALTRACKS=%numtracks%" -T "COMMENT=%comment%" %source% -o %dest%


TOC of the extracted CD

Track | Start | Length | Start sector | End sector
––––––––––––––––––––––––––––-
1 | 0:00.00 | 4:23.20 | 0 | 19744
2 | 4:23.20 | 4:12.45 | 19745 | 38689
3 | 8:35.65 | 3:59.67 | 38690 | 56681
4 | 12:35.57 | 4:38.64 | 56682 | 77595
5 | 17:14.46 | 4:09.22 | 77596 | 96292
6 | 21:23.68 | 4:26.69 | 96293 | 116311
7 | 25:50.62 | 4:39.34 | 116312 | 137270
8 | 30:30.21 | 3:27.12 | 137271 | 152807
9 | 33:57.33 | 1:53.49 | 152808 | 161331
10 | 35:51.07 | 5:05.44 | 161332 | 184250
11 | 40:56.51 | 4:10.52 | 184251 | 203052
12 | 45:07.28 | 3:47.24 | 203053 | 220101


Track 1

Filename C:\Rips\01 - Hey! Hey!.wav

Pre-gap length 0:00:02.00

Peak level 100.0 %
Extraction speed 3.2 X
Track quality 99.9 %
Test CRC 7E7B60CC
Copy CRC 7E7B60CC
Track not present in AccurateRip database
Copy OK

Track 2

Filename C:\Rips\02 - Break.Doubt.wav

Peak level 100.0 %
Extraction speed 5.1 X
Track quality 100.0 %
Test CRC C9964E10
Copy CRC C9964E10
Track not present in AccurateRip database
Copy OK

Track 3

Filename C:\Rips\03 - I Wait For You.wav

Peak level 100.0 %
Extraction speed 5.5 X
Track quality 100.0 %
Test CRC 4E591608
Copy CRC 4E591608
Track not present in AccurateRip database
Copy OK

Track 4

Filename C:\Rips\04 - Don't Leave Me.wav

Peak level 100.0 %
Extraction speed 4.4 X
Track quality 99.9 %
Test CRC D2EB41A3
Copy CRC D2EB41A3
Track not present in AccurateRip database
Copy OK

Track 5

Filename C:\Rips\05 - Erupt & Matter.wav

Peak level 100.0 %
Extraction speed 4.5 X
Track quality 99.9 %
Test CRC FE27B557
Copy CRC FE27B557
Track not present in AccurateRip database
Copy OK

Track 6

Filename C:\Rips\06 - Are You Lost In The World Like Me.wav

Peak level 100.0 %
Extraction speed 4.8 X
Track quality 99.9 %
Test CRC 7AE49AB1
Copy CRC 7AE49AB1
Track not present in AccurateRip database
Copy OK

Track 7

Filename C:\Rips\07 - A Simple Love.wav

Peak level 100.0 %
Extraction speed 7.2 X
Track quality 100.0 %
Test CRC D9E87411
Copy CRC D9E87411
Track not present in AccurateRip database
Copy OK

Track 8

Filename C:\Rips\08 - The Light Is Clear In My Eyes.wav

Peak level 100.0 %
Extraction speed 4.8 X
Track quality 99.9 %
Test CRC BFFB9E3D
Copy CRC BFFB9E3D
Track not present in AccurateRip database
Copy OK

Track 9

Filename C:\Rips\09 - And It Hurts.wav

Peak level 100.0 %
Extraction speed 6.5 X
Track quality 100.0 %
Test CRC 78E879B1
Copy CRC 78E879B1
Track not present in AccurateRip database
Copy OK

Track 10

Filename C:\Rips\10 - Almost Loved.wav

Peak level 100.0 %
Extraction speed 8.0 X
Track quality 100.0 %
Test CRC 9570B4CA
Copy CRC 9570B4CA
Track not present in AccurateRip database
Copy OK

Track 11

Filename C:\Rips\11 - The Nighttime.wav

Peak level 100.0 %
Extraction speed 8.0 X
Track quality 100.0 %
Test CRC 12D98198
Copy CRC 12D98198
Track not present in AccurateRip database
Copy OK

Track 12

Filename C:\Rips\12 - Dark Star.wav

Peak level 100.0 %
Extraction speed 8.2 X
Track quality 100.0 %
Test CRC E29FA73C
Copy CRC E29FA73C
Track not present in AccurateRip database
Copy OK


None of the tracks are present in the AccurateRip database

No errors occurred

End of status report

–– CUETools DB Plugin V2.1.6

[CTDB TOCID: E42KxMAKYcF257adhmqluzGgy6U-] found
Submit result: E42KxMAKYcF257adhmqluzGgy6U- has been confirmed
Track | CTDB Status
1 | (13/13) Accurately ripped
2 | (13/13) Accurately ripped
3 | (13/13) Accurately ripped
4 | (13/13) Accurately ripped
5 | (13/13) Accurately ripped
6 | (13/13) Accurately ripped
7 | (13/13) Accurately ripped
8 | (13/13) Accurately ripped
9 | (13/13) Accurately ripped
10 | (13/13) Accurately ripped
11 | ( 1/13) Accurately ripped
12 | ( 1/13) Accurately ripped


==== Log checksum 899A15B6CC18DA84671D99F87987D81452E21EFBA11664DAE6C4868055CB4B98 ====

[CUETools log; Date: 13.01.2020 1:24:40; Version: 2.1.4]
[CTDB TOCID: E42KxMAKYcF257adhmqluzGgy6U-] found.
Track | CTDB Status
1 | (124/125) Accurately ripped
2 | (124/125) Accurately ripped
3 | (124/125) Accurately ripped
4 | (124/125) Accurately ripped
5 | (125/125) Accurately ripped
6 | (125/125) Accurately ripped
7 | (125/125) Accurately ripped
8 | (125/125) Accurately ripped
9 | (125/125) Accurately ripped
10 | (125/125) Accurately ripped
11 | ( 4/125) Accurately ripped
12 | ( 4/125) Accurately ripped
[AccurateRip ID: 00165747-00cf1e3e-a20b760c] found.
Track [ CRC | V2 ] Status
01 [e77da094|5b5202c8] (00+02/42) Accurately ripped
02 [e0382335|a1320daa] (00+02/42) Accurately ripped
03 [7f657fd2|6fe6d4e1] (00+02/42) Accurately ripped
04 [5b088999|fd0dead2] (00+02/42) Accurately ripped
05 [76a14704|89879e12] (00+02/42) Accurately ripped
06 [97591cc7|8710a829] (00+02/42) Accurately ripped
07 [b0e37a1f|56a5c1fc] (00+02/42) Accurately ripped
08 [02fb8ff6|454de100] (00+02/42) Accurately ripped
09 [3b082f85|be2b5bc5] (00+02/42) Accurately ripped
10 [c50027b5|c36c0554] (00+02/43) Accurately ripped
11 [05ddf1b4|ef3f18f4] (00+02/43) Accurately ripped
12 [f715145c|f501ee9e] (00+02/43) Accurately ripped
Offsetted by 19:
01 [930528f8] (00/42) No match (V2 was not tested)
02 [373f513e] (00/42) No match (V2 was not tested)
03 [bb20e3b7] (00/42) No match (V2 was not tested)
04 [f2dc6ba3] (00/42) No match (V2 was not tested)
05 [bc17d556] (00/42) No match (V2 was not tested)
06 [b88b6d6c] (00/42) No match (V2 was not tested)
07 [ef4a8c13] (00/42) No match (V2 was not tested)
08 [8c681ecb] (00/42) No match (V2 was not tested)
09 [2c203f82] (00/42) No match (V2 was not tested)
10 [c862d11e] (00/43) No match (V2 was not tested)
11 [2b5a07f9] (00/43) No match (V2 was not tested)
12 [4e3297a2] (00/43) No match
Offsetted by 25:
01 [10c2f5be] (00/42) No match (V2 was not tested)
02 [60733703] (00/42) No match (V2 was not tested)
03 [e8f046a1] (00/42) No match (V2 was not tested)
04 [2f726d39] (00/42) No match (V2 was not tested)
05 [5ef98228] (00/42) No match (V2 was not tested)
06 [62b42115] (00/42) No match (V2 was not tested)
07 [d0219e9c] (00/42) No match (V2 was not tested)
08 [c5797169] (00/42) No match (V2 was not tested)
09 [0ff9825a] (00/42) No match (V2 was not tested)
10 [54115061] (00/43) No match (V2 was not tested)
11 [6b54ed72] (00/43) No match (V2 was not tested)
12 [24514475] (00/43) No match

Track Peak [ CRC32 ] [W/O NULL] [ LOG ]
– 100,0 [EFBFE21B] [B6CC49A1]
01 100,0 [7E7B60CC] [9B7D5BFC] CRC32
02 100,0 [C9964E10] [8D44E27B] CRC32
03 100,0 [4E591608] [F0872CB2] CRC32
04 100,0 [D2EB41A3] [58165DF3] CRC32
05 100,0 [FE27B557] [88038390] CRC32
06 100,0 [7AE49AB1] [20BC9186] CRC32
07 100,0 [D9E87411] [9AF60C37] CRC32
08 100,0 [BFFB9E3D] [E7655D24] CRC32
09 100,0 [78E879B1] [A628B210] CRC32
10 100,0 [9570B4CA] [3A79CB1F] CRC32
11 100,0 [12D98198] [E0642EB5] CRC32
12 100,0 [E29FA73C] [32638182] CRC32

Thanks to the original releaser

See also:
Moby - 18 B Sides [CD+DVD] (2003)
Moby - Hotel (2005) [2CD Japanese Edition]
Moby - Go: The Very Best Of Moby (2006) [Japanese Edition]
Moby - Last Night (2008) [Japanese Edition]
Moby - Wait For Me (2009) [2CD Deluxe Edition]