Tags
Language
Tags

Moby - Wait For Me (2009) [2CD Deluxe Edition]

Posted By: gribovar
Moby - Wait For Me (2009) [2CD Deluxe Edition]

Moby - Wait For Me (2009) [2CD Deluxe Edition]
EAC Rip | FLAC (image+.cue+log) - 665 MB | MP3 CBR 320 kbps (LAME 3.93) - 298 MB | Covers - 96 MB
Genre: Electronic, House, Pop, Ambient | RAR 3% Rec. | Label: Little Idiot (idiot001x)

Moby's most unified and understated album, and all the better for it, Wait for Me is a morose set of elegantly bleary material, quite a shift from the hedonistic club tracks of Last Night. Dominated by instrumentals, "Shot in the Back of the Head" is the most evocative of the bunch, seemingly pulled from an unreleased David Lynch film scored by the Afghan Whigs circa Gentlemen - a lament from a dustbowl, full of mournful slide guitar and dewy electric piano. Other than "Mistake" - a glum neo-post-punk rave-up that, despite its cathartic release, remains downcast - Moby leaves the vocals to a series of women (neighborhood chums, apparently) who each contribute to one song. The smoky 3-a.m. gospel whispers from throwback soul singer Leela James on "Walk with Me" steal the show.
CD 1 Tracklist:
01. Division
02. Pale Horses
03. Shot In The Back Of The Head
04. Study War
05. Walk With Me
06. Stock Radio
07. Mistake
08. Scream Pilots
09. Jltf 1
10. Jltf
11. A Seated Night
12. Wait For Me
13. Hope Is Gone
14. Ghost Return
15. Slow Light
16. Isolate
17. One Time We Lived (Bonus Track)
18. Stay Down (Bonus Track)

Total time:

CD 2 Tracklist (Ambient):
01. A Seated Night
02. Study War
03. Pale Horses
04. Stay Down
05. Hope Is Gone
06. Wait For Me
07. Division
08. Mistake
09. Walk With Me
10. Isolate
11. Shot In The Back Of The Head
12. Slow Light 1
13. Ghost Return
14. Scream Pilots
15. Jltf3
16. Slow Light 2

Total time:

Exact Audio Copy V0.99 prebeta 5 from 4. May 2009

EAC extraction logfile from 4. January 2010, 0:22

Moby / Wait For Me: Deluxe Edition [Box set] Disc 1

Used drive : PIONEER DVD-RW DVR-118L Adapter: 2 ID: 0

Read mode : Secure
Utilize accurate stream : Yes
Defeat audio cache : Yes
Make use of C2 pointers : No

Read offset correction : 6
Overread into Lead-In and Lead-Out : No
Fill up missing offset samples with silence : Yes
Delete leading and trailing silent blocks : No
Null samples used in CRC calculations : Yes
Used interface : Installed external ASPI interface

Used output format : User Defined Encoder
Selected bitrate : 1024 kBit/s
Quality : High
Add ID3 tag : No
Command line compressor : C:\Program Files (x86)\Exact Audio Copy\Flac\flac.exe
Additional command line options : -5 -V -T "ARTIST=%a" -T "TITLE=%t" -T "ALBUM=%g" -T "DATE=%y" -T "TRACKNUMBER=%n" -T "GENRE=%m" -T "COMMENT=EAC FLAC -5" %s


TOC of the extracted CD

Track | Start | Length | Start sector | End sector
––––––––––––––––––––––––––––-
1 | 0:00.00 | 1:56.61 | 0 | 8760
2 | 1:56.61 | 3:37.06 | 8761 | 25041
3 | 5:33.67 | 3:15.41 | 25042 | 39707
4 | 8:49.33 | 4:18.20 | 39708 | 59077
5 | 13:07.53 | 4:01.29 | 59078 | 77181
6 | 17:09.07 | 0:55.24 | 77182 | 81330
7 | 18:04.31 | 3:47.17 | 81331 | 98372
8 | 21:51.48 | 2:48.41 | 98373 | 111013
9 | 24:40.14 | 1:27.01 | 111014 | 117539
10 | 26:07.15 | 4:40.15 | 117540 | 138554
11 | 30:47.30 | 3:23.39 | 138555 | 153818
12 | 34:10.69 | 4:13.41 | 153819 | 172834
13 | 38:24.35 | 3:31.17 | 172835 | 188676
14 | 41:55.52 | 2:38.36 | 188677 | 200562
15 | 44:34.13 | 4:00.49 | 200563 | 218611
16 | 48:34.62 | 3:31.26 | 218612 | 234462
17 | 52:06.13 | 4:19.26 | 234463 | 253913
18 | 56:25.39 | 7:02.19 | 253914 | 285582


Range status and errors

Selected range

Filename F:\Moby - 2009 - Wait For Me (Deluxe)\CD1\Moby - Wait For Me Deluxe Edition [Box set] Disc 1.wav

Peak level 99.5 %
Range quality 99.9 %
Test CRC BD72B1EA
Copy CRC BD72B1EA
Copy OK

No errors occurred


AccurateRip summary

Track 1 accurately ripped (confidence 3) [911A3605]
Track 2 accurately ripped (confidence 3) [D4AD89C1]
Track 3 accurately ripped (confidence 3) [45DE7D35]
Track 4 accurately ripped (confidence 3) [9F5E3B37]
Track 5 accurately ripped (confidence 3) [ACBDA9BA]
Track 6 accurately ripped (confidence 3) [D2BABB8D]
Track 7 accurately ripped (confidence 3) [446D8D30]
Track 8 accurately ripped (confidence 3) [8BD32962]
Track 9 accurately ripped (confidence 3) [B693DDDE]
Track 10 accurately ripped (confidence 3) [85F212E5]
Track 11 accurately ripped (confidence 3) [325CCBEA]
Track 12 accurately ripped (confidence 3) [DA4E7640]
Track 13 accurately ripped (confidence 3) [4C9C9E60]
Track 14 accurately ripped (confidence 3) [DD6D968F]
Track 15 accurately ripped (confidence 3) [385F1253]
Track 16 accurately ripped (confidence 3) [E20B6579]
Track 17 accurately ripped (confidence 4) [EDFD663D]
Track 18 accurately ripped (confidence 5) [25111E1E]

All tracks accurately ripped

End of status report

[CUETools log; Date: 13.12.2018 13:02:42; Version: 2.1.4]
[CTDB TOCID: j_duZzoWcoY7vYf7kb6y.gKCh2I-] found.
Track | CTDB Status
1 | (77/77) Accurately ripped
2 | (77/77) Accurately ripped
3 | (77/77) Accurately ripped
4 | (77/77) Accurately ripped
5 | (77/77) Accurately ripped
6 | (77/77) Accurately ripped
7 | (77/77) Accurately ripped
8 | (77/77) Accurately ripped
9 | (77/77) Accurately ripped
10 | (77/77) Accurately ripped
11 | (77/77) Accurately ripped
12 | (77/77) Accurately ripped
13 | (77/77) Accurately ripped
14 | (77/77) Accurately ripped
15 | (77/77) Accurately ripped
16 | (77/77) Accurately ripped
17 | (77/77) Accurately ripped
18 | (77/77) Accurately ripped
[AccurateRip ID: 00259d1a-01fbee0d-fb0edf12] found.
Track [ CRC | V2 ] Status
01 [911a3605|a3739332] (054+066/120) Accurately ripped
02 [d4ad89c1|268411c4] (054+066/120) Accurately ripped
03 [45de7d35|7d37af1d] (054+066/120) Accurately ripped
04 [9f5e3b37|91ab2f8a] (054+066/120) Accurately ripped
05 [acbda9ba|20befba4] (054+066/120) Accurately ripped
06 [d2babb8d|013fdd7d] (053+066/119) Accurately ripped
07 [446d8d30|e3adef9e] (054+065/119) Accurately ripped
08 [8bd32962|0e4a6392] (054+065/119) Accurately ripped
09 [b693ddde|0e812e67] (054+066/120) Accurately ripped
10 [85f212e5|051baf26] (054+065/119) Accurately ripped
11 [325ccbea|30058505] (054+065/119) Accurately ripped
12 [da4e7640|5c6bc333] (054+066/120) Accurately ripped
13 [4c9c9e60|b7906565] (054+066/120) Accurately ripped
14 [dd6d968f|0261b04b] (054+066/120) Accurately ripped
15 [385f1253|4157fe01] (054+066/120) Accurately ripped
16 [e20b6579|baf05ba2] (054+066/120) Accurately ripped
17 [edfd663d|ec9593ec] (055+066/121) Accurately ripped
18 [25111e1e|5d8d5708] (055+066/121) Accurately ripped

Track Peak [ CRC32 ] [W/O NULL] [ LOG ]
– 99,5 [BD72B1EA] [2594AB5F] CRC32
01 89,0 [9C4614F4] [0FA4E227]
02 97,7 [3E019FF6] [30DCE781]
03 97,7 [20A54B48] [F5E8F048]
04 97,7 [EE9133B4] [16F00FED]
05 97,7 [BE0DE889] [12A1EB4E]
06 76,9 [17A2BD4B] [B15B33D4]
07 97,7 [2DD0110D] [0F7AE3E2]
08 97,7 [FCC040B5] [C3363EE2]
09 60,4 [D2BB6B7F] [E44564BD]
10 97,7 [5A93939D] [8122C5E8]
11 97,7 [7AE46B58] [82734F4C]
12 97,7 [1B9F068C] [1367B8F5]
13 97,7 [011FB47E] [B9C43181]
14 97,7 [86268B01] [703DB288]
15 97,7 [9A98150E] [C6597890]
16 97,7 [9E33305F] [58C4BE74]
17 99,0 [917000AD] [67944CD8]
18 99,5 [690FDA74] [C32C1F23]

Exact Audio Copy V0.99 prebeta 5 from 4. May 2009

EAC extraction logfile from 4. January 2010, 2:00

Moby / Wait For Me, Ambient (Deluxe Edition) - Disc 2

Used drive : PIONEER DVD-RW DVR-118L Adapter: 2 ID: 0

Read mode : Secure
Utilize accurate stream : Yes
Defeat audio cache : Yes
Make use of C2 pointers : No

Read offset correction : 6
Overread into Lead-In and Lead-Out : No
Fill up missing offset samples with silence : Yes
Delete leading and trailing silent blocks : No
Null samples used in CRC calculations : Yes
Used interface : Installed external ASPI interface

Used output format : User Defined Encoder
Selected bitrate : 1024 kBit/s
Quality : High
Add ID3 tag : No
Command line compressor : C:\Program Files (x86)\Exact Audio Copy\Flac\flac.exe
Additional command line options : -5 -V -T "ARTIST=%a" -T "TITLE=%t" -T "ALBUM=%g" -T "DATE=%y" -T "TRACKNUMBER=%n" -T "GENRE=%m" -T "COMMENT=EAC FLAC -5" %s


TOC of the extracted CD

Track | Start | Length | Start sector | End sector
––––––––––––––––––––––––––––-
1 | 0:00.00 | 3:55.54 | 0 | 17678
2 | 3:55.54 | 4:30.12 | 17679 | 37940
3 | 8:25.66 | 4:55.51 | 37941 | 60116
4 | 13:21.42 | 6:37.06 | 60117 | 89897
5 | 19:58.48 | 3:08.09 | 89898 | 104006
6 | 23:06.57 | 4:25.15 | 104007 | 123896
7 | 27:31.72 | 1:37.40 | 123897 | 131211
8 | 29:09.37 | 3:36.62 | 131212 | 147473
9 | 32:46.24 | 2:57.66 | 147474 | 160814
10 | 35:44.15 | 3:08.11 | 160815 | 174925
11 | 38:52.26 | 3:15.58 | 174926 | 189608
12 | 42:08.09 | 3:04.13 | 189609 | 203421
13 | 45:12.22 | 2:33.63 | 203422 | 214959
14 | 47:46.10 | 7:49.19 | 214960 | 250153
15 | 55:35.29 | 4:20.14 | 250154 | 269667
16 | 59:55.43 | 3:09.24 | 269668 | 283866


Range status and errors

Selected range

Filename F:\Moby - 2009 - Wait For Me (Deluxe)\CD2\Moby - Wait For Me, Ambient (Deluxe Edition) - Disc 2.wav

Peak level 97.7 %
Range quality 99.9 %
Test CRC 240C744C
Copy CRC 240C744C
Copy OK

No errors occurred


AccurateRip summary

Track 1 accurately ripped (confidence 4) [3C4FAF4F]
Track 2 accurately ripped (confidence 4) [DF572555]
Track 3 accurately ripped (confidence 4) [9BDC494A]
Track 4 accurately ripped (confidence 4) [D641B01C]
Track 5 accurately ripped (confidence 4) [BFE2EBBF]
Track 6 accurately ripped (confidence 4) [B54F1325]
Track 7 accurately ripped (confidence 4) [7F9688A0]
Track 8 accurately ripped (confidence 4) [4AB68910]
Track 9 accurately ripped (confidence 4) [799F7A53]
Track 10 accurately ripped (confidence 4) [57B5D09D]
Track 11 accurately ripped (confidence 4) [A5FD54C4]
Track 12 accurately ripped (confidence 4) [6830B576]
Track 13 accurately ripped (confidence 4) [6CAB69A5]
Track 14 accurately ripped (confidence 4) [C5F1C3B0]
Track 15 accurately ripped (confidence 4) [029FE428]
Track 16 accurately ripped (confidence 4) [A3121550]

All tracks accurately ripped

End of status report

[CUETools log; Date: 13.12.2018 13:03:30; Version: 2.1.4]
[CTDB TOCID: BRqufDoK_V0Mupns2dk8E3KcatE-] found.
Track | CTDB Status
1 | (82/82) Accurately ripped
2 | (82/82) Accurately ripped
3 | (81/82) Accurately ripped
4 | (82/82) Accurately ripped
5 | (82/82) Accurately ripped
6 | (82/82) Accurately ripped
7 | (82/82) Accurately ripped
8 | (82/82) Accurately ripped
9 | (82/82) Accurately ripped
10 | (82/82) Accurately ripped
11 | (82/82) Accurately ripped
12 | (82/82) Accurately ripped
13 | (82/82) Accurately ripped
14 | (82/82) Accurately ripped
15 | (82/82) Accurately ripped
16 | (82/82) Accurately ripped
[AccurateRip ID: 002587fe-01bb7262-e20ec810] found.
Track [ CRC | V2 ] Status
01 [3c4faf4f|7dbc2563] (050+061/111) Accurately ripped
02 [df572555|9c4bee69] (050+061/111) Accurately ripped
03 [9bdc494a|f9f46b5a] (049+061/110) Accurately ripped
04 [d641b01c|3453c0a9] (050+061/111) Accurately ripped
05 [bfe2ebbf|8ad3a77d] (050+061/111) Accurately ripped
06 [b54f1325|3bd040ef] (050+061/111) Accurately ripped
07 [7f9688a0|efd9cb4c] (050+061/111) Accurately ripped
08 [4ab68910|d2a76caf] (050+061/111) Accurately ripped
09 [799f7a53|30b0dda1] (050+061/111) Accurately ripped
10 [57b5d09d|63e567ba] (050+061/111) Accurately ripped
11 [a5fd54c4|5f5d3f31] (050+061/111) Accurately ripped
12 [6830b576|2c492178] (050+061/111) Accurately ripped
13 [6cab69a5|d7bbfbf3] (050+061/111) Accurately ripped
14 [c5f1c3b0|97482d32] (050+061/111) Accurately ripped
15 [029fe428|9359f0af] (050+060/110) Accurately ripped
16 [a3121550|e08afed8] (050+060/110) Accurately ripped

Track Peak [ CRC32 ] [W/O NULL] [ LOG ]
– 97,7 [240C744C] [8EE0A0C3] CRC32
01 97,7 [551F2E50] [8C6A879F]
02 97,7 [94FC47C9] [16DB8459]
03 97,7 [09B5A952] [3D3EE3BB]
04 89,6 [1C31D412] [27A45D0C]
05 97,7 [B0FC1D04] [87CF6A3D]
06 97,7 [D94A45B6] [538A3BA5]
07 97,7 [64DEA977] [3EB6527A]
08 97,7 [16ECA94A] [136F0DE1]
09 97,7 [4F212FC9] [95FBC0BE]
10 93,2 [9E6A1F35] [782A5F6D]
11 97,7 [AD085EBE] [FE780925]
12 97,7 [DD65A0CA] [77809649]
13 97,7 [98BC394F] [1DA65DC6]
14 70,1 [A86044B7] [7603C298]
15 97,7 [040C5859] [BA8D6AD3]
16 73,0 [6142505C] [D0232BB9]

Thanks to bvstudio

See also:
Moby - Go: The Very Best Of Moby (2006) [Japanese Edition]
Moby - Last Night (2008) [Japanese Edition]