Tags
Language
Tags

Mono Mind - Mind Control (2019)

Posted By: popsakov
Mono Mind - Mind Control (2019)

Mono Mind - Mind Control (2019)
EAC Rip | FLAC (Tracks) + Cue + m3u8 + Log ~ 363 Mb | MP3 CBR320 ~ 128 Mb
Full Scans ~ 496 Mb | 00:50:02 | RAR 5% Recovery
Electronic, Dance, Pop | Elevator Entertainment / BMG #538464942

Enigmatic dance-pop project Mono Mind created by Per Gessle is based in Sweden, but features input from collaborators based around the world. Initial single "Sugar Rush" was briefly made available in 2016, but the project made its formal debut with "Save a Place" in 2017. While the group was presented with collage-like portrait graphics and pseudonymous members, the song featured vocals by Helena Josefsson and Roxette's Per Gessle, and publishing information revealed that David Guetta co-wrote the song. Following its release in July of 2017, "Save Me a Place" began picking up airplay, and climbed up the Billboard Dance/Mix Show Airplay chart.

***************

Mono Mind - Mind Control (2019)

Track List:

01. Away Away Away [0:52]
02. In Control [4:25]
03. LaLaLove [3:25]
04. Down By The Riverside [3:13]
05. Best Way To Travel (Bridge & Mountain Remix) [3:19]
06. I Found My Soul At Marvingate (Sofa Tunes Remix) [3:33]
07. Tell Him I Said Hi! [4:28]
08. Message Of Love [3:27]
09. Sugar Rush [3:54]
10. Stranger On A Bus [3:29]
11. Mile-Melter [2:25]
12. Save Me A Place (Bridge & Mountain Remix) [3:25]
13. Love Is Loud [3:19]
14. Lap Dancing [0:57]
15. Couldn't Believe My Luck [3:45]
16. The Forever Waltz [2:07]

Exact Audio Copy V1.0 beta 3 from 29. August 2011

EAC extraction logfile from 24. February 2019, 20:04

Mono Mind / Mind Control

Used drive : ASUS BW-16D1HT Adapter: 2 ID: 0

Read mode : Secure
Utilize accurate stream : Yes
Defeat audio cache : Yes
Make use of C2 pointers : No

Read offset correction : 6
Overread into Lead-In and Lead-Out : No
Fill up missing offset samples with silence : Yes
Delete leading and trailing silent blocks : No
Null samples used in CRC calculations : Yes
Used interface : Native Win32 interface for Win NT & 2000
Gap handling : Appended to previous track

Used output format : User Defined Encoder
Selected bitrate : 128 kBit/s
Quality : High
Add ID3 tag : No
Command line compressor : C:\Program Files (x86)\Exact Audio Copy\Flac\flac.exe
Additional command line options : -V -8 -T "Genre=%genre%" -T "Artist=%artist%" -T "Title=%title%" -T "Album=%albumtitle%" -T "Date=%year%" -T "Tracknumber=%tracknr%" -T "Comment=%comment%" %source%


TOC of the extracted CD

Track | Start | Length | Start sector | End sector
––––––––––––––––––––––––––––-
1 | 0:00.00 | 0:52.01 | 0 | 3900
2 | 0:52.01 | 4:24.42 | 3901 | 23742
3 | 5:16.43 | 3:24.68 | 23743 | 39110
4 | 8:41.36 | 3:12.46 | 39111 | 53556
5 | 11:54.07 | 3:19.00 | 53557 | 68481
6 | 15:13.07 | 3:32.51 | 68482 | 84432
7 | 18:45.58 | 4:28.17 | 84433 | 104549
8 | 23:14.00 | 3:26.52 | 104550 | 120051
9 | 26:40.52 | 3:54.00 | 120052 | 137601
10 | 30:34.52 | 3:29.37 | 137602 | 153313
11 | 34:04.14 | 2:24.38 | 153314 | 164151
12 | 36:28.52 | 3:24.40 | 164152 | 179491
13 | 39:53.17 | 3:19.31 | 179492 | 194447
14 | 43:12.48 | 0:57.32 | 194448 | 198754
15 | 44:10.05 | 3:44.55 | 198755 | 215609
16 | 47:54.60 | 2:07.05 | 215610 | 225139


Track 1

Filename D:\Uploads\Mono Mind Discography (lossless)\01 - Albums\2019 - Mind Control (Elevator Entertainment, 538464942, CD)\01 - Away Away Away.wav

Pre-gap length 0:00:02.00

Peak level 93.5 %
Extraction speed 2.9 X
Track quality 100.0 %
Test CRC 836527CA
Copy CRC 836527CA
Track not present in AccurateRip database
Copy OK

Track 2

Filename D:\Uploads\Mono Mind Discography (lossless)\01 - Albums\2019 - Mind Control (Elevator Entertainment, 538464942, CD)\02 - In Control.wav

Peak level 95.7 %
Extraction speed 4.7 X
Track quality 100.0 %
Test CRC 117AA4A3
Copy CRC 117AA4A3
Track not present in AccurateRip database
Copy OK

Track 3

Filename D:\Uploads\Mono Mind Discography (lossless)\01 - Albums\2019 - Mind Control (Elevator Entertainment, 538464942, CD)\03 - LaLaLove.wav

Peak level 100.0 %
Extraction speed 5.0 X
Track quality 100.0 %
Test CRC CCFD98A7
Copy CRC CCFD98A7
Track not present in AccurateRip database
Copy OK

Track 4

Filename D:\Uploads\Mono Mind Discography (lossless)\01 - Albums\2019 - Mind Control (Elevator Entertainment, 538464942, CD)\04 - Down By The Riverside.wav

Peak level 97.7 %
Extraction speed 5.3 X
Track quality 100.0 %
Test CRC 2A123705
Copy CRC 2A123705
Track not present in AccurateRip database
Copy OK

Track 5

Filename D:\Uploads\Mono Mind Discography (lossless)\01 - Albums\2019 - Mind Control (Elevator Entertainment, 538464942, CD)\05 - Best Way To Travel (Bridge & Mountain Remix).wav

Peak level 98.1 %
Extraction speed 5.7 X
Track quality 100.0 %
Test CRC 72F5AB7D
Copy CRC 72F5AB7D
Track not present in AccurateRip database
Copy OK

Track 6

Filename D:\Uploads\Mono Mind Discography (lossless)\01 - Albums\2019 - Mind Control (Elevator Entertainment, 538464942, CD)\06 - I Found My Soul At Marvingate (Sofa Tunes Remix).wav

Peak level 96.8 %
Extraction speed 6.1 X
Track quality 100.0 %
Test CRC 1EDE9800
Copy CRC 1EDE9800
Track not present in AccurateRip database
Copy OK

Track 7

Filename D:\Uploads\Mono Mind Discography (lossless)\01 - Albums\2019 - Mind Control (Elevator Entertainment, 538464942, CD)\07 - Tell Him I Said Hi!.wav

Peak level 96.8 %
Extraction speed 5.5 X
Track quality 99.9 %
Test CRC A25EB8E6
Copy CRC A25EB8E6
Track not present in AccurateRip database
Copy OK

Track 8

Filename D:\Uploads\Mono Mind Discography (lossless)\01 - Albums\2019 - Mind Control (Elevator Entertainment, 538464942, CD)\08 - Message Of Love.wav

Peak level 97.3 %
Extraction speed 6.5 X
Track quality 100.0 %
Test CRC 7881DE5A
Copy CRC 7881DE5A
Track not present in AccurateRip database
Copy OK

Track 9

Filename D:\Uploads\Mono Mind Discography (lossless)\01 - Albums\2019 - Mind Control (Elevator Entertainment, 538464942, CD)\09 - Sugar Rush.wav

Peak level 100.0 %
Extraction speed 7.1 X
Track quality 100.0 %
Test CRC 997138CB
Copy CRC 997138CB
Track not present in AccurateRip database
Copy OK

Track 10

Filename D:\Uploads\Mono Mind Discography (lossless)\01 - Albums\2019 - Mind Control (Elevator Entertainment, 538464942, CD)\10 - Stranger On A Bus.wav

Peak level 98.2 %
Extraction speed 5.9 X
Track quality 99.9 %
Test CRC 63FA2C4B
Copy CRC 63FA2C4B
Track not present in AccurateRip database
Copy OK

Track 11

Filename D:\Uploads\Mono Mind Discography (lossless)\01 - Albums\2019 - Mind Control (Elevator Entertainment, 538464942, CD)\11 - Mile-Melter.wav

Peak level 99.9 %
Extraction speed 7.0 X
Track quality 100.0 %
Test CRC 170A8A06
Copy CRC 170A8A06
Track not present in AccurateRip database
Copy OK

Track 12

Filename D:\Uploads\Mono Mind Discography (lossless)\01 - Albums\2019 - Mind Control (Elevator Entertainment, 538464942, CD)\12 - Save Me A Place (Bridge & Mountain Remix).wav

Peak level 98.0 %
Extraction speed 6.0 X
Track quality 99.9 %
Test CRC 1873B85B
Copy CRC 1873B85B
Track not present in AccurateRip database
Copy OK

Track 13

Filename D:\Uploads\Mono Mind Discography (lossless)\01 - Albums\2019 - Mind Control (Elevator Entertainment, 538464942, CD)\13 - Love Is Loud.wav

Peak level 100.0 %
Extraction speed 7.9 X
Track quality 100.0 %
Test CRC BD5B0C3E
Copy CRC BD5B0C3E
Track not present in AccurateRip database
Copy OK

Track 14

Filename D:\Uploads\Mono Mind Discography (lossless)\01 - Albums\2019 - Mind Control (Elevator Entertainment, 538464942, CD)\14 - Lap Dancing.wav

Peak level 93.7 %
Extraction speed 3.5 X
Track quality 99.8 %
Test CRC CFF97455
Copy CRC CFF97455
Track not present in AccurateRip database
Copy OK

Track 15

Filename D:\Uploads\Mono Mind Discography (lossless)\01 - Albums\2019 - Mind Control (Elevator Entertainment, 538464942, CD)\15 - Couldn't Believe My Luck.wav

Peak level 100.0 %
Extraction speed 6.7 X
Track quality 99.9 %
Test CRC 46600E93
Copy CRC 46600E93
Track not present in AccurateRip database
Copy OK

Track 16

Filename D:\Uploads\Mono Mind Discography (lossless)\01 - Albums\2019 - Mind Control (Elevator Entertainment, 538464942, CD)\16 - The Forever Waltz.wav

Peak level 96.2 %
Extraction speed 7.3 X
Track quality 100.0 %
Test CRC C8293E59
Copy CRC C8293E59
Track not present in AccurateRip database
Copy OK


None of the tracks are present in the AccurateRip database

No errors occurred

End of status report

==== Log checksum B338FE9D35564FA3AE123CA349CD9B150F7656FA16FF271B7E10D19C3FF32AAF ====

Mono Mind - Mind Control (2019)


All thanks go to D-Omen

>>> My Blog <<<

DOWNLOAD: