Subcategories

Monty Python - The Final Rip Off (1987) 2 CDs

Posted By: Designol
Monty Python - The Final Rip Off (1987) 2 CDs

Monty Python - The Final Rip Off (1987) 2 CDs
EAC | FLAC | Tracks (Cue&Log) ~ 667 Mb (incl 5%) | Mp3 (CBR320) ~ 308 Mb (incl 5%) | Scans included
Genre: Sketch Comedy, Comedy Rock, Soundtracks | Label: Virgin | # 0777 7 86033 2 0 | Time: 01:56:59

This is it the one Monty Python album that you must have. A compilation drawn from various films, TV series, and performance sketches, The Final Rip Off consists of two CDs of absolute classics. One of the very first tracks is the famous "Constitutional Peasant" scene from Monty Python and the Holy Grail. Also included are "Spanish Inquisition," "Argument," "Lumberjack Song," and several other sketches that have achieved much-deserved pride of place in popular culture. The members of Monty Python are quite aware of this–the much-loved dead-parrot sketch is listed here as "Parrot (Oh, Not Again)." It's a testimony to the artistry, not to mention timing, of the group that the great majority of this stuff is still funny after decades of wear.

This ironically titled set was not the final Monty Python anthology; contrarily, it is the troupe's first CD compilation. Nor could it be considered a ripoff, as it draws upon practically all of their albums, the exceptions being their debut long-player, Monty Python's Flying Circus (1970), as well as the Life of Brian (1979) and The Meaning of Life (1983) soundtracks. This is more likely due to licensing constraints than a dismissal of the contents. The bulk of the Final Rip Off (1988) has been derived from Another Monty Python Record (1971) and Monty Python's Previous Record (1973) – which consist primarily of sketches from the four series of their groundbreaking BBC-TV program, Monty Python's Flying Circus. Likewise, there are copious inclusions from their post-telly recordings Matching Tie and Handkerchief (1973) and Monty Python's Contractual Obligation Album (1980). As this (or really any Python platter) demonstrates, the collective and respective talents of writer/actors Michael Palin, Graham Chapman, John Cleese, Eric Idle, Terry Jones, and Terry Gilliam are as aurally unequaled as they are visually incomparable. Even as personalities and egos clashed behind the scenes, the results were uniformly inspired; this remains true of Palin's newly recorded "Introduction" and a few other brief links as well. A glance at the running order will inevitably reveal favorites for all dimensions of enthusiast, from the absurdist pet-related humor of "Fish Licence" and "Parrot (Oh, Not Again)" to the rare Cleese singing vocal on "Eric the Half-a-Bee Song" to the witty and worldly pokes at pompous pretenses on "Australian Table Wines," "Four Yorkshiremen," or the "Gumby Theatre" adaptation of Anton Chekhov's "Cherry Orchard." Plenty of Python's demented ditties are here as well, such as the Viking-led ode to "Spam," "I Bet You They Won't Play This Song on the Radio," and the Dadaist dig at Cleese on "Do Wot John." The sole cinematic representation comes from Monty Python and the Holy Grail (1975). Final Rip Off is arguably the best representation of Monty Python's remarkable comedic range, although fanatics may find it doesn't replace owning each of the individual titles from which it has been compiled.

Review by Lindsay Planer, Allmusic.com

Monty Python - The Final Rip Off (1987) 2 CDs



Tracklist:

CD1:

01. Introduction (00:48)
02. Constitutional Peasant (02:52)
03. Fish Licence (02:49)
04. Eric The Half-a-Bee Song (02:06)
05. Finland Song (02:20)
06. Travel Agent (03:46)
07. Are You Embarrassed Easily? (02:25)
08. Australian Table Wines (01:38)
09. Argument (03:39)
10. Henry Kissinger Song (01:35)
11. Parrot (Oh, Not Again) (05:41)
12. Theme Song (Interupted) (00:05)
13. Sit On My Face (00:44)
14. Undertaker (01:35)
15. Novel Writing (Live From Wessex) (02:34)
16. This record has been skillfully crafted (00:21)
17. String (02:19)
18. Bells (02:23)
19. Traffic Lights (01:56)
20. Cocktail Bar (03:45)
21. Four Yorkshiremen (03:19)
22. Election Special (06:53)
23. Lumberjack Song (02:28)
24. Theme Song (00:32)

CD2:

01. I Like Chinese (03:14)
02. Spanish Inquisition Part 1 (02:01)
03. Cheese Shop (04:09)
04. Cherry Orchard (02:02)
05. Architect's Sketch (02:48)
06. Spanish Inquisition Part 2 (01:08)
07. Spam (02:28)
08. Spanish Inquisition Part 3 (01:08)
09. Comfy Chair (00:15)
10. Famous Person Quiz (01:22)
11. You Be The Actor (03:01)
12. Nudge Nudge (02:09)
13. Cannibalism (03:15)
14. Spanish Inquisition Revisited (00:20)
15. I Bet You They Won't Play This Song On The Radio (00:55)
16. Bruces (03:03)
17. Bookshop (04:27)
18. Do Wot John (00:30)
19. Rock Notes (02:12)
20. I'm So Worried (03:17)
21. Crocodile (02:48)
22. French Taunter (02:34)
23. Marilyn Monroe (02:06)
24. Swamp Castle (04:04)
25. French Taunter Part 2 (02:30)
26. Last Word (00:16)


Exact Audio Copy V0.99 prebeta 5 from 4. May 2009

EAC extraction logfile from 18. August 2009, 22:11

Monty Python / The Final Rip Off (Disc 1)

Used drive : LITE-ON LTR-52327S Adapter: 1 ID: 0

Read mode : Secure
Utilize accurate stream : Yes
Defeat audio cache : Yes
Make use of C2 pointers : No

Read offset correction : 6
Overread into Lead-In and Lead-Out : No
Fill up missing offset samples with silence : Yes
Delete leading and trailing silent blocks : No
Null samples used in CRC calculations : Yes
Used interface : Native Win32 interface for Win NT & 2000
Gap handling : Appended to previous track

Used output format : Internal WAV Routines
Sample format : 44.100 Hz; 16 Bit; Stereo


TOC of the extracted CD

Track | Start | Length | Start sector | End sector
––––––––––––––––––––––––––––-
1 | 0:00.00 | 0:48.05 | 0 | 3604
2 | 0:48.05 | 2:52.05 | 3605 | 16509
3 | 3:40.10 | 2:49.40 | 16510 | 29224
4 | 6:29.50 | 2:06.17 | 29225 | 38691
5 | 8:35.67 | 2:20.00 | 38692 | 49191
6 | 10:55.67 | 3:46.18 | 49192 | 66159
7 | 14:42.10 | 2:25.50 | 66160 | 77084
8 | 17:07.60 | 1:38.65 | 77085 | 84499
9 | 18:46.50 | 3:39.32 | 84500 | 100956
10 | 22:26.07 | 1:35.55 | 100957 | 108136
11 | 24:01.62 | 5:41.03 | 108137 | 133714
12 | 29:42.65 | 0:05.65 | 133715 | 134154
13 | 29:48.55 | 0:44.47 | 134155 | 137501
14 | 30:33.27 | 1:35.00 | 137502 | 144626
15 | 32:08.27 | 2:34.55 | 144627 | 156231
16 | 34:43.07 | 0:21.50 | 156232 | 157856
17 | 35:04.57 | 2:19.20 | 157857 | 168301
18 | 37:24.02 | 2:23.40 | 168302 | 179066
19 | 39:47.42 | 1:56.50 | 179067 | 187816
20 | 41:44.17 | 3:45.70 | 187817 | 204761
21 | 45:30.12 | 3:19.65 | 204762 | 219751
22 | 48:50.02 | 6:53.15 | 219752 | 250741
23 | 55:43.17 | 2:28.45 | 250742 | 261886
24 | 58:11.62 | 0:32.25 | 261887 | 264311


Track 1

Filename I:\MONTY PYTHON\The Final Rip Off\Disc 1\01 - Introduction.wav

Pre-gap length 0:00:02.00

Peak level 82.8 %
Track quality 100.0 %
Test CRC 39692E71
Copy CRC 39692E71
Accurately ripped (confidence 4) [7FC0412E]
Copy OK

Track 2

Filename I:\MONTY PYTHON\The Final Rip Off\Disc 1\02 - Constitutional Peasant.wav

Peak level 70.8 %
Track quality 100.0 %
Test CRC 338EAAC5
Copy CRC 338EAAC5
Accurately ripped (confidence 4) [E9CC2125]
Copy OK

Track 3

Filename I:\MONTY PYTHON\The Final Rip Off\Disc 1\03 - Fish Licence.wav

Peak level 61.0 %
Track quality 100.0 %
Test CRC F708B0EF
Copy CRC F708B0EF
Accurately ripped (confidence 4) [1DE62AC2]
Copy OK

Track 4

Filename I:\MONTY PYTHON\The Final Rip Off\Disc 1\04 - Eric The Half-a-Bee Song.wav

Peak level 69.7 %
Track quality 100.0 %
Test CRC 7DDF507F
Copy CRC 7DDF507F
Accurately ripped (confidence 4) [428C97CE]
Copy OK

Track 5

Filename I:\MONTY PYTHON\The Final Rip Off\Disc 1\05 - Finland Song.wav

Peak level 78.9 %
Track quality 100.0 %
Test CRC 6EA961AD
Copy CRC 6EA961AD
Accurately ripped (confidence 4) [9A14CD25]
Copy OK

Track 6

Filename I:\MONTY PYTHON\The Final Rip Off\Disc 1\06 - Travel Agent.wav

Peak level 81.0 %
Track quality 100.0 %
Test CRC 947E54C5
Copy CRC 947E54C5
Accurately ripped (confidence 4) [752B88C2]
Copy OK

Track 7

Filename I:\MONTY PYTHON\The Final Rip Off\Disc 1\07 - Are You Embarrassed Easily .wav

Peak level 71.2 %
Track quality 100.0 %
Test CRC 8BC18749
Copy CRC 8BC18749
Accurately ripped (confidence 4) [816FCBBC]
Copy OK

Track 8

Filename I:\MONTY PYTHON\The Final Rip Off\Disc 1\08 - Australian Table Wines.wav

Peak level 81.8 %
Track quality 100.0 %
Test CRC 74FF51A3
Copy CRC 74FF51A3
Accurately ripped (confidence 4) [47483AC6]
Copy OK

Track 9

Filename I:\MONTY PYTHON\The Final Rip Off\Disc 1\09 - Argument.wav

Peak level 67.9 %
Track quality 100.0 %
Test CRC CE49B6DF
Copy CRC CE49B6DF
Accurately ripped (confidence 4) [628058CB]
Copy OK

Track 10

Filename I:\MONTY PYTHON\The Final Rip Off\Disc 1\10 - Henry Kissinger Song.wav

Peak level 79.5 %
Track quality 100.0 %
Test CRC 5346A78D
Copy CRC 5346A78D
Accurately ripped (confidence 4) [BAA6A057]
Copy OK

Track 11

Filename I:\MONTY PYTHON\The Final Rip Off\Disc 1\11 - Parrot (Oh, Not Again).wav

Peak level 89.3 %
Track quality 99.9 %
Test CRC 714E7FD0
Copy CRC 714E7FD0
Accurately ripped (confidence 3) [754A9A82]
Copy OK

Track 12

Filename I:\MONTY PYTHON\The Final Rip Off\Disc 1\12 - Theme Song (Interupted).wav

Peak level 100.0 %
Track quality 100.0 %
Test CRC B2B6577E
Copy CRC B2B6577E
Track not present in AccurateRip database
Copy OK

Track 13

Filename I:\MONTY PYTHON\The Final Rip Off\Disc 1\13 - Sit On My Face.wav

Peak level 90.1 %
Track quality 100.0 %
Test CRC E500331E
Copy CRC E500331E
Accurately ripped (confidence 4) [9899B108]
Copy OK

Track 14

Filename I:\MONTY PYTHON\The Final Rip Off\Disc 1\14 - Undertaker.wav

Peak level 81.2 %
Track quality 100.0 %
Test CRC 1C21CF80
Copy CRC 1C21CF80
Accurately ripped (confidence 4) [DB67DABB]
Copy OK

Track 15

Filename I:\MONTY PYTHON\The Final Rip Off\Disc 1\15 - Novel Writing (Live From Wessex).wav

Peak level 66.8 %
Track quality 99.9 %
Test CRC 205BAE3D
Copy CRC 205BAE3D
Accurately ripped (confidence 4) [46C6199F]
Copy OK

Track 16

Filename I:\MONTY PYTHON\The Final Rip Off\Disc 1\16 - This record has been skillfully crafted.wav

Peak level 55.6 %
Track quality 100.0 %
Test CRC 729BEF6A
Copy CRC 729BEF6A
Accurately ripped (confidence 4) [8B5B8D1E]
Copy OK

Track 17

Filename I:\MONTY PYTHON\The Final Rip Off\Disc 1\17 - String.wav

Peak level 77.7 %
Track quality 100.0 %
Test CRC 237034F3
Copy CRC 237034F3
Accurately ripped (confidence 4) [0CE3AAC2]
Copy OK

Track 18

Filename I:\MONTY PYTHON\The Final Rip Off\Disc 1\18 - Bells.wav

Peak level 82.8 %
Track quality 100.0 %
Test CRC F4CB84A5
Copy CRC F4CB84A5
Accurately ripped (confidence 4) [922D6C20]
Copy OK

Track 19

Filename I:\MONTY PYTHON\The Final Rip Off\Disc 1\19 - Traffic Lights.wav

Peak level 93.1 %
Track quality 100.0 %
Test CRC 3DBD941D
Copy CRC 3DBD941D
Accurately ripped (confidence 4) [D4762F86]
Copy OK

Track 20

Filename I:\MONTY PYTHON\The Final Rip Off\Disc 1\20 - Cocktail Bar.wav

Peak level 96.2 %
Track quality 100.0 %
Test CRC 27352AD6
Copy CRC 27352AD6
Accurately ripped (confidence 4) [D85EE027]
Copy OK

Track 21

Filename I:\MONTY PYTHON\The Final Rip Off\Disc 1\21 - Four Yorkshiremen.wav

Peak level 79.3 %
Track quality 100.0 %
Test CRC 5D156787
Copy CRC 5D156787
Accurately ripped (confidence 4) [ED67E6B4]
Copy OK

Track 22

Filename I:\MONTY PYTHON\The Final Rip Off\Disc 1\22 - Election Special.wav

Peak level 80.1 %
Track quality 100.0 %
Test CRC CF6857A3
Copy CRC CF6857A3
Accurately ripped (confidence 4) [5D5014B8]
Copy OK

Track 23

Filename I:\MONTY PYTHON\The Final Rip Off\Disc 1\23 - Lumberjack Song.wav

Peak level 83.1 %
Track quality 100.0 %
Test CRC EEBDF2C9
Copy CRC EEBDF2C9
Accurately ripped (confidence 4) [E098D53A]
Copy OK

Track 24

Filename I:\MONTY PYTHON\The Final Rip Off\Disc 1\24 - Theme Song.wav

Peak level 75.0 %
Track quality 100.0 %
Test CRC EB7326A2
Copy CRC EB7326A2
Accurately ripped (confidence 4) [C0B8A3E2]
Copy OK


23 track(s) accurately ripped
1 track(s) not present in the AccurateRip database

Some tracks could not be verified as accurate

No errors occurred

End of status report

foobar2000 1.2 / Dynamic Range Meter 1.1.1
log date: 2016-04-21 20:59:13

––––––––––––––––––––––––––––––––––––––––
Analyzed: Monty Python / The Final Rip Off (Disc 1)
––––––––––––––––––––––––––––––––––––––––

DR Peak RMS Duration Track
––––––––––––––––––––––––––––––––––––––––
DR13 -1.63 dB -18.80 dB 0:48 01-Introduction
DR12 -3.00 dB -17.06 dB 2:52 02-Constitutional Peasant
DR13 -4.28 dB -20.27 dB 2:50 03-Fish Licence
DR11 -3.13 dB -17.76 dB 2:06 04-Eric The Half-a-Bee Song
DR10 -2.05 dB -15.08 dB 2:20 05-Finland Song
DR12 -1.83 dB -17.75 dB 3:46 06-Travel Agent
DR14 -2.94 dB -19.50 dB 2:26 07-Are You Embarrassed Easily?
DR14 -1.74 dB -17.68 dB 1:39 08-Australian Table Wines
DR13 -3.35 dB -19.95 dB 3:39 09-Argument
DR9 -1.99 dB -13.17 dB 1:36 10-Henry Kissinger Song
DR13 -0.97 dB -18.24 dB 5:41 11-Parrot (Oh, Not Again)
DR14 0.00 dB -14.14 dB 0:06 12-Theme Song (Interupted)
DR10 -0.90 dB -12.25 dB 0:45 13-Sit On My Face
DR13 -1.80 dB -18.79 dB 1:35 14-Undertaker
DR10 -3.50 dB -16.68 dB 2:35 15-Novel Writing (Live From Wessex)
DR13 -5.10 dB -20.69 dB 0:22 16-This record has been skillfully crafted
DR15 -2.18 dB -18.80 dB 2:19 17-String
DR11 -1.63 dB -17.60 dB 2:24 18-Bells
DR12 -0.62 dB -15.48 dB 1:57 19-Traffic Lights
DR13 -0.34 dB -17.33 dB 3:46 20-Cocktail Bar
DR12 -2.01 dB -17.05 dB 3:20 21-Four Yorkshiremen
DR13 -1.92 dB -18.16 dB 6:53 22-Election Special
DR11 -1.60 dB -14.89 dB 2:29 23-Lumberjack Song
DR11 -2.49 dB -17.32 dB 0:32 24-Theme Song
––––––––––––––––––––––––––––––––––––––––

Number of tracks: 24
Official DR value: DR12

Samplerate: 44100 Hz
Channels: 2
Bits per sample: 16
Bitrate: 666 kbps
Codec: FLAC
================================================================================


Exact Audio Copy V0.99 prebeta 5 from 4. May 2009

EAC extraction logfile from 18. August 2009, 21:44

Monty Python / The Final Rip Off (Disc 2)

Used drive : LITE-ON LTR-52327S Adapter: 1 ID: 0

Read mode : Secure
Utilize accurate stream : Yes
Defeat audio cache : Yes
Make use of C2 pointers : No

Read offset correction : 6
Overread into Lead-In and Lead-Out : No
Fill up missing offset samples with silence : Yes
Delete leading and trailing silent blocks : No
Null samples used in CRC calculations : Yes
Used interface : Native Win32 interface for Win NT & 2000
Gap handling : Appended to previous track

Used output format : Internal WAV Routines
Sample format : 44.100 Hz; 16 Bit; Stereo


TOC of the extracted CD

Track | Start | Length | Start sector | End sector
––––––––––––––––––––––––––––-
1 | 0:00.00 | 3:14.72 | 0 | 14621
2 | 3:14.72 | 2:01.58 | 14622 | 23754
3 | 5:16.55 | 4:09.42 | 23755 | 42471
4 | 9:26.22 | 2:02.28 | 42472 | 51649
5 | 11:28.50 | 2:48.42 | 51650 | 64291
6 | 14:17.17 | 1:08.18 | 64292 | 69409
7 | 15:25.35 | 2:28.30 | 69410 | 80539
8 | 17:53.65 | 1:08.62 | 80540 | 85701
9 | 19:02.52 | 0:15.55 | 85702 | 86881
10 | 19:18.32 | 1:22.43 | 86882 | 93074
11 | 20:41.00 | 3:01.50 | 93075 | 106699
12 | 23:42.50 | 2:09.27 | 106700 | 116401
13 | 25:52.02 | 3:15.13 | 116402 | 131039
14 | 29:07.15 | 0:20.60 | 131040 | 132599
15 | 29:28.00 | 0:55.35 | 132600 | 136759
16 | 30:23.35 | 3:03.10 | 136760 | 150494
17 | 33:26.45 | 4:27.50 | 150495 | 170569
18 | 37:54.20 | 0:30.55 | 170570 | 172874
19 | 38:25.00 | 2:12.05 | 172875 | 182779
20 | 40:37.05 | 3:17.37 | 182780 | 197591
21 | 43:54.42 | 2:48.20 | 197592 | 210211
22 | 46:42.62 | 2:34.15 | 210212 | 221776
23 | 49:17.02 | 2:06.70 | 221777 | 231296
24 | 51:23.72 | 4:04.50 | 231297 | 249646
25 | 55:28.47 | 2:30.38 | 249647 | 260934
26 | 57:59.10 | 0:16.22 | 260935 | 262156


Track 1

Filename I:\MONTY PYTHON\The Final Rip Off\Disc 2\01 - I Like Chinese.wav

Pre-gap length 0:00:02.00

Peak level 86.9 %
Track quality 100.0 %
Test CRC CB5E2E74
Copy CRC CB5E2E74
Accurately ripped (confidence 2) [411428F0]
Copy OK

Track 2

Filename I:\MONTY PYTHON\The Final Rip Off\Disc 2\02 - Spanish Inquisition Part 1.wav

Peak level 91.2 %
Track quality 100.0 %
Test CRC F60ED6F3
Copy CRC F60ED6F3
Accurately ripped (confidence 2) [822ECB2F]
Copy OK

Track 3

Filename I:\MONTY PYTHON\The Final Rip Off\Disc 2\03 - Cheese Shop.wav

Peak level 100.0 %
Track quality 100.0 %
Test CRC C8CEC141
Copy CRC C8CEC141
Accurately ripped (confidence 2) [6E92EE45]
Copy OK

Track 4

Filename I:\MONTY PYTHON\The Final Rip Off\Disc 2\04 - Cherry Orchard.wav

Peak level 100.0 %
Track quality 100.0 %
Test CRC 0B8A0ECE
Copy CRC 0B8A0ECE
Accurately ripped (confidence 2) [A8E9D7F4]
Copy OK

Track 5

Filename I:\MONTY PYTHON\The Final Rip Off\Disc 2\05 - Architect's Sketch.wav

Peak level 94.0 %
Track quality 100.0 %
Test CRC A46FB559
Copy CRC A46FB559
Accurately ripped (confidence 2) [B450DF20]
Copy OK

Track 6

Filename I:\MONTY PYTHON\The Final Rip Off\Disc 2\06 - Spanish Inquisition Part 2.wav

Peak level 92.9 %
Track quality 100.0 %
Test CRC EC55E04C
Copy CRC EC55E04C
Accurately ripped (confidence 2) [AB5005CD]
Copy OK

Track 7

Filename I:\MONTY PYTHON\The Final Rip Off\Disc 2\07 - Spam.wav

Peak level 86.3 %
Track quality 99.9 %
Test CRC C565C315
Copy CRC C565C315
Accurately ripped (confidence 2) [BFC9B79B]
Copy OK

Track 8

Filename I:\MONTY PYTHON\The Final Rip Off\Disc 2\08 - Spanish Inquisition Part 3.wav

Peak level 99.8 %
Track quality 100.0 %
Test CRC E67861CD
Copy CRC E67861CD
Accurately ripped (confidence 2) [5C256D5D]
Copy OK

Track 9

Filename I:\MONTY PYTHON\The Final Rip Off\Disc 2\09 - Comfy Chair.wav

Peak level 100.0 %
Track quality 100.0 %
Test CRC D3B8726F
Copy CRC D3B8726F
Accurately ripped (confidence 2) [4F68B90B]
Copy OK

Track 10

Filename I:\MONTY PYTHON\The Final Rip Off\Disc 2\10 - Famous Person Quiz.wav

Peak level 99.3 %
Track quality 100.0 %
Test CRC 52B78C4B
Copy CRC 52B78C4B
Accurately ripped (confidence 2) [1B70FFA9]
Copy OK

Track 11

Filename I:\MONTY PYTHON\The Final Rip Off\Disc 2\11 - You Be The Actor.wav

Peak level 92.0 %
Track quality 99.9 %
Test CRC 467553E9
Copy CRC 467553E9
Accurately ripped (confidence 2) [52F3D161]
Copy OK

Track 12

Filename I:\MONTY PYTHON\The Final Rip Off\Disc 2\12 - Nudge Nudge.wav

Peak level 69.5 %
Track quality 100.0 %
Test CRC EE8CEE95
Copy CRC EE8CEE95
Accurately ripped (confidence 2) [98E26146]
Copy OK

Track 13

Filename I:\MONTY PYTHON\The Final Rip Off\Disc 2\13 - Cannibalism.wav

Peak level 86.4 %
Track quality 100.0 %
Test CRC 1E8E778D
Copy CRC 1E8E778D
Accurately ripped (confidence 2) [C6BE73BF]
Copy OK

Track 14

Filename I:\MONTY PYTHON\The Final Rip Off\Disc 2\14 - Spanish Inquisition Revisited.wav

Peak level 88.9 %
Track quality 100.0 %
Test CRC 8B847A80
Copy CRC 8B847A80
Accurately ripped (confidence 2) [CA6445B1]
Copy OK

Track 15

Filename I:\MONTY PYTHON\The Final Rip Off\Disc 2\15 - I Bet You They Won't Play This Song On The Radio.wav

Peak level 80.8 %
Track quality 99.8 %
Test CRC D947933D
Copy CRC D947933D
Accurately ripped (confidence 2) [80F23B98]
Copy OK

Track 16

Filename I:\MONTY PYTHON\The Final Rip Off\Disc 2\16 - Bruces.wav

Peak level 64.1 %
Track quality 100.0 %
Test CRC 03128DB6
Copy CRC 03128DB6
Accurately ripped (confidence 2) [E8B4F0EE]
Copy OK

Track 17

Filename I:\MONTY PYTHON\The Final Rip Off\Disc 2\17 - Bookshop.wav

Peak level 98.9 %
Track quality 100.0 %
Test CRC C67635F3
Copy CRC C67635F3
Accurately ripped (confidence 2) [C8093073]
Copy OK

Track 18

Filename I:\MONTY PYTHON\The Final Rip Off\Disc 2\18 - Do Wot John.wav

Peak level 85.6 %
Track quality 100.0 %
Test CRC A3F0CC66
Copy CRC A3F0CC66
Accurately ripped (confidence 2) [0FEF06D3]
Copy OK

Track 19

Filename I:\MONTY PYTHON\The Final Rip Off\Disc 2\19 - Rock Notes.wav

Peak level 80.4 %
Track quality 100.0 %
Test CRC 70423B0E
Copy CRC 70423B0E
Accurately ripped (confidence 2) [04BC194A]
Copy OK

Track 20

Filename I:\MONTY PYTHON\The Final Rip Off\Disc 2\20 - I'm So Worried.wav

Peak level 68.5 %
Track quality 100.0 %
Test CRC AF91E168
Copy CRC AF91E168
Accurately ripped (confidence 2) [B45BA80C]
Copy OK

Track 21

Filename I:\MONTY PYTHON\The Final Rip Off\Disc 2\21 - Crocodile.wav

Peak level 80.3 %
Track quality 100.0 %
Test CRC 85772730
Copy CRC 85772730
Accurately ripped (confidence 2) [F49B78E3]
Copy OK

Track 22

Filename I:\MONTY PYTHON\The Final Rip Off\Disc 2\22 - French Taunter.wav

Peak level 65.0 %
Track quality 100.0 %
Test CRC E6FE9AFD
Copy CRC E6FE9AFD
Accurately ripped (confidence 2) [47602572]
Copy OK

Track 23

Filename I:\MONTY PYTHON\The Final Rip Off\Disc 2\23 - Marilyn Monroe.wav

Peak level 92.0 %
Track quality 100.0 %
Test CRC BF454A8C
Copy CRC BF454A8C
Accurately ripped (confidence 2) [25195134]
Copy OK

Track 24

Filename I:\MONTY PYTHON\The Final Rip Off\Disc 2\24 - Swamp Castle.wav

Peak level 83.3 %
Track quality 100.0 %
Test CRC 40F3FFC7
Copy CRC 40F3FFC7
Accurately ripped (confidence 2) [47D5428C]
Copy OK

Track 25

Filename I:\MONTY PYTHON\The Final Rip Off\Disc 2\25 - French Taunter Part 2.wav

Peak level 79.8 %
Track quality 100.0 %
Test CRC E364B0F1
Copy CRC E364B0F1
Accurately ripped (confidence 2) [045C9F56]
Copy OK

Track 26

Filename I:\MONTY PYTHON\The Final Rip Off\Disc 2\26 - Last Word.wav

Peak level 54.1 %
Track quality 99.3 %
Test CRC E14CEC4B
Copy CRC E14CEC4B
Accurately ripped (confidence 2) [B840EA94]
Copy OK


All tracks accurately ripped

No errors occurred

End of status report

foobar2000 1.2 / Dynamic Range Meter 1.1.1
log date: 2016-04-21 20:59:31

––––––––––––––––––––––––––––––––––––––––
Analyzed: Monty Python / The Final Rip Off (Disc 2)
––––––––––––––––––––––––––––––––––––––––

DR Peak RMS Duration Track
––––––––––––––––––––––––––––––––––––––––
DR10 -1.22 dB -13.94 dB 3:15 01-I Like Chinese
DR14 -0.80 dB -20.46 dB 2:02 02-Spanish Inquisition Part 1
DR15 0.00 dB -21.01 dB 4:10 03-Cheese Shop
DR12 0.00 dB -17.07 dB 2:02 04-Cherry Orchard
DR14 -0.53 dB -20.33 dB 2:49 05-Architect's Sketch
DR13 -0.64 dB -19.61 dB 1:08 06-Spanish Inquisition Part 2
DR11 -1.27 dB -16.71 dB 2:28 07-Spam
DR11 -0.01 dB -18.48 dB 1:09 08-Spanish Inquisition Part 3
DR8 0.00 dB -15.60 dB 0:16 09-Comfy Chair
DR11 -0.06 dB -18.82 dB 1:23 10-Famous Person Quiz
DR12 -0.72 dB -17.73 dB 3:02 11-You Be The Actor
DR12 -3.15 dB -19.70 dB 2:09 12-Nudge Nudge
DR12 -1.27 dB -18.00 dB 3:15 13-Cannibalism
DR11 -1.01 dB -19.38 dB 0:21 14-Spanish Inquisition Revisited
DR12 -1.84 dB -15.64 dB 0:55 15-I Bet You They Won't Play This Song On The Radio
DR13 -3.86 dB -19.83 dB 3:03 16-Bruces
DR13 -0.10 dB -18.24 dB 4:28 17-Bookshop
DR11 -1.34 dB -13.65 dB 0:31 18-Do Wot John
DR14 -1.89 dB -17.26 dB 2:12 19-Rock Notes
DR11 -3.28 dB -17.71 dB 3:17 20-I'm So Worried
DR13 -1.90 dB -17.68 dB 2:48 21-Crocodile
DR10 -3.73 dB -17.46 dB 2:34 22-French Taunter
DR14 -0.72 dB -19.94 dB 2:07 23-Marilyn Monroe
DR17 -1.59 dB -22.80 dB 4:05 24-Swamp Castle
DR13 -1.95 dB -19.63 dB 2:31 25-French Taunter Part 2
DR13 -5.33 dB -26.07 dB 0:16 26-Last Word
––––––––––––––––––––––––––––––––––––––––

Number of tracks: 26
Official DR value: DR12

Samplerate: 44100 Hz
Channels: 2
Bits per sample: 16
Bitrate: 568 kbps
Codec: FLAC
================================================================================

Monty Python - The Final Rip Off (1987) 2 CDs

Monty Python - The Final Rip Off (1987) 2 CDs

All thanks to original releaser - DuckPlumber

More interesting music in My Blog