Subcategories
Tags
Language
Tags

Morcheeba - Who Can You Trust? (1996)

Posted By: Designol
Morcheeba - Who Can You Trust? (1996)

Morcheeba - Who Can You Trust? (1996)
EAC | FLAC | Image (Cue&Log) ~ 280 Mb | Mp3 (CBR320) ~ 128 Mb | Scans ~ 51 Mb
Electronic, Trip Hop, Downtempo | Label: China | # 0630-14373-2 | Time: 00:55:56

Who Can You Trust? is the debut studio album by English electronic music group Morcheeba. It was released in 1996 on China Records in the United Kingdom and Discovery and Sire Records in the United States. Stylistically, the album is by far the band's most trip hop oriented release, consisting of languid, looping grooves, using mostly Rhodes piano, electric guitar and scratching.

Slower, smoother, and more soulful than Portishead and less pop-oriented than the Sneaker Pimps, Morcheeba have an alluringly dark sound that nevertheless remains accessible. As their debut, Who Can You Trust?, illustrates, the trio has a keen sense of how to make a pop melody seem dangerous and foreign by having it crawl out of the murk of creeping beats and ominous samples. Although the group lacks the visionary spark of Tricky and Portishead, and their songs aren't as bracing as the Sneaker Pimps, Morcheeba have a distinctive, idiosyncratic sound that makes Who Can You Trust? entrancing. Although the latter half of the album tends to sound a little samey, without many beats or hooks to distinguish each song, the album remains a hauntingly atmospheric – and quite terrific – debut.

Review by Stephen Thomas Erlewine, Allmusic.com

Morcheeba - Who Can You Trust? (1996)



Tracklist:

01. Moog Island (5:22)
02. Trigger Hippie (5:32)
03. Post Houmous (1:49)
04. Tape Loop (4:23)
05. Never An Easy Way (6:42)
06. Howling (3:41)
07. Small Town (5:10)
08. Enjoy The Wait (1:07)
09. Col (4:09)
10. Who Can You Trust? (8:56)
11. Almost Done (6:39)
12. End Theme (2:28)


Exact Audio Copy V1.0 beta 3 from 29. August 2011

EAC extraction logfile from 23. May 2013, 12:20

Morcheeba / Who Can You Trust?

Used drive : PIONEER BD-RW BDR-206 Adapter: 0 ID: 2

Read mode : Secure
Utilize accurate stream : Yes
Defeat audio cache : Yes
Make use of C2 pointers : No

Read offset correction : 667
Overread into Lead-In and Lead-Out : No
Fill up missing offset samples with silence : Yes
Delete leading and trailing silent blocks : No
Null samples used in CRC calculations : Yes
Used interface : Native Win32 interface for Win NT & 2000

Used output format : User Defined Encoder
Selected bitrate : 1024 kBit/s
Quality : High
Add ID3 tag : Yes
Command line compressor : C:\Program Files\FLAC\flac.exe
Additional command line options : -5 -T "Artist=%artist%" -T "Title=%title%" -T "Album=%albumtitle%" -T "Date=%year%" -T "Tracknumber=%tracknr%" -T "Genre=%genre%" %source% -o %dest%


TOC of the extracted CD

Track | Start | Length | Start sector | End sector
––––––––––––––––––––––––––––-
1 | 0:00.00 | 5:21.67 | 0 | 24141
2 | 5:21.67 | 5:31.60 | 24142 | 49026
3 | 10:53.52 | 1:49.20 | 49027 | 57221
4 | 12:42.72 | 4:22.65 | 57222 | 76936
5 | 17:05.62 | 6:41.73 | 76937 | 107084
6 | 23:47.60 | 3:40.42 | 107085 | 123626
7 | 27:28.27 | 5:09.38 | 123627 | 146839
8 | 32:37.65 | 1:07.07 | 146840 | 151871
9 | 33:44.72 | 4:09.13 | 151872 | 170559
10 | 37:54.10 | 8:55.62 | 170560 | 210746
11 | 46:49.72 | 6:38.68 | 210747 | 240664
12 | 53:28.65 | 2:27.47 | 240665 | 251736


Range status and errors

Selected range

Filename F:\=== VINYL RIPS ===\=== EAC===\X FRESH RIP\Morcheeba - Who Can You Trust.wav

Peak level 98.8 %
Extraction speed 7.2 X
Range quality 100.0 %
Copy CRC F10C6A94
Copy OK

No errors occurred


AccurateRip summary

Track 1 accurately ripped (confidence 34) [EF549719] (AR v2)
Track 2 accurately ripped (confidence 35) [CF58C549] (AR v2)
Track 3 accurately ripped (confidence 35) [8E054635] (AR v2)
Track 4 accurately ripped (confidence 35) [36B06981] (AR v2)
Track 5 accurately ripped (confidence 34) [2DD1901E] (AR v2)
Track 6 accurately ripped (confidence 34) [70F1FAC8] (AR v2)
Track 7 accurately ripped (confidence 35) [20FC15C9] (AR v2)
Track 8 accurately ripped (confidence 35) [285B7F66] (AR v2)
Track 9 accurately ripped (confidence 34) [F15D6185] (AR v2)
Track 10 accurately ripped (confidence 34) [5DA9DAA8] (AR v2)
Track 11 accurately ripped (confidence 32) [0F813894] (AR v2)
Track 12 accurately ripped (confidence 35) [9A093B6E] (AR v2)

All tracks accurately ripped

End of status report

–– CUETools DB Plugin V2.1.3

[CTDB TOCID: P_gMQ49sCjPKz9YeYo59xkd7o8U-] found, Submit result: P_gMQ49sCjPKz9YeYo59xkd7o8U- has been confirmed
[12867ec5] (250/256) Accurately ripped
[13a53c87] (001/256) No match
[e51953ce] (001/256) No match
[a664eed8] (001/256) No match
[d52a47c2] (001/256) No match
[b3673d0d] (001/256) No match
[2322df73] (001/256) No match


==== Log checksum 7DB0130EDAC658E5CB9D32C18CEC4B8207EC3787D5F705E1AD86BB8F39513650 ====

[CUETools log; Date: 14.10.2019 20:35:39; Version: 2.1.4]
[CTDB TOCID: P_gMQ49sCjPKz9YeYo59xkd7o8U-] found.
Track | CTDB Status
1 | (820/843) Accurately ripped
2 | (820/843) Accurately ripped
3 | (826/843) Accurately ripped
4 | (830/843) Accurately ripped
5 | (825/843) Accurately ripped
6 | (828/843) Accurately ripped
7 | (824/843) Accurately ripped
8 | (827/843) Accurately ripped
9 | (815/843) Accurately ripped
10 | (814/843) Accurately ripped
11 | (815/843) Accurately ripped
12 | (816/843) Accurately ripped
[AccurateRip ID: 001892dd-00e588e0-960d1c0c] found.
Track [ CRC | V2 ] Status
01 [6b29c280|ef549719] (200+200/519) Accurately ripped
02 [66937ab9|cf58c549] (200+200/516) Accurately ripped
03 [e7bc0642|8e054635] (200+200/517) Accurately ripped
04 [79e71218|36b06981] (200+200/518) Accurately ripped
05 [b3a02289|2dd1901e] (200+200/514) Accurately ripped
06 [e0615c7e|70f1fac8] (200+200/516) Accurately ripped
07 [c71b0606|20fc15c9] (200+200/517) Accurately ripped
08 [68246a03|285b7f66] (200+200/518) Accurately ripped
09 [70c24ba5|f15d6185] (200+200/518) Accurately ripped
10 [fbc060c2|5da9daa8] (200+200/518) Accurately ripped
11 [c525c055|0f813894] (200+200/516) Accurately ripped
12 [dd1618a8|9a093b6e] (200+200/515) Accurately ripped
Offsetted by -664:
01 [e5bd9d28] (015/519) Accurately ripped
02 [4c2510cb] (015/516) Accurately ripped
03 [b8b13110] (015/517) Accurately ripped
04 [4f674be0] (015/518) Accurately ripped
05 [c082eba9] (015/514) Accurately ripped
06 [0c198f46] (014/516) Accurately ripped
07 [41b44566] (015/517) Accurately ripped
08 [290be8bb] (015/518) Accurately ripped
09 [8404be4d] (015/518) Accurately ripped
10 [4f0950ca] (015/518) Accurately ripped
11 [f4d40fbf] (015/516) Accurately ripped
12 [5924d2ce] (015/515) Accurately ripped
Offsetted by -145:
01 [bd72ea27] (007/519) Accurately ripped
02 [2cb80834] (007/516) Accurately ripped
03 [e1404941] (007/517) Accurately ripped
04 [172d188b] (007/518) Accurately ripped
05 [ff4e9315] (007/514) Accurately ripped
06 [af533951] (007/516) Accurately ripped
07 [15ed112a] (007/517) Accurately ripped
08 [d80cf140] (007/518) Accurately ripped
09 [1edd8ec6] (007/518) Accurately ripped
10 [44102ed3] (007/518) Accurately ripped
11 [1ea59de4] (007/516) Accurately ripped
12 [a6348944] (007/515) Accurately ripped
Offsetted by -71:
01 [e1233541] (002/519) Accurately ripped
02 [6006dddd] (002/516) Accurately ripped
03 [c05caee8] (002/517) Accurately ripped
04 [aff5f02d] (002/518) Accurately ripped
05 [7ea4561d] (002/514) Accurately ripped
06 [e823b533] (002/516) Accurately ripped
07 [f6872b42] (002/517) Accurately ripped
08 [b25c02be] (002/518) Accurately ripped
09 [6062ce22] (003/518) Accurately ripped
10 [b2af7c43] (002/518) Accurately ripped
11 [9442f90b] (002/516) Accurately ripped
12 [6c986627] (002/515) Accurately ripped
Offsetted by 837:
01 [e327ac2d] (010/519) Accurately ripped
02 [4a43620a] (010/516) Accurately ripped
03 [6d95967b] (010/517) Accurately ripped
04 [e6fe1c89] (010/518) Accurately ripped
05 [bbabe68d] (010/514) Accurately ripped
06 [40670d0f] (010/516) Accurately ripped
07 [3dea0a92] (010/517) Accurately ripped
08 [36e7ee22] (010/518) Accurately ripped
09 [ab979ca2] (010/518) Accurately ripped
10 [9291d5eb] (010/518) Accurately ripped
11 [c70895fa] (009/516) Accurately ripped
12 [23fdc2ac] (009/515) Accurately ripped
Offsetted by -694:
01 [e51c329a] (000/519) No match (V2 was not tested)
02 [2557f937] (000/516) No match (V2 was not tested)
03 [0fa4fb74] (000/517) No match (V2 was not tested)
04 [3afa32ba] (000/518) No match (V2 was not tested)
05 [d8ff4991] (000/514) No match (V2 was not tested)
06 [865d4160] (000/516) No match (V2 was not tested)
07 [a175cc1e] (000/517) No match (V2 was not tested)
08 [bbc94281] (000/518) No match (V2 was not tested)
09 [36b631c0] (000/518) No match (V2 was not tested)
10 [d7b2c573] (000/518) No match (V2 was not tested)
11 [7b9a2c47] (000/516) No match (V2 was not tested)
12 [40e31830] (000/515) No match (V2 was not tested)
Offsetted by -682:
01 [4bc32a06] (000/519) No match (V2 was not tested)
02 [8d4e4795] (000/516) No match (V2 was not tested)
03 [47070322] (000/517) No match (V2 was not tested)
04 [76590996] (000/518) No match (V2 was not tested)
05 [02672401] (000/514) No match (V2 was not tested)
06 [88a893bc] (000/516) No match (V2 was not tested)
07 [e18ec96e] (000/517) No match (V2 was not tested)
08 [4de3eb65] (000/518) No match (V2 was not tested)
09 [67975fd0] (000/518) No match (V2 was not tested)
10 [0595968b] (000/518) No match (V2 was not tested)
11 [54cc8080] (000/516) No match (V2 was not tested)
12 [e527ca1b] (000/515) No match (V2 was not tested)
Offsetted by -109:
01 [f167d06b] (000/519) No match (V2 was not tested)
02 [99a1135f] (000/516) No match (V2 was not tested)
03 [e4eb2766] (000/517) No match (V2 was not tested)
04 [c9499d1f] (000/518) No match (V2 was not tested)
05 [7b862265] (000/514) No match (V2 was not tested)
06 [b6353065] (000/516) No match (V2 was not tested)
07 [d638091a] (000/517) No match (V2 was not tested)
08 [8e5cebec] (000/518) No match (V2 was not tested)
09 [958f8b85] (000/518) No match (V2 was not tested)
10 [1eff978c] (000/518) No match (V2 was not tested)
11 [88e69158] (000/516) No match (V2 was not tested)
12 [b42692d4] (000/515) No match (V2 was not tested)
Offsetted by 6:
01 [9e7d3e36] (000/519) No match
02 [860a4363] (000/516) No match
03 [59c74f7c] (000/517) No match
04 [17967d86] (000/518) No match
05 [48540fc1] (000/514) No match
06 [618705ac] (000/516) No match
07 [e72784ae] (000/517) No match
08 [b131be75] (000/518) No match
09 [4e6fbc75] (000/518) No match
10 [03211986] (000/518) No match
11 [2835daf5] (002/516) Accurately ripped
12 [b6226e56] (000/515) No match (V2 was not tested)
Offsetted by 122:
01 [2975eb4a] (000/519) No match (V2 was not tested)
02 [d3a0b565] (000/516) No match (V2 was not tested)
03 [c4c74926] (000/517) No match (V2 was not tested)
04 [002b452a] (000/518) No match (V2 was not tested)
05 [d8954f51] (000/514) No match (V2 was not tested)
06 [225f21d0] (000/516) No match (V2 was not tested)
07 [a819155e] (000/517) No match (V2 was not tested)
08 [8ade1f11] (000/518) No match (V2 was not tested)
09 [ac80f3b3] (000/518) No match (V2 was not tested)
10 [b02b8a20] (000/518) No match (V2 was not tested)
11 [812c7821] (000/516) No match (V2 was not tested)
12 [90a5ad86] (000/515) No match (V2 was not tested)

Track Peak [ CRC32 ] [W/O NULL] [ LOG ]
– 98,8 [F10C6A94] [642D7072] CRC32
01 98,8 [5AE4B894] [14366A18]
02 98,8 [0AA88DCB] [03D6390B]
03 98,8 [E17509BB] [2D4EE645]
04 98,8 [67644941] [D24D3B19]
05 98,8 [F595D464] [5AF0D68B]
06 98,8 [CEF8D5F8] [0AEED294]
07 98,8 [C2A103C7] [BC6ECF55]
08 98,8 [391CFEA9] [7173268C]
09 66,8 [9BE067CF] [766ED442]
10 98,8 [25164A7C] [72F433A3]
11 98,8 [201D3309] [B1B46FE7]
12 98,8 [49BE574F] [3CF0D76A]

foobar2000 1.2 / Dynamic Range Meter 1.1.1
log date: 2019-10-14 21:13:27

––––––––––––––––––––––––––––––––––––––––
Analyzed: Morcheeba / Who Can You Trust?
––––––––––––––––––––––––––––––––––––––––

DR Peak RMS Duration Track
––––––––––––––––––––––––––––––––––––––––
DR10 -0.10 dB -13.63 dB 5:22 01-Moog Island
DR9 -0.10 dB -10.17 dB 5:32 02-Trigger Hippie
DR9 -0.10 dB -10.99 dB 1:49 03-Post Houmous
DR9 -0.10 dB -10.43 dB 4:23 04-Tape Loop
DR9 -0.10 dB -11.21 dB 6:42 05-Never An Easy Way
DR9 -0.10 dB -11.08 dB 3:41 06-Howling
DR10 -0.10 dB -11.97 dB 5:10 07-Small Town
DR10 -0.10 dB -16.55 dB 1:07 08-Enjoy The Wait
DR11 -3.49 dB -17.67 dB 4:09 09-Col
DR10 -0.10 dB -13.17 dB 8:56 10-Who Can You Trust?
DR10 -0.10 dB -12.05 dB 6:39 11-Almost Done
DR10 -0.10 dB -11.50 dB 2:28 12-End Theme
––––––––––––––––––––––––––––––––––––––––

Number of tracks: 12
Official DR value: DR10

Samplerate: 44100 Hz
Channels: 2
Bits per sample: 16
Bitrate: 701 kbps
Codec: FLAC
================================================================================

Morcheeba - Who Can You Trust? (1996)

Morcheeba - Who Can You Trust? (1996)

All thanks to original releaser - luckburz

More interesting music in My Blog