Subcategories

Jules Shear - One More Crooked Dance (2017)

Posted By: aasana
Jules Shear - One More Crooked Dance (2017)

Jules Shear - One More Crooked Dance (2017)
EAC Rip | FLAC (tracks+.cue+.log+.m3u) | 51:15 min | 210 MB
Folk | Label: Funzalo Records

Jules Shear isn t being cagy when he insists he doesn t know what the songs on his 13th studio album, One More Crooked Dance (Funzalo Records) and first since 2013 s Longer to Get to Yesterday are about. He really doesn t, at least without being able to consult a lyric sheet, which is nowhere in sight at the moment. With nary a guitar, bass or drum in earshot, Shear didn t have to wander far from his longtime Woodstock, N.Y., home, corralling locals Pepe (piano), touring partner Molly Farley (vocals) and the legendary John Sebastian (harp) at his neighborhood health food store and somehow cajoling them to join him at his friend s nearby home studio.

Tracklist:
01. Jules Shear - Rules of the Game
02. Jules Shear - Painkiller
03. Jules Shear - Be With You
04. Jules Shear - Don't Remember
05. Jules Shear - Guessing
06. Jules Shear - Looking for Me
07. Jules Shear - The Hunter and the Hunted
08. Jules Shear - A Color That Barely Exists
09. Jules Shear - Oh Marlena
10. Jules Shear - This Flame
11. Jules Shear - Half Hearted Head
12. Jules Shear - When It's Right
13. Jules Shear - Wrong Again

Exact Audio Copy V1.1 from 23. June 2015

EAC extraction logfile from 11. February 2018, 11:05

Jules Shear / One More Crooked Dance

Used drive : HL-DT-STDVDRAM GT50N Adapter: 1 ID: 0

Read mode : Secure
Utilize accurate stream : Yes
Defeat audio cache : Yes
Make use of C2 pointers : No

Read offset correction : 103
Overread into Lead-In and Lead-Out : No
Fill up missing offset samples with silence : Yes
Delete leading and trailing silent blocks : No
Null samples used in CRC calculations : Yes
Used interface : Native Win32 interface for Win NT & 2000
Gap handling : Appended to previous track

Used output format : User Defined Encoder
Selected bitrate : 1024 kBit/s
Quality : High
Add ID3 tag : No
Command line compressor : C:\Program Files (x86)\Exact Audio Copy\Flac\flac.exe
Additional command line options : -8 -e -V -T "ARTIST=%artist%" -T "TITLE=%title%" -T "ALBUM=%albumtitle%" -T "DATE=%year%" -T "TRACKNUMBER=%tracknr%" -T "GENRE=%genre%" -T "PERFORMER=%albuminterpret%" -T "COMPOSER=%composer%" %haslyrics%–tag-from-file=LYRICS="%lyricsfile%"%haslyrics% -T "ALBUMARTIST=%albumartist%" -T "DISCNUMBER=%cdnumber%" -T "TOTALDISCS=%totalcds%" -T "TOTALTRACKS=%numtracks%" -T "COMMENT=%comment%" %source% -o %dest%


TOC of the extracted CD

Track | Start | Length | Start sector | End sector
––––––––––––––––––––––––––––-
1 | 0:00.00 | 3:40.68 | 0 | 16567
2 | 3:40.68 | 3:46.25 | 16568 | 33542
3 | 7:27.18 | 3:54.41 | 33543 | 51133
4 | 11:21.59 | 4:57.45 | 51134 | 73453
5 | 16:19.29 | 3:20.14 | 73454 | 88467
6 | 19:39.43 | 3:53.17 | 88468 | 105959
7 | 23:32.60 | 4:58.44 | 105960 | 128353
8 | 28:31.29 | 3:06.20 | 128354 | 142323
9 | 31:37.49 | 3:08.30 | 142324 | 156453
10 | 34:46.04 | 3:10.24 | 156454 | 170727
11 | 37:56.28 | 3:05.59 | 170728 | 184661
12 | 41:02.12 | 4:27.25 | 184662 | 204711
13 | 45:29.37 | 5:46.06 | 204712 | 230667


Track 1

Filename C:\Rips v2\Jules Shear - One More Crooked Dance {2017} [FNZ0117] (FLAC)\01 - Rules of the Game.wav

Pre-gap length 0:00:02.00

Peak level 67.6 %
Extraction speed 2.4 X
Track quality 100.0 %
Test CRC FD674973
Copy CRC FD674973
Track not present in AccurateRip database
Copy OK

Track 2

Filename C:\Rips v2\Jules Shear - One More Crooked Dance {2017} [FNZ0117] (FLAC)\02 - Painkiller.wav

Pre-gap length 0:00:01.76

Peak level 58.4 %
Extraction speed 2.6 X
Track quality 100.0 %
Test CRC 8E6A9950
Copy CRC 8E6A9950
Track not present in AccurateRip database
Copy OK

Track 3

Filename C:\Rips v2\Jules Shear - One More Crooked Dance {2017} [FNZ0117] (FLAC)\03 - Be With You.wav

Pre-gap length 0:00:01.97

Peak level 61.4 %
Extraction speed 2.9 X
Track quality 100.0 %
Test CRC 7D42C6A9
Copy CRC 7D42C6A9
Track not present in AccurateRip database
Copy OK

Track 4

Filename C:\Rips v2\Jules Shear - One More Crooked Dance {2017} [FNZ0117] (FLAC)\04 - Don't Remember.wav

Pre-gap length 0:00:02.09

Peak level 56.5 %
Extraction speed 3.2 X
Track quality 100.0 %
Test CRC A05EE723
Copy CRC A05EE723
Track not present in AccurateRip database
Copy OK

Track 5

Filename C:\Rips v2\Jules Shear - One More Crooked Dance {2017} [FNZ0117] (FLAC)\05 - Guessing.wav

Pre-gap length 0:00:01.29

Peak level 87.0 %
Extraction speed 2.5 X
Track quality 99.9 %
Test CRC C78636EC
Copy CRC C78636EC
Track not present in AccurateRip database
Copy OK

Track 6

Filename C:\Rips v2\Jules Shear - One More Crooked Dance {2017} [FNZ0117] (FLAC)\06 - Looking for Me.wav

Pre-gap length 0:00:01.93

Peak level 55.8 %
Extraction speed 3.4 X
Track quality 100.0 %
Test CRC 43924E0B
Copy CRC 43924E0B
Track not present in AccurateRip database
Copy OK

Track 7

Filename C:\Rips v2\Jules Shear - One More Crooked Dance {2017} [FNZ0117] (FLAC)\07 - The Hunter and the Hunted.wav

Pre-gap length 0:00:02.09

Peak level 76.0 %
Extraction speed 3.8 X
Track quality 100.0 %
Test CRC DCA1A3C6
Copy CRC DCA1A3C6
Track not present in AccurateRip database
Copy OK

Track 8

Filename C:\Rips v2\Jules Shear - One More Crooked Dance {2017} [FNZ0117] (FLAC)\08 - A Color That Barely Exists.wav

Pre-gap length 0:00:01.57

Peak level 65.4 %
Extraction speed 2.8 X
Track quality 99.9 %
Test CRC 0908BF98
Copy CRC 0908BF98
Track not present in AccurateRip database
Copy OK

Track 9

Filename C:\Rips v2\Jules Shear - One More Crooked Dance {2017} [FNZ0117] (FLAC)\09 - Oh Marlena.wav

Pre-gap length 0:00:02.12

Peak level 72.1 %
Extraction speed 3.9 X
Track quality 100.0 %
Test CRC 10974D4F
Copy CRC 10974D4F
Track not present in AccurateRip database
Copy OK

Track 10

Filename C:\Rips v2\Jules Shear - One More Crooked Dance {2017} [FNZ0117] (FLAC)\10 - This Flame.wav

Pre-gap length 0:00:02.21

Peak level 73.6 %
Extraction speed 2.1 X
Track quality 100.0 %
Test CRC CD88032B
Copy CRC CD88032B
Track not present in AccurateRip database
Copy OK

Track 11

Filename C:\Rips v2\Jules Shear - One More Crooked Dance {2017} [FNZ0117] (FLAC)\11 - Half Hearted Head.wav

Pre-gap length 0:00:02.04

Peak level 72.8 %
Extraction speed 2.1 X
Track quality 100.0 %
Test CRC 9BE6108D
Copy CRC 9BE6108D
Track not present in AccurateRip database
Copy OK

Track 12

Filename C:\Rips v2\Jules Shear - One More Crooked Dance {2017} [FNZ0117] (FLAC)\12 - When It's Right.wav

Pre-gap length 0:00:02.76

Peak level 67.4 %
Extraction speed 2.3 X
Track quality 100.0 %
Test CRC ABF3FA06
Copy CRC ABF3FA06
Track not present in AccurateRip database
Copy OK

Track 13

Filename C:\Rips v2\Jules Shear - One More Crooked Dance {2017} [FNZ0117] (FLAC)\13 - Wrong Again.wav

Pre-gap length 0:00:02.58

Peak level 64.0 %
Extraction speed 3.9 X
Track quality 100.0 %
Test CRC DF823A54
Copy CRC DF823A54
Track not present in AccurateRip database
Copy OK


None of the tracks are present in the AccurateRip database

No errors occurred

End of status report

==== Log checksum E18D8BB34B1C99063367DE72E8DCD42DBD7A397A4B63FFEA4B622849E2CC7D7C ====