Subcategories

Stan Getz - More Getz for Lovers (2006) REUPLOAD

Posted By: technick
Stan Getz - More Getz for Lovers (2006) REUPLOAD

Stan Getz - More Getz for Lovers (2006)
EAC: ape (image) + cue + log | RAR, 3%, 316,95 MB
mp3, 320 kbps | RAR, 3%, 130,65 MB | Scans | RAR, 3%, 16,16 MB
Label: Verve | Cat.№: 0602498351291

Nobody sounds like Stan Getz. And nobody plays a love songs the way he did. Warm, tender, and sensuous, the sound of Stan Getz is the sound of love.
Here are eleven of the most beautiful love songs ever written, all made even more beautiful thanks to the unique Getz treatment. The supporting cast is stellar - Dizzy Gillespie, Abbey Lincoln, Antonio Carlos Jobim, and many others - but it is Getz`s unmistakable saxophone that makes these performances truly unforgettable.
Exact Audio Copy V0.99 prebeta 1 from 25. May 2007

EAC extraction logfile from 10. October 2007, 7:01

Stan Getz / More Stan Getz for Lovers

Used drive : TSSTcorpCD/DVDW SH-S182M Adapter: 1 ID: 1

Read mode : Secure
Utilize accurate stream : Yes
Defeat audio cache : Yes
Make use of C2 pointers : No

Read offset correction : 6
Overread into Lead-In and Lead-Out : No
Fill up missing offset samples with silence : Yes
Delete leading and trailing silent blocks : No
Used interface : Installed external ASPI interface

Used output format : Internal WAV Routines
Sample format : 44.100 Hz; 16 Bit; Stereo


TOC of the extracted CD

Track | Start | Length | Start sector | End sector
––––––––––––––––––––––––––––-
1 | 0:00.00 | 3:20.35 | 0 | 15034
2 | 3:20.35 | 6:48.55 | 15035 | 45689
3 | 10:09.15 | 3:23.65 | 45690 | 60979
4 | 13:33.05 | 6:59.67 | 60980 | 92471
5 | 20:32.72 | 4:18.20 | 92472 | 111841
6 | 24:51.17 | 3:21.63 | 111842 | 126979
7 | 28:13.05 | 6:20.65 | 126980 | 155544
8 | 34:33.70 | 7:25.10 | 155545 | 188929
9 | 41:59.05 | 5:52.20 | 188930 | 215349
10 | 47:51.25 | 5:46.55 | 215350 | 241354
11 | 53:38.05 | 2:44.56 | 241355 | 253710


Range status and errors

Selected range

Filename L:\Download\Rapidshare\Stan Getz - 2006 - Getz for Lovers\Stan Getz - More Stan Getz for Lovers.wav

Peak level 98.8 %
Range quality 100.0 %
Test CRC D2B1F8C1
Copy CRC D2B1F8C1
Copy OK


AccurateRip summary

Track 1 accurately ripped (confidence 2) [B252A03D]
Track 2 accurately ripped (confidence 2) [2BE39EAA]
Track 3 accurately ripped (confidence 2) [1E7A7823]
Track 4 accurately ripped (confidence 2) [BF5EB26B]
Track 5 accurately ripped (confidence 2) [FBF569D9]
Track 6 accurately ripped (confidence 2) [5689BFF7]
Track 7 accurately ripped (confidence 2) [5ED61A11]
Track 8 accurately ripped (confidence 2) [6B11460D]
Track 9 accurately ripped (confidence 2) [518B87D6]
Track 10 accurately ripped (confidence 2) [96AF2207]
Track 11 accurately ripped (confidence 2) [65E59C74]

No errors occurred

End of status report

Tracklist:
01. Thanks for the Memory [03:20]
02. It's the Talk of the Town [06:48]
03. Insensatez (How Insensitive) [03:23]
04. A Nightingale Sang in Berkeley Square [06:59]
05. The Folks Who Live on the Hill [04:18]
06. A Handful of Stars [03:21]
07. Summer Wishes, Winter Dreams [06:20]
08. Soul Eyes [07:25]
09. Desafinado [05:52]
10. When the Sun Comes Out [05:46]
11. Reflections [02:44]
––––––––––––-
Total Time [56:24]

Stan Getz (tenor saxophone) with Dizzy Gillespie (trumpet); Bob Brookmeyer (valve trombone); Kenny Barron, Oscar Peterson (piano); Antonio Carlos Jobim (piano, arranger); Luiz Bonfa, Kenny Burrel, Charlie Bird, Herb Ellis (guitar); Ray Brown, Charlie Haden, Leroy Vinnegar (bass); Roy Haynes, Shelly Manne, Max Roach (drums); Abbey Lincoln (vocal); Lalo Schifrin (arranger, conductor); and others.

No mirrors, please!
Don't post these links at any web pages, please. Keep these files alive!


Welcome to My Blog!
NitroFlare: Part1, Part2, mp3, scans.
pass: kermith