Subcategories

Mort Garson - Mother Earth's Plantasia (1976) [Reissue 2019]

Posted By: gribovar
Mort Garson - Mother Earth's Plantasia (1976) [Reissue 2019]

Mort Garson - Mother Earth's Plantasia (1976) [Reissue 2019]
EAC Rip | FLAC (tracks+.cue+log) - 169 MB | MP3 CBR 320 kbps (LAME 3.93) - 92 MB | Covers (18 MB) included
Genre: Progressive Electronic | RAR 3% Rec. | Label: Sacred Bones Records (SBR3030CD)

In 1976, early electronic composer Mort Garson released an album called Mother Earth’s Plantasia, subtitled "warm earth music for plants… and the people that love them." In the decades following its release, the album went out of print while amassing a cult following among record collectors and plant enthusiasts alike. Sacred Bones has now announced the CD's first official reissue. Mort Garson was a pioneer of electronic music in the 1960s and an early user of Robert Moog's synthesizer. 'Plantasia' released in 1976 added warmth to the previously darker and colder melodies of earlier electronic releases. By turn playful, surreal or sinister, this is a diverse collection of sounds from a true innovator.

Tracklist:
01. Plantasia
02. Symphony for a Spider Plant
03. Baby's Tears Blues
04. Ode to an African Violet
05. Concerto for Philodendron and Pothos
06. Rhapsody in Green
07. Swingin' Spathiphyllums
08. You Don't Have to Walk a Begonia
09. A Mellow Mood for Maidenhair
10. Music to Soothe the Savage Snake Plant

Total time: 30:55

Exact Audio Copy V1.3 from 2. September 2016

EAC extraction logfile from 22. June 2019, 23:13

Mort Garson / Mother Earth's Plantasia

Used drive : ATAPI DVD A DH16AASH Adapter: 1 ID: 0

Read mode : Secure
Utilize accurate stream : Yes
Defeat audio cache : Yes
Make use of C2 pointers : No

Read offset correction : 6
Overread into Lead-In and Lead-Out : No
Fill up missing offset samples with silence : Yes
Delete leading and trailing silent blocks : No
Null samples used in CRC calculations : Yes
Used interface : Native Win32 interface for Win NT & 2000
Gap handling : Appended to previous track

Used output format : User Defined Encoder
Selected bitrate : 1024 kBit/s
Quality : High
Add ID3 tag : No
Command line compressor : C:\Program Files (x86)\Exact Audio Copy\Flac\flac.exe
Additional command line options : -8 -e -V -T "ARTIST=%artist%" -T "TITLE=%title%" -T "ALBUM=%albumtitle%" -T "DATE=%year%" -T "TRACKNUMBER=%tracknr%" -T "GENRE=%genre%" -T "PERFORMER=%albuminterpret%" -T "COMPOSER=%composer%" %haslyrics%–tag-from-file=LYRICS="%lyricsfile%"%haslyrics% -T "ALBUMARTIST=%albumartist%" -T "DISCNUMBER=%cdnumber%" -T "TOTALDISCS=%totalcds%" -T "TOTALTRACKS=%numtracks%" -T "COMMENT=%comment%" %source% -o %dest%


TOC of the extracted CD

Track | Start | Length | Start sector | End sector
––––––––––––––––––––––––––––-
1 | 0:00.00 | 3:21.15 | 0 | 15089
2 | 3:21.15 | 2:41.09 | 15090 | 27173
3 | 6:02.24 | 3:03.26 | 27174 | 40924
4 | 9:05.50 | 4:02.53 | 40925 | 59127
5 | 13:08.28 | 3:08.56 | 59128 | 73283
6 | 16:17.09 | 3:27.43 | 73284 | 88851
7 | 19:44.52 | 2:58.50 | 88852 | 102251
8 | 22:43.27 | 2:31.06 | 102252 | 113582
9 | 25:14.33 | 2:17.07 | 113583 | 123864
10 | 27:31.40 | 3:23.23 | 123865 | 139112


Track 1

Filename X:\G\Mort Garson\1976 Mother Earth's Plantasia {2019 SBR-3030}\01 - Plantasia.wav

Pre-gap length 0:00:02.00

Peak level 96.5 %
Extraction speed 2.5 X
Track quality 99.9 %
Test CRC C5258380
Copy CRC C5258380
Track not present in AccurateRip database
Copy OK

Track 2

Filename X:\G\Mort Garson\1976 Mother Earth's Plantasia {2019 SBR-3030}\02 - Symphony for a Spider Plant.wav

Peak level 96.5 %
Extraction speed 3.4 X
Track quality 100.0 %
Test CRC AB6C9728
Copy CRC AB6C9728
Track not present in AccurateRip database
Copy OK

Track 3

Filename X:\G\Mort Garson\1976 Mother Earth's Plantasia {2019 SBR-3030}\03 - Baby's Tears Blues.wav

Peak level 96.5 %
Extraction speed 3.7 X
Track quality 100.0 %
Test CRC 12894055
Copy CRC 12894055
Track not present in AccurateRip database
Copy OK

Track 4

Filename X:\G\Mort Garson\1976 Mother Earth's Plantasia {2019 SBR-3030}\04 - Ode to an African Violet.wav

Peak level 96.5 %
Extraction speed 3.4 X
Track quality 99.9 %
Test CRC 993BB5B9
Copy CRC 993BB5B9
Track not present in AccurateRip database
Copy OK

Track 5

Filename X:\G\Mort Garson\1976 Mother Earth's Plantasia {2019 SBR-3030}\05 - Concerto for Philodendron and Pothos.wav

Peak level 96.5 %
Extraction speed 4.2 X
Track quality 100.0 %
Test CRC 8298171F
Copy CRC 8298171F
Track not present in AccurateRip database
Copy OK

Track 6

Filename X:\G\Mort Garson\1976 Mother Earth's Plantasia {2019 SBR-3030}\06 - Rhapsody in Green.wav

Peak level 96.5 %
Extraction speed 4.5 X
Track quality 100.0 %
Test CRC 5F39CDFF
Copy CRC 5F39CDFF
Track not present in AccurateRip database
Copy OK

Track 7

Filename X:\G\Mort Garson\1976 Mother Earth's Plantasia {2019 SBR-3030}\07 - Swingin' Spathiphyllums.wav

Peak level 96.5 %
Extraction speed 4.6 X
Track quality 100.0 %
Test CRC 81FF6C02
Copy CRC 81FF6C02
Track not present in AccurateRip database
Copy OK

Track 8

Filename X:\G\Mort Garson\1976 Mother Earth's Plantasia {2019 SBR-3030}\08 - You Don't Have to Walk a Begonia.wav

Peak level 96.5 %
Extraction speed 3.4 X
Track quality 99.9 %
Test CRC BDFC04B1
Copy CRC BDFC04B1
Track not present in AccurateRip database
Copy OK

Track 9

Filename X:\G\Mort Garson\1976 Mother Earth's Plantasia {2019 SBR-3030}\09 - A Mellow Mood for Maidenhair.wav

Peak level 96.5 %
Extraction speed 3.4 X
Track quality 99.9 %
Test CRC BD205F3A
Copy CRC BD205F3A
Track not present in AccurateRip database
Copy OK

Track 10

Filename X:\G\Mort Garson\1976 Mother Earth's Plantasia {2019 SBR-3030}\10 - Music to Soothe the Savage Snake Plant.wav

Peak level 96.5 %
Extraction speed 5.2 X
Track quality 100.0 %
Test CRC F488664F
Copy CRC F488664F
Track not present in AccurateRip database
Copy OK


None of the tracks are present in the AccurateRip database

No errors occurred

End of status report

–– CUETools DB Plugin V2.1.6

[CTDB TOCID: BFpIF.OmGDfK9UnCv.sLKbohlA4-] disk not present in database
Submit result: BFpIF.OmGDfK9UnCv.sLKbohlA4- has been uploaded


==== Log checksum EBB72A29DD7F1430635A1CE84F7902D4A85F96E7DB8235B4455F2D26F91A3E3C ====

[CUETools log; Date: 24.06.2019 14:15:56; Version: 2.1.4]
[CTDB TOCID: BFpIF.OmGDfK9UnCv.sLKbohlA4-] found.
Track | CTDB Status
1 | (1/1) Accurately ripped
2 | (1/1) Accurately ripped
3 | (1/1) Accurately ripped
4 | (1/1) Accurately ripped
5 | (1/1) Accurately ripped
6 | (1/1) Accurately ripped
7 | (1/1) Accurately ripped
8 | (1/1) Accurately ripped
9 | (1/1) Accurately ripped
10 | (1/1) Accurately ripped
[AccurateRip ID: 000bf3a2-005f3e4b-88073e0a] disk not present in database.

Track Peak [ CRC32 ] [W/O NULL] [ LOG ]
– 96,5 [9475205E] [70D8216D]
01 96,5 [C5258380] [0D819A48] CRC32
02 96,5 [AB6C9728] [03ED74E9] CRC32
03 96,5 [12894055] [B0ACC9E6] CRC32
04 96,5 [993BB5B9] [0A76ABC2] CRC32
05 96,5 [8298171F] [9530705A] CRC32
06 96,5 [5F39CDFF] [4BDCB1D9] CRC32
07 96,5 [81FF6C02] [ADDA8180] CRC32
08 96,5 [BDFC04B1] [DA301436] CRC32
09 96,5 [BD205F3A] [463B71B2] CRC32
10 96,5 [F488664F] [CA591659] CRC32

Thanks to the original releaser