Subcategories

The Film Score Orchestra (VA) - Movie Love Songs (1997)

Posted By: Designol
The Film Score Orchestra (VA) - Movie Love Songs (1997)

The Film Score Orchestra - Movie Love Songs (1997)
EAC | FLAC | Tracks (Cue&Log) ~ 452 Mb | Mp3 (CBR320) ~ 186 Mb | Scans included
Soundtracks, Pop, Soul, Easy Listening | Label: Going For A Song | # GFS024 | Time: 01:16:06

20 great songs. 'Up Where We Belong', 'Take My Breath Away', 'I Just Called to Say I Love You', 'Time of My Life', 'Stand by Me', 'What a Wonderful World', 'It Must Have Been Love', '(Everything I Do) I Do It for You', 'The Crying Game' and more, and more…

Tracklist:

01. Up Where We Belong (04:12) from 'An Officer And A Gentleman' (1982)
02. Take My Breath Away (04:05) from 'Top Gun' (1986)
03. I Just Called to Say I Love You (04:20) from 'The Woman in Red' (1984)
04. Time of My Life (04:38) from 'Dirty Dancing' (1987)
05. Against All Odds (03:24) from 'Against All Odds' (1984)
06. He Ain't Heavy, He's My Brother (04:21)
07. Say You, Say Me (04:07) from 'White Nights' (1985)
08. The Way We Were (03:15) from 'The Way We Were' (1973)
09. Stand by Me (02:58) from 'Stand by Me' (1986)
10. Almost Paradise (03:46) from 'Footloose' (1984)
11. You Light Up My Life (03:41) from 'You Light Up My Life' (1977)
12. What a Wonderful World (02:26)
13. It Must Have Been Love (04:27) from 'Pretty Woman' (1990)
14. Unchained Melody (03:33) from 'Ghost' (1990)
15. A Groovy Kind of Love (03:22) from 'Buster' (1988)
16. Let the River Run (03:23) from 'Working Girl' (1988)
17. The Glory of Love (04:14) from 'The Karate Kid, Part II' (1986)
18. Endless Love (04:16) from 'Endless Love' (1981)
19. (Everything I Do) I Do It for You (04:07) from 'Robin Hood: Prince of Thieves' (1991)
20. The Crying Game (03:21) from 'The Crying Game' (1992)


Exact Audio Copy V1.0 beta 3 from 29. August 2011

Отчёт EAC об извлечении, выполненном 12. октября 2015, 20:04

Various Artists / Movie Love Songs

Дисковод: TSSTcorpCDDVDW SH-222BB Adapter: 3 ID: 0

Режим чтения : Достоверность
Использование точного потока : Да
Отключение кэша аудио : Да
Использование указателей C2 : Нет

Коррекция смещения при чтении : 6
Способность читать области Lead-in и Lead-out : Нет
Заполнение пропущенных сэмплов тишиной : Да
Удаление блоков с тишиной в начале и конце : Нет
При вычислениях CRC использовались нулевые сэмплы : Да
Интерфейс : Установленный внешний ASPI-интерфейс
Обработка зазоров : Добавлено к предыдущему треку

Выходной формат : Пользовательский кодировщик
Выбранный битрейт : 128 kBit/s
Качество : Высокий
Добавление ID3-тега : Нет
Утилита сжатия : C:\Program Files\Exact Audio Copy\FLAC\FLAC.EXE
Дополнительные параметры : -V -8 -T "Genre=%genre%" -T "Artist=%artist%" -T "Title=%title%" -T "Album=%albumtitle%" -T "Date=%year%" -T "Tracknumber=%tracknr%" -T "Comment=%comment%" %source%


TOC извлечённого CD

Трек | Старт | Длительность | Начальный сектор | Конечный сектор
––––––––––––––––––––––––––––––––––-
1 | 0:00.00 | 4:14.07 | 0 | 19056
2 | 4:14.07 | 4:07.10 | 19057 | 37591
3 | 8:21.17 | 4:22.13 | 37592 | 57254
4 | 12:43.30 | 4:39.60 | 57255 | 78239
5 | 17:23.15 | 3:25.32 | 78240 | 93646
6 | 20:48.47 | 4:23.05 | 93647 | 113376
7 | 25:11.52 | 4:08.63 | 113377 | 132039
8 | 29:20.40 | 3:16.60 | 132040 | 146799
9 | 32:37.25 | 2:59.25 | 146800 | 160249
10 | 35:36.50 | 3:47.55 | 160250 | 177329
11 | 39:24.30 | 3:42.25 | 177330 | 194004
12 | 43:06.55 | 2:27.17 | 194005 | 205046
13 | 45:33.72 | 4:29.05 | 205047 | 225226
14 | 50:03.02 | 3:34.50 | 225227 | 241326
15 | 53:37.52 | 3:23.35 | 241327 | 256586
16 | 57:01.12 | 3:24.25 | 256587 | 271911
17 | 60:25.37 | 4:14.65 | 271912 | 291026
18 | 64:40.27 | 4:17.33 | 291027 | 310334
19 | 68:57.60 | 4:08.02 | 310335 | 328936
20 | 73:05.62 | 3:21.15 | 328937 | 344026


Трек 1

Имя файла I:\MOI_RAZDACI\VA Movie Love Songs\VA_Movie.Love.Songs_1997\01. Jack Nitzsche & Buffy Sainte-Marie - Up Where We Belong.wav

Длина предзазора 0:00:02.00

Пиковый уровень 82.6 %
Скорость извлечения 1.9 X
Качество трека 100.0 %
CRC теста 3BBD55FE
CRC копии 3BBD55FE
Точность не определена (достоверность 3) [EB201E2B], AccurateRip вернул [0E25B378] (AR v2)
Копирование… OK

Трек 2

Имя файла I:\MOI_RAZDACI\VA Movie Love Songs\VA_Movie.Love.Songs_1997\02. Giorgio Moroder & Tom Whitlock - Take My Breath Away.wav

Длина предзазора 0:00:01.15

Пиковый уровень 82.1 %
Скорость извлечения 2.1 X
Качество трека 100.0 %
CRC теста DF371FB8
CRC копии DF371FB8
Точность не определена (достоверность 3) [E2585C96], AccurateRip вернул [96F6EEC6] (AR v2)
Копирование… OK

Трек 3

Имя файла I:\MOI_RAZDACI\VA Movie Love Songs\VA_Movie.Love.Songs_1997\03. Stevie Wonder - I Just Called to Say I Love You.wav

Длина предзазора 0:00:01.15

Пиковый уровень 81.9 %
Скорость извлечения 2.3 X
Качество трека 100.0 %
CRC теста 8D9314A3
CRC копии 8D9314A3
Точность не определена (достоверность 3) [4125A471], AccurateRip вернул [14548722] (AR v2)
Копирование… OK

Трек 4

Имя файла I:\MOI_RAZDACI\VA Movie Love Songs\VA_Movie.Love.Songs_1997\04. Franke Previte, John DeNicola & Donald Markowitz - Time of My Life.wav

Длина предзазора 0:00:01.16

Пиковый уровень 85.1 %
Скорость извлечения 2.5 X
Качество трека 100.0 %
CRC теста 7500E23D
CRC копии 7500E23D
Точность не определена (достоверность 3) [80E41F81], AccurateRip вернул [B22709B8] (AR v2)
Копирование… OK

Трек 5

Имя файла I:\MOI_RAZDACI\VA Movie Love Songs\VA_Movie.Love.Songs_1997\05. Phil Collins - Against All Odds.wav

Длина предзазора 0:00:01.09

Пиковый уровень 82.7 %
Скорость извлечения 2.5 X
Качество трека 100.0 %
CRC теста 1F2AE678
CRC копии 1F2AE678
Точность не определена (достоверность 3) [18F0E059], AccurateRip вернул [B40C95BE] (AR v2)
Копирование… OK

Трек 6

Имя файла I:\MOI_RAZDACI\VA Movie Love Songs\VA_Movie.Love.Songs_1997\06. Bobby Scott - He Ain't Heavy, He's My Brother.wav

Длина предзазора 0:00:01.14

Пиковый уровень 81.2 %
Скорость извлечения 2.8 X
Качество трека 100.0 %
CRC теста AD93607B
CRC копии AD93607B
Точность не определена (достоверность 3) [FEA0DF96], AccurateRip вернул [B0154DBC] (AR v2)
Копирование… OK

Трек 7

Имя файла I:\MOI_RAZDACI\VA Movie Love Songs\VA_Movie.Love.Songs_1997\07. Lionel Richie - Say You, Say Me.wav

Длина предзазора 0:00:01.08

Пиковый уровень 83.3 %
Скорость извлечения 2.9 X
Качество трека 100.0 %
CRC теста 15AC94C5
CRC копии 15AC94C5
Точность не определена (достоверность 3) [DC53A241], AccurateRip вернул [38AEC19D] (AR v2)
Копирование… OK

Трек 8

Имя файла I:\MOI_RAZDACI\VA Movie Love Songs\VA_Movie.Love.Songs_1997\08. Marvin Hamlisch - The Way We Were.wav

Длина предзазора 0:00:00.69

Пиковый уровень 80.6 %
Скорость извлечения 2.9 X
Качество трека 100.0 %
CRC теста BF4EA127
CRC копии BF4EA127
Точность не определена (достоверность 3) [37FEA963], AccurateRip вернул [B2EBC81B] (AR v2)
Копирование… OK

Трек 9

Имя файла I:\MOI_RAZDACI\VA Movie Love Songs\VA_Movie.Love.Songs_1997\09. Ben E. King, Jerry Leiber & Mike Stoller - Stand by Me.wav

Длина предзазора 0:00:01.09

Пиковый уровень 80.1 %
Скорость извлечения 3.0 X
Качество трека 100.0 %
CRC теста 7E6A643B
CRC копии 7E6A643B
Точность не определена (достоверность 3) [E6EA9A70], AccurateRip вернул [255AC4F9] (AR v2)
Копирование… OK

Трек 10

Имя файла I:\MOI_RAZDACI\VA Movie Love Songs\VA_Movie.Love.Songs_1997\10. Eric Carmen - Almost Paradise.wav

Длина предзазора 0:00:00.72

Пиковый уровень 83.4 %
Скорость извлечения 2.4 X
Качество трека 99.9 %
CRC теста 4D7CAF1C
CRC копии 4D7CAF1C
Точность не определена (достоверность 3) [997CF52B], AccurateRip вернул [823446C3] (AR v2)
Копирование… OK

Трек 11

Имя файла I:\MOI_RAZDACI\VA Movie Love Songs\VA_Movie.Love.Songs_1997\11. Joseph Brooks - You Light Up My Life.wav

Длина предзазора 0:00:01.04

Пиковый уровень 80.2 %
Скорость извлечения 3.2 X
Качество трека 100.0 %
CRC теста 33956199
CRC копии 33956199
Точность не определена (достоверность 3) [CE4F038F], AccurateRip вернул [094C3E9C] (AR v2)
Копирование… OK

Трек 12

Имя файла I:\MOI_RAZDACI\VA Movie Love Songs\VA_Movie.Love.Songs_1997\12. George Weiss & Bob Thiele - What a Wonderful World.wav

Длина предзазора 0:00:01.21

Пиковый уровень 80.0 %
Скорость извлечения 3.1 X
Качество трека 100.0 %
CRC теста 4437D8F9
CRC копии 4437D8F9
Точность не определена (достоверность 3) [C9A17C59], AccurateRip вернул [42031421] (AR v2)
Копирование… OK

Трек 13

Имя файла I:\MOI_RAZDACI\VA Movie Love Songs\VA_Movie.Love.Songs_1997\13. Per Gessle - It Must Have Been Love.wav

Длина предзазора 0:00:01.15

Пиковый уровень 84.0 %
Скорость извлечения 3.5 X
Качество трека 100.0 %
CRC теста 7A589E07
CRC копии 7A589E07
Точность не определена (достоверность 3) [CA196E80], AccurateRip вернул [285733D3] (AR v2)
Копирование… OK

Трек 14

Имя файла I:\MOI_RAZDACI\VA Movie Love Songs\VA_Movie.Love.Songs_1997\14. Alex North - Unchained Melody.wav

Длина предзазора 0:00:01.10

Пиковый уровень 82.8 %
Скорость извлечения 3.5 X
Качество трека 100.0 %
CRC теста 3F076ED0
CRC копии 3F076ED0
Точность не определена (достоверность 3) [6C3B6E8D], AccurateRip вернул [F1837CC5] (AR v2)
Копирование… OK

Трек 15

Имя файла I:\MOI_RAZDACI\VA Movie Love Songs\VA_Movie.Love.Songs_1997\15. Toni Wine & Carole Bayer Sager - A Groovy Kind of Love.wav

Длина предзазора 0:00:01.13

Пиковый уровень 81.4 %
Скорость извлечения 3.5 X
Качество трека 100.0 %
CRC теста EAECB0A9
CRC копии EAECB0A9
Точность не определена (достоверность 3) [35F02CF7], AccurateRip вернул [A038C618] (AR v2)
Копирование… OK

Трек 16

Имя файла I:\MOI_RAZDACI\VA Movie Love Songs\VA_Movie.Love.Songs_1997\16. Carly Simon - Let the River Run.wav

Длина предзазора 0:00:01.13

Пиковый уровень 82.8 %
Скорость извлечения 3.6 X
Качество трека 100.0 %
CRC теста 2338297B
CRC копии 2338297B
Точность не определена (достоверность 3) [F899CAB3], AccurateRip вернул [46114FD8] (AR v2)
Копирование… OK

Трек 17

Имя файла I:\MOI_RAZDACI\VA Movie Love Songs\VA_Movie.Love.Songs_1997\17. Peter Cetera, David Foster & Diane Nini - The Glory of Love.wav

Длина предзазора 0:00:00.66

Пиковый уровень 83.4 %
Скорость извлечения 3.8 X
Качество трека 100.0 %
CRC теста 0C62BCB3
CRC копии 0C62BCB3
Точность не определена (достоверность 3) [3E3601FD], AccurateRip вернул [36FC4887] (AR v2)
Копирование… OK

Трек 18

Имя файла I:\MOI_RAZDACI\VA Movie Love Songs\VA_Movie.Love.Songs_1997\18. Lionel Richie - Endless Love.wav

Длина предзазора 0:00:00.53

Пиковый уровень 85.3 %
Скорость извлечения 3.9 X
Качество трека 100.0 %
CRC теста 32D21127
CRC копии 32D21127
Точность не определена (достоверность 3) [46AFA779], AccurateRip вернул [251D8D8E] (AR v2)
Копирование… OK

Трек 19

Имя файла I:\MOI_RAZDACI\VA Movie Love Songs\VA_Movie.Love.Songs_1997\19. Bryan Adams, Robert John “Mutt” Lange & Michael Kamen - (Everything I Do) I Do It for You.wav

Длина предзазора 0:00:00.57

Пиковый уровень 88.6 %
Скорость извлечения 4.0 X
Качество трека 100.0 %
CRC теста 10FCA9EC
CRC копии 10FCA9EC
Точность не определена (достоверность 2) [709D0126], AccurateRip вернул [FD45FC7A] (AR v2)
Копирование… OK

Трек 20

Имя файла I:\MOI_RAZDACI\VA Movie Love Songs\VA_Movie.Love.Songs_1997\20. Geoff Stephens - The Crying Game.wav

Длина предзазора 0:00:00.63

Пиковый уровень 92.2 %
Скорость извлечения 2.6 X
Качество трека 99.9 %
CRC теста C027185B
CRC копии C027185B
Точность не определена (достоверность 3) [6EAD9EBA], AccurateRip вернул [BC53781F] (AR v2)
Копирование… OK


Ни один трек не прошёл проверки на точность
В вашей базе может быть иной вариант штамповки диска

Ошибок не произошло

Конец отчёта

==== Контрольная сумма отчёта 493BD513C851AA17382ED8E08C86542895C778472B734962D21032E59EF4AA69 ====

foobar2000 1.2 / Dynamic Range Meter 1.1.1
log date: 2015-10-13 12:29:02

––––––––––––––––––––––––––––––––––––––––
Analyzed: Alex North / Movie Love Songs (1)
Ben E. King, Jerry Leiber & Mike Stoller / Movie Love Songs (2)
Bobby Scott / Movie Love Songs (3)
Bryan Adams, Robert John “Mutt” Lange & Michael Kamen / Movie Love Songs (4)
Carly Simon / Movie Love Songs (5)
Eric Carmen / Movie Love Songs (6)
Franke Previte, John DeNicola & Donald Markowitz / Movie Love Songs (7)
Geoff Stephens / Movie Love Songs (8)
George Weiss & Bob Thiele / Movie Love Songs (9)
Giorgio Moroder & Tom Whitlock / Movie Love Songs (10)
Jack Nitzsche & Buffy Sainte-Marie / Movie Love Songs (11)
Joseph Brooks / Movie Love Songs (12)
Lionel Richie / Movie Love Songs (13-14)
Marvin Hamlisch / Movie Love Songs (15)
Per Gessle / Movie Love Songs (16)
Peter Cetera, David Foster & Diane Nini / Movie Love Songs (17)
Phil Collins / Movie Love Songs (18)
Stevie Wonder / Movie Love Songs (19)
Toni Wine & Carole Bayer Sager / Movie Love Songs (20)
––––––––––––––––––––––––––––––––––––––––

DR Peak RMS Duration Track
––––––––––––––––––––––––––––––––––––––––
DR10 -1.64 dB -14.67 dB 3:35 14-Unchained Melody
DR9 -1.92 dB -12.26 dB 2:59 09-Stand by Me
DR9 -1.80 dB -11.87 dB 4:23 06-He Ain't Heavy, He's My Brother
DR9 -1.05 dB -14.53 dB 4:08 19-(Everything I Do) I Do It for You
DR9 -1.63 dB -12.29 dB 3:24 16-Let the River Run
DR10 -1.57 dB -14.45 dB 3:48 10-Almost Paradise
DR9 -1.40 dB -11.96 dB 4:40 04-Time of My Life
DR12 -0.70 dB -13.82 dB 3:21 20-The Crying Game
DR11 -1.93 dB -15.96 dB 2:27 12-What a Wonderful World
DR9 -1.71 dB -11.70 dB 4:07 02-Take My Breath Away
DR10 -1.66 dB -14.96 dB 4:14 01-Up Where We Belong
DR10 -1.91 dB -15.43 dB 3:42 11-You Light Up My Life
DR11 -1.58 dB -14.18 dB 4:09 07-Say You, Say Me
DR10 -1.38 dB -13.55 dB 4:17 18-Endless Love
DR9 -1.86 dB -13.96 dB 3:17 08-The Way We Were
DR8 -1.51 dB -11.07 dB 4:29 13-It Must Have Been Love
DR9 -1.57 dB -11.51 dB 4:15 17-The Glory of Love
DR9 -1.64 dB -13.16 dB 3:25 05-Against All Odds
DR8 -1.73 dB -10.38 dB 4:22 03-I Just Called to Say I Love You
DR11 -1.78 dB -14.32 dB 3:23 15-A Groovy Kind of Love
––––––––––––––––––––––––––––––––––––––––

Number of tracks: 20
Official DR value: DR10

Samplerate: 44100 Hz
Channels: 2
Bits per sample: 16
Bitrate: 760 kbps
Codec: FLAC
================================================================================

The Film Score Orchestra (VA) - Movie Love Songs (1997)

The Film Score Orchestra (VA) - Movie Love Songs (1997)

All thanks to original releaser - stas64

More interesting music in My Blog