Subcategories

John Eliot Gardiner, The English Baroque Soloisits, The Monteverdi Choir - Mozart: Idomeneo [1991]

Posted By: ArlegZ
John Eliot Gardiner, The English Baroque Soloisits, The Monteverdi Choir - Mozart: Idomeneo [1991]

John Eliot Gardiner, The English Baroque Soloisits, The Monteverdi Choir - Mozart: Idomeneo[1991]
EAC | FLAC | Image (Cue & Log) ~ 832 Mb | Total time: 78:02+70:45+61:46 | Scans included
Classical | Label: Archiv Produktion | # 431 674-2 | Recorded: 1990

“This is unquestionably the most vital and authentic account of Idomeneo to date on disc. We have here what was given at the work's first performance in Munich plus, in appendices, what Mozart wanted, or was forced, to cut before that premiere and the alternative versions of certain passages, so that various combinations of the piece can be programmed by the listener. Gardiner's direct, dramatic conducting catches ideally the agony of Idomeneo's terrible predicament – forced to sacrifice his son because of an unwise row. This torment of the soul is also entirely conveyed by Anthony Rolfe Johnson in the title role to which Anne Sofie von Otter's moving Idamante is an apt foil. Sylvia McNair is a diaphanous, pure-voiced Ilia, Hillevi Martinpelto a properly fiery, sharp-edged Elettra.
With dedicated support from his own choir and orchestra, who obviously benefited from a long period of preparation, Gardiner matches the stature of this noble opera seria. The recording catches the excitement which all who heard the live performances will recall.”
(Gramophone)

Performer:
Idomeneo - Anthony Rolfe Johnson
Idamante - Anne Sofie von Otter
Ilia - Sylvia McNair
Elettra - Hillevi Martinpelto
Arbace - Nigel Robson
La Voce - Cornelius Hauptmann
The Monteverdi Choir
The English Baroque Soloists
Conductor - John Eliot Gardiner


CD1:
01. Ouverture
Atto Primo
02. "Quando avran fine omai" - "Padre, germani, addio!" - "Ecco Idamante, ahimè!"(Ilia)
03. "Radunate i Troiani" - "Non ho colpa, e mi condanni" (Idamante, Ilia)
04. "Ecco il misero resto de'Troiani"-"Scingete le catene" (Ilia, Idamante)
05. "Godiam la pace" - "Prence, signor" - "Ma quel pianto" - "Estinto è Idomeneo?" - "Tutte nel cor vi sento" - "Pietà! Numi, pietà!" - "Eccoci salvi alfin" - "Oh voi"
06. "Vedrommi intorno"-"Cieli!che veggo?"-"Spiagge romite"
07. "Il padre adorato"
08. Intermezzo: Marcia
09. "Nettuno s'onori"
Atto Secondo
10. Tutto m'è noto (Idomeneo, Arbace)
11. Se il tuo duol, se il mio desio
12. "Se mai pomposo apparse"
13. "Se il padre perdei"
14. "Qual mi conturba i sensi"
15. "Fuor del mar"
CD2:
01. "Frettolosa e giuliva Elettra vien"-"Chi mai del mio provò" (Elettra, Idomeneo)
02. "Idol mio, se ritroso"
03. "Odo da lunge armonioso suono"
04. "Sidonie sponde!"
05. "Placido è il mar" - "Soavi Zeffiri" -"Vattene prence" - "Pria di partir, oh Dio!" - "Qual nuovo terrore!" - "Eccoti in me, barbaro Nume!" - "Corriamo, fuggiamo"
Atto Terzo
06. "Solitudini amiche"
07. "Zeffiretti lusinghieri" - "Ei stesso vien… oh Dei!"
08. "Principessa, a' tuoi sguardi" - "S'io non moro a questi accenti" - "Cieli! che vedo?"
09. "Dunque io me n'andrò" - "Andrò ramingo e solo" (Idamante, Ilia, Idomeneo, Elettra)
10. "Sire, alla reggia tua"
11. "Sventurata Sidon!"
12. "Se colà ne' fati è scritto"
13. "Volgi intorno lo sguardo"
14. "O voto tremendo"
15. Marcia
16. "Accogli, o rè del mar"
Appendix - Atto II, Scena 3 (fine) - Scena 4
17. "Frettolosa e giuliva Elettra vien" - "Sire, da Arbace intesi" - "Chi mai del mio provò"
CD3:
01. "Stupenda vittoria!"-"Qual risuona"-"Sire, il prence"
02. "Padre, mio caro padre"
03. "No, la morte io non pavento"
04. Ma che più tardi
05. "Ferma, oh sire, che fai?"
06. "Ha vinto Amore"
07. "Oh ciel pietoso!"-"Oh smania! oh furie!"-"D'Oreste, d'Aiace (Idomeneo, Idamante, Ilia, Arbace, Elettra)
08. "Popoli, a voi l'ultima legge"
09. "Torna la pace al core"
10. "Scenda Amor, scenda Imeneo"
11. Ballet Music from "Idomeneo", K.367
Appendix - Atto III, Scena 10
12. Ferma, oh sire, che fai?
13. A Idomeneo perdona
14. Ha vinto Amore
15. "Oh ciel pietoso!" - "Oh smania! oh furie!"


Exact Audio Copy V1.0 beta 3 from 29. August 2011

EAC extraction logfile from 12. August 2017, 0:20

John Eliot Gardiner, The English Baroque Soloists / Mozart - Idomeneo CD1

Used drive : HL-DT-STDVDRAM GH24NS95 Adapter: 0 ID: 0

Read mode : Secure
Utilize accurate stream : Yes
Defeat audio cache : Yes
Make use of C2 pointers : No

Read offset correction : 6
Overread into Lead-In and Lead-Out : No
Fill up missing offset samples with silence : Yes
Delete leading and trailing silent blocks : No
Null samples used in CRC calculations : Yes
Used interface : Native Win32 interface for Win NT & 2000

Used output format : User Defined Encoder
Selected bitrate : 128 kBit/s
Quality : High
Add ID3 tag : No
Command line compressor : C:\Program Files\Exact Audio Copy\Flac\flac.exe
Additional command line options : -V -8 -T "Date=%year%" -T "Genre=%genre%" %source%


TOC of the extracted CD

Track | Start | Length | Start sector | End sector
––––––––––––––––––––––––––––-
1 | 0:00.33 | 4:28.02 | 33 | 20134
2 | 4:28.35 | 7:42.73 | 20135 | 54857
3 | 12:11.33 | 8:49.50 | 54858 | 94582
4 | 21:01.08 | 1:01.50 | 94583 | 99207
5 | 22:02.58 | 13:45.50 | 99208 | 161132
6 | 35:48.33 | 8:49.70 | 161133 | 200877
7 | 44:38.28 | 2:51.05 | 200878 | 213707
8 | 47:29.33 | 3:55.50 | 213708 | 231382
9 | 51:25.08 | 5:19.50 | 231383 | 255357
10 | 56:44.58 | 1:46.50 | 255358 | 263357
11 | 58:31.33 | 4:32.00 | 263358 | 283757
12 | 63:03.33 | 1:02.25 | 283758 | 288432
13 | 64:05.58 | 5:52.50 | 288433 | 314882
14 | 69:58.33 | 1:54.62 | 314883 | 323494
15 | 71:53.20 | 6:09.13 | 323495 | 351182


Range status and errors

Selected range

Filename C:\Mozart - Idomeneo CD1.wav

Peak level 99.8 %
Extraction speed 2.1 X
Range quality 100.0 %
Test CRC 2A91DA1A
Copy CRC 2A91DA1A
Copy OK

No errors occurred

End of status report

==== Log checksum 1B9C9D73822F071FCC8FF30E9586A00FA295ABF927F4FA1085241C067E9863B1 ====


Exact Audio Copy V1.0 beta 3 from 29. August 2011

EAC extraction logfile from 12. August 2017, 13:11

John Eliot Gardiner, The English Baroque Soloists / Mozart - Idomeneo CD2

Used drive : HL-DT-STDVDRAM GH24NS95 Adapter: 0 ID: 0

Read mode : Secure
Utilize accurate stream : Yes
Defeat audio cache : Yes
Make use of C2 pointers : No

Read offset correction : 6
Overread into Lead-In and Lead-Out : No
Fill up missing offset samples with silence : Yes
Delete leading and trailing silent blocks : No
Null samples used in CRC calculations : Yes
Used interface : Native Win32 interface for Win NT & 2000

Used output format : User Defined Encoder
Selected bitrate : 128 kBit/s
Quality : High
Add ID3 tag : No
Command line compressor : C:\Program Files\Exact Audio Copy\Flac\flac.exe
Additional command line options : -V -8 -T "Date=%year%" -T "Genre=%genre%" %source%


TOC of the extracted CD

Track | Start | Length | Start sector | End sector
––––––––––––––––––––––––––––-
1 | 0:00.33 | 1:52.50 | 33 | 8482
2 | 1:53.08 | 4:57.00 | 8483 | 30757
3 | 6:50.08 | 1:50.72 | 30758 | 39079
4 | 8:41.05 | 0:44.03 | 39080 | 42382
5 | 9:25.08 | 12:47.25 | 42383 | 99932
6 | 22:12.33 | 1:12.25 | 99933 | 105357
7 | 23:24.58 | 5:53.55 | 105358 | 131887
8 | 29:18.38 | 7:10.70 | 131888 | 164207
9 | 36:29.33 | 5:47.25 | 164208 | 190257
10 | 42:16.58 | 0:37.17 | 190258 | 193049
11 | 42:54.00 | 2:53.73 | 193050 | 206097
12 | 45:47.73 | 7:30.72 | 206098 | 239919
13 | 53:18.70 | 4:33.13 | 239920 | 260407
14 | 57:52.08 | 4:40.25 | 260408 | 281432
15 | 62:32.33 | 1:23.50 | 281433 | 287707
16 | 63:56.08 | 4:24.62 | 287708 | 307569
17 | 68:20.70 | 2:24.38 | 307570 | 318407


Range status and errors

Selected range

Filename C:\Mozart - Idomeneo CD2.wav

Peak level 98.9 %
Extraction speed 2.0 X
Range quality 100.0 %
Test CRC 8708CE4C
Copy CRC 8708CE4C
Copy OK

No errors occurred

End of status report

==== Log checksum 277CE59F6CE60FAC99047739DFC8FEA9688BC9B872984C4DD2EE79D257209D76 ====


Exact Audio Copy V1.0 beta 3 from 29. August 2011

EAC extraction logfile from 12. August 2017, 14:34

John Eliot Gardiner, The English Baroque Soloists / Mozart - Idomeneo CD3

Used drive : HL-DT-STDVDRAM GH24NS95 Adapter: 0 ID: 0

Read mode : Secure
Utilize accurate stream : Yes
Defeat audio cache : Yes
Make use of C2 pointers : No

Read offset correction : 6
Overread into Lead-In and Lead-Out : No
Fill up missing offset samples with silence : Yes
Delete leading and trailing silent blocks : No
Null samples used in CRC calculations : Yes
Used interface : Native Win32 interface for Win NT & 2000

Used output format : User Defined Encoder
Selected bitrate : 128 kBit/s
Quality : High
Add ID3 tag : No
Command line compressor : C:\Program Files\Exact Audio Copy\Flac\flac.exe
Additional command line options : -V -8 -T "Date=%year%" -T "Genre=%genre%" %source%


TOC of the extracted CD

Track | Start | Length | Start sector | End sector
––––––––––––––––––––––––––––-
1 | 0:00.33 | 1:09.00 | 33 | 5207
2 | 1:09.33 | 5:18.00 | 5208 | 29057
3 | 6:27.33 | 4:38.05 | 29058 | 49912
4 | 11:05.38 | 0:51.40 | 49913 | 53777
5 | 11:57.03 | 1:08.72 | 53778 | 58949
6 | 13:06.00 | 1:54.08 | 58950 | 67507
7 | 15:00.08 | 6:03.00 | 67508 | 94732
8 | 21:03.08 | 5:30.50 | 94733 | 119532
9 | 26:33.58 | 7:11.50 | 119533 | 151907
10 | 33:45.33 | 3:51.62 | 151908 | 169294
11 | 37:37.20 | 13:23.13 | 169295 | 229532
12 | 51:00.33 | 3:05.45 | 229533 | 243452
13 | 54:06.03 | 2:39.30 | 243453 | 255407
14 | 56:45.33 | 3:44.32 | 255408 | 272239
15 | 60:29.65 | 1:16.30 | 272240 | 277969


Range status and errors

Selected range

Filename C:\Mozart - Idomeneo CD3.wav

Peak level 100.0 %
Extraction speed 1.9 X
Range quality 100.0 %
Test CRC C5E60C3F
Copy CRC C5E60C3F
Copy OK

No errors occurred

End of status report

==== Log checksum C5B4C7B5903062737AE6F0042AFA78C59533279D6AF7761183A7F9E7B411E6B7 ====

John Eliot Gardiner, The English Baroque Soloisits, The Monteverdi Choir - Mozart: Idomeneo [1991]
John Eliot Gardiner, The English Baroque Soloisits, The Monteverdi Choir - Mozart: Idomeneo [1991]