Mr. Big - ...The Stories We Could Tell (2014) [Limited Edition]

Posted By: v3122
Mr. Big - ...The Stories We Could Tell (2014) [Limited Edition]

Mr. Big - …The Stories We Could Tell (2014)
EAC | Flac(Image) + Cue + Log & MP3 CBR 320Kbps
2CD | WOWOW Entertainment, IEZP-77 | ~ 763 or 242 Mb | Scans(jpg) -> 84 Mb
Hard Rock / Classic Rock

MR. BIG fans have been rejoicing by the group's steady output of albums since the 2008 one-off reunion featuring Paul Gilbert and his band mates including one-time guitarist Richie Kotzen. MR. BIG is only blowing up the charts in Japan and other ports overseas, but that doesn't stop them from releasing quality albums as if their standing in the American music market depends on it.

Pat Torpey was unable to perform on "…The Stories We Could Tell" due to a recent diagnosis of Parkinson's, though he reportedly worked with a programmer for the album. Meanwhile, Ace Frehley's former drummer Matt Starr has been recruited to take over for Torpey on tour.

MR. BIG works here with producer Pat Regan who last helmed their 1999 album, "Get Over It". Like most hang-about hard rock bands of their generation, MR. BIG's latest album, "…The Stories We Could Tell", is unapologetically rooted in the Eighties, but its conveyance into the now is undeniably appealing. Eric Martin gently vexes "Every song playing on the radio never did tell me something I should know" on "It's Always About That Girl", and it's a shared Gen X sentiment to be coddled and nurtured by the feel good vibe of "…The Stories We Could Tell".

"Gotta Love the Ride" is a poke-along anthem that stands tall with Paul Gilbert's blaring guitar pulls and Billy Sheehan's trotting bass lines. The intro is pushed big and loud like the clock has been turned back, while there's a sage caution to the song that gives Eric Martin the room to vocally elbow his way in. There's a slight shaking off of some rust to his delivery on this track, but there's no questioning the desire behind it. His screech out of Paul Gilbert's guitar solo is on-the-dime and ardent. For that matter, Gilbert's solo hits an apex where it's safe to assume MR. BIG's recording studio suffered at least a hairline crack in the plaster.

The energetic and funky "I Forget to Breathe" is a killer cut where everyone pumps from their stations behind the slamming rhythm. Eric Martin huffs with glee while Sheehan and Gilbert hit superb riffs to punctuate the pounding groove of the song. "Fragile" then slinks along as a moderated pop rock number on the verses, leading up to sentimental choruses which Eric Martin fields with sensitivity. Opting for a shucking blues groove on "Satisfied", Sheehan and Gilbert bellow a stout intro as the song slips into a mid-tempo bang, giving Eric Martin a hefty playground to frolic his pipes over. He sounds like he's having a blast on this cut (along with the countrified rawk blaster "What If We Were New"), letting himself hang loose in spots while tightening up in others.

The acoustic ballad "The Man Who Has Everything" is a sweet bit of ear candy as Eric Martin and Paul Gilbert seem to be singing to each other amidst the synths and Billy Sheehan's laidback gullies digging behind them. Another acoustic-led ditty, "Eastwest", carries a nod back to hard rock heaven of yesteryear, coming off like a roundup of everything from Eighties HEART to TESLA. Some dreamy backing vocals fortifies Eric Martin's wayback wanderlust. Another ballad, "Just Let Your Heart Decide", is self-explanatory in title.

If you're coming to "…The Stories We Could Tell" with the hopes of hearing some Billy Sheehan outbursts, you finally get one on the pimp striding "The Monster in Me" as Sheehan and Gilbertdance together, note-for-note amidst a tough beat. Gilbert's wah-kissed solo is as groovy as the hammered-down riffs he and Sheehan dump into the cut, as are their condensed volume jacked into the title track. You'll also hear Sheehan panting like horny lion behind Gilbert on "The Light of Day" and, of course, he drops a few rumbling bass scales during transitions on a few tracks.

Otherwise, you might as well veer back to the first couple MR. BIG albums if you're in dire need of a Sheehan fix, "Addicted to that Rush" specifically. Or you can trip on TALAS, NIACIN, Sheehan's fantastic solo records or the David Lee Roth days. On this album, Eric Martin and Paul Gilbert are the showcases while Sheehan modestly plugs his fills and keeps the album humming. At the end of the day in 2014, that's all anybody should expect from MR. BIG.

by Ray Van Horn, Jr.
Mr. Big - ...The Stories We Could Tell (2014) [Limited Edition]


Mr. Big - …The Stories We Could Tell (2014):

Mr. Big - ...The Stories We Could Tell (2014) [Limited Edition]

Tracklist CD1:

1. Gotta Love The Ride
2. I Forget To Breathe
3. Fragile
4. Satisfied
5. The Man Who Has Everything
6. The Monster In Me
7. What If We Were New?
8. East / West
9. The Light Of Day
10. Just Let Your Heart Decide
11. It's Always About That Girl
12. Cinderella Smile
13. The Stories We Could Tell
14. 30 Days In The Hole (Bonus track)

Exact Audio Copy V1.0 beta 3 from 29. August 2011

EAC extraction logfile from 13. October 2014, 23:31

Mr. Big / …The Stories We Could Tell

Used drive : Optiarc DVD-ROM DDU1675S Adapter: 3 ID: 0

Read mode : Secure
Utilize accurate stream : Yes
Defeat audio cache : Yes
Make use of C2 pointers : No

Read offset correction : 6
Overread into Lead-In and Lead-Out : No
Fill up missing offset samples with silence : Yes
Delete leading and trailing silent blocks : No
Null samples used in CRC calculations : Yes
Used interface : Native Win32 interface for Win NT & 2000

Used output format : User Defined Encoder
Selected bitrate : 1024 kBit/s
Quality : High
Add ID3 tag : No
Command line compressor : C:\Program Files (x86)\Exact Audio Copy\FLAC\FLAC.EXE
Additional command line options : -V -8 -T "Date=%year%" -T "Genre=%genre%" %source%


TOC of the extracted CD

Track | Start | Length | Start sector | End sector
––––––––––––––––––––––––––––-
1 | 0:00.00 | 4:28.27 | 0 | 20126
2 | 4:28.27 | 4:13.00 | 20127 | 39101
3 | 8:41.27 | 4:37.43 | 39102 | 59919
4 | 13:18.70 | 4:41.25 | 59920 | 81019
5 | 18:00.20 | 3:58.11 | 81020 | 98880
6 | 21:58.31 | 4:02.70 | 98881 | 117100
7 | 26:01.26 | 4:00.48 | 117101 | 135148
8 | 30:01.74 | 4:29.28 | 135149 | 155351
9 | 34:31.27 | 3:22.02 | 155352 | 170503
10 | 37:53.29 | 4:19.22 | 170504 | 189950
11 | 42:12.51 | 4:28.44 | 189951 | 210094
12 | 46:41.20 | 4:56.13 | 210095 | 232307
13 | 51:37.33 | 4:00.69 | 232308 | 250376
14 | 55:38.27 | 4:31.28 | 250377 | 270729


Range status and errors

Selected range

Filename E:\Torrent\# MY\Mr. Big (Discography)\Albums\2014 - …The Stories We Could Tell\Mr. Big - …The Stories We Could Tell.wav

Peak level 96.6 %
Extraction speed 4.5 X
Range quality 100.0 %
Test CRC 302A3E4B
Copy CRC 302A3E4B
Copy OK

No errors occurred


AccurateRip summary

Track 1 not present in database
Track 2 not present in database
Track 3 not present in database
Track 4 not present in database
Track 5 not present in database
Track 6 not present in database
Track 7 not present in database
Track 8 not present in database
Track 9 not present in database
Track 10 not present in database
Track 11 not present in database
Track 12 not present in database
Track 13 not present in database
Track 14 not present in database

None of the tracks are present in the AccurateRip database

End of status report

–– CUETools DB Plugin V2.1.3

[CTDB TOCID: KbRs82Z7gAV5hboTxJYXpR538L8-] found, Submit result: KbRs82Z7gAV5hboTxJYXpR538L8- has been confirmed
[1aef31c2] (07/10) Accurately ripped
[a0c84a46] (02/10) No match
[b96ba128] (01/10) No match


==== Log checksum 868D09944876181291B9DA8CA19F7269599A6A3A376084EE369EA490149094F5 ====

[CUETools log; Date: 05.05.2016 10:43:33; Version: 2.1.4]
[CTDB TOCID: KbRs82Z7gAV5hboTxJYXpR538L8-] found.
Track | CTDB Status
1 | (26/42) Accurately ripped
2 | (26/42) Accurately ripped
3 | (27/42) Accurately ripped
4 | (27/42) Accurately ripped
5 | (27/42) Accurately ripped
6 | (27/42) Accurately ripped
7 | (27/42) Accurately ripped
8 | (27/42) Accurately ripped
9 | (27/42) Accurately ripped
10 | (27/42) Accurately ripped
11 | (27/42) Accurately ripped
12 | (27/42) Accurately ripped
13 | (27/42) Accurately ripped
14 | (25/42) Accurately ripped
[AccurateRip ID: 001efc19-01498997-9f0e190e] found.
Track [ CRC | V2 ] Status
01 [55772399|b68f5a9d] (00+07/14) Accurately ripped
02 [d31fd309|a564c15d] (00+07/14) Accurately ripped
03 [27c1a5c9|cc36576e] (00+07/14) Accurately ripped
04 [f0559464|3d70a654] (00+07/14) Accurately ripped
05 [fa486c80|5cdeb013] (00+07/14) Accurately ripped
06 [3dcba9f5|595f9edd] (00+07/14) Accurately ripped
07 [4c0da9cb|e88972dc] (00+07/14) Accurately ripped
08 [d79703dc|d3ebb6b9] (00+07/14) Accurately ripped
09 [30d008dd|d083f4f3] (00+07/14) Accurately ripped
10 [106d1425|fed11332] (00+07/14) Accurately ripped
11 [01affb35|2f25db1f] (00+07/14) Accurately ripped
12 [5fe98a75|a10cf15f] (00+07/14) Accurately ripped
13 [9ca6bf9b|411b7ede] (00+07/14) Accurately ripped
14 [a954cba4|fce20739] (00+07/13) Accurately ripped

Track Peak [ CRC32 ] [W/O NULL] [ LOG ]
– 96,6 [302A3E4B] [98920F3B] CRC32
01 96,6 [EAE20002] [BF7FD91D]
02 96,6 [3ECBD1C5] [5B58C658]
03 96,6 [89B98363] [FF1CBE0E]
04 96,6 [292F0C2E] [15465483]
05 96,6 [B074F4A9] [E090358D]
06 96,6 [54B8EAFC] [E8E69DE6]
07 96,6 [26B2BA01] [8D3E0834]
08 96,6 [2A92D5EA] [7C943DF4]
09 96,6 [83FF1315] [39B282B6]
10 96,6 [3CA859BF] [6C119581]
11 96,6 [A25BA82B] [511683AB]
12 96,6 [A63439D7] [F09E9906]
13 96,6 [0C2DEE30] [8258F653]
14 96,6 [65C0B86C] [9D52CC85]

Mr. Big - ...The Stories We Could Tell (2014) [Limited Edition]

Tracklist CD2:

1. Addicted To That Rush
2. Rock & Roll Over
3. Daddy, Brother, Lover, Little Boy (The Electric Drill Song)
4. Green-Tinted Sixties Mind
5. Just Take My Heart
6. To Be With You
7. Colorado Bulldog
8. The Whole World's Gonna Know
9. Take Cover
10. Out Of The Underground

Exact Audio Copy V1.0 beta 3 from 29. August 2011

EAC extraction logfile from 13. October 2014, 23:01

Mr. Big / 25th Anniversary

Used drive : Optiarc DVD-ROM DDU1675S Adapter: 3 ID: 0

Read mode : Secure
Utilize accurate stream : Yes
Defeat audio cache : Yes
Make use of C2 pointers : No

Read offset correction : 6
Overread into Lead-In and Lead-Out : No
Fill up missing offset samples with silence : Yes
Delete leading and trailing silent blocks : No
Null samples used in CRC calculations : Yes
Used interface : Native Win32 interface for Win NT & 2000

Used output format : User Defined Encoder
Selected bitrate : 1024 kBit/s
Quality : High
Add ID3 tag : No
Command line compressor : C:\Program Files (x86)\Exact Audio Copy\FLAC\FLAC.EXE
Additional command line options : -V -8 -T "Date=%year%" -T "Genre=%genre%" %source%


TOC of the extracted CD

Track | Start | Length | Start sector | End sector
––––––––––––––––––––––––––––-
1 | 0:00.00 | 4:36.49 | 0 | 20748
2 | 4:36.49 | 3:53.29 | 20749 | 38252
3 | 8:30.03 | 3:51.04 | 38253 | 55581
4 | 12:21.07 | 3:36.54 | 55582 | 71835
5 | 15:57.61 | 4:23.26 | 71836 | 91586
6 | 20:21.12 | 3:24.26 | 91587 | 106912
7 | 23:45.38 | 4:12.66 | 106913 | 125878
8 | 27:58.29 | 3:53.35 | 125879 | 143388
9 | 31:51.64 | 4:39.62 | 143389 | 164375
10 | 36:31.51 | 4:06.35 | 164376 | 182860


Range status and errors

Selected range

Filename E:\Torrent\# MY\Mr. Big (Discography)\Compilations\2014 - 25th Anniversary (Bonus CD of '…The Stories We Could Tell' Deluxe edition)\Mr. Big - 25th Anniversary.wav

Peak level 100.0 %
Extraction speed 4.1 X
Range quality 100.0 %
Test CRC 3634C364
Copy CRC 3634C364
Copy OK

No errors occurred


AccurateRip summary

Track 1 not present in database
Track 2 not present in database
Track 3 not present in database
Track 4 not present in database
Track 5 not present in database
Track 6 not present in database
Track 7 not present in database
Track 8 not present in database
Track 9 not present in database
Track 10 not present in database

None of the tracks are present in the AccurateRip database

End of status report

–– CUETools DB Plugin V2.1.3

[CTDB TOCID: JOxMHOnbsLwD7VluweyeRXPLNWs-] found, Submit result: JOxMHOnbsLwD7VluweyeRXPLNWs- has been confirmed
[c413a5d3] (6/6) Accurately ripped


==== Log checksum 857442A2EC0F9B261218DB7C69471D725F563CEB0EF546C7620D79DD7FC5C44A ====

[CUETools log; Date: 05.05.2016 10:47:19; Version: 2.1.4]
[CTDB TOCID: JOxMHOnbsLwD7VluweyeRXPLNWs-] found.
Track | CTDB Status
1 | (22/22) Accurately ripped
2 | (22/22) Accurately ripped
3 | (22/22) Accurately ripped
4 | (22/22) Accurately ripped
5 | (22/22) Accurately ripped
6 | (22/22) Accurately ripped
7 | (22/22) Accurately ripped
8 | (22/22) Accurately ripped
9 | (22/22) Accurately ripped
10 | (22/22) Accurately ripped
[AccurateRip ID: 000f47d1-0079e4db-8209860a] found.
Track [ CRC | V2 ] Status
01 [5e587ed6|c09d49f4] (0+7/7) Accurately ripped
02 [9649d5db|919f0646] (0+7/7) Accurately ripped
03 [4596a1e4|cd3291cc] (0+7/7) Accurately ripped
04 [6b0ef71b|7c76f1bb] (0+7/7) Accurately ripped
05 [46b56a0f|8bcf40bf] (0+7/7) Accurately ripped
06 [a0e00226|48de363c] (0+7/7) Accurately ripped
07 [f158c2bc|4f252672] (0+7/7) Accurately ripped
08 [56b27c54|9139f176] (0+7/7) Accurately ripped
09 [6355580e|91782276] (0+7/7) Accurately ripped
10 [8119577b|cc97d216] (0+7/7) Accurately ripped

Track Peak [ CRC32 ] [W/O NULL] [ LOG ]
– 100,0 [3634C364] [9831A54C] CRC32
01 98,8 [246D0DB1] [C3CF68FA]
02 98,8 [F4154370] [FFE822A3]
03 98,8 [7F88197E] [A65B8666]
04 98,8 [E208DCF0] [C0D57207]
05 98,8 [460658EA] [1646FE3F]
06 98,8 [49F0FB49] [43D496FA]
07 100,0 [1D8C9686] [4D7110DB]
08 100,0 [C9451796] [B5027D04]
09 98,8 [588F9361] [6171AA21]
10 98,8 [4D142B6D] [FC5EF264]

Mr. Big - ...The Stories We Could Tell (2014) [Limited Edition]

All thanks go to Ginger Devil

Mr. Big - The Vault (2015) [Box Set]

Download Mr. Big - …The Stories We Could Tell (2014):