Subcategories

Mr. Big - Japandemonium (1993)

Posted By: Shar'EmAll
Mr. Big - Japandemonium (1993)

Mr. Big - Japandemonium (1993)
EAC | FLAC-Image+CUE+LOG > 423 MB | Full Scans | MP3 CBR 320 Kbps > 143 MB
Hard Rock | 62:26 minutes | Label: Rhino/Wounded Bird Records | Catalogue # WOU 589-2

Mr. Big is a hard rock group that formed in Los Angeles, California in 1988. Japandemonium: Raw Like Sushi 3 is a live album. The performance was recorded at Koseinenkin Hall in Tokyo, Japan October 29, 1993.

Tracklist:
01. Colorado Bulldog
02. Price You Gotta Pay
03. Temperamental
04. Green-Tinted Sixties Mind
05. Wind Me Up
06. Wild World
07. Paul's Solo
08. Nothing But Love
09. Billy's Solo
10. To Be With You
11. Promise Her The Moon
12. Mr. Big
13. Seven Impossible Days
14. I've Learned My Lesson

- Eric Martin: vocals
- Paul Gilbert: guitars
- Billy Sheehan: bass guitar
- Pat Torpey: drums

Thanks to Ginger Devil!

Exact Audio Copy V1.0 beta 1 from 15. November 2010

EAC extraction logfile from 21. April 2011, 15:45

Mr. Big / Japandemonium

Used drive : Optiarc DVD-ROM DDU1675S Adapter: 4 ID: 0

Read mode : Secure
Utilize accurate stream : Yes
Defeat audio cache : Yes
Make use of C2 pointers : No

Read offset correction : 6
Overread into Lead-In and Lead-Out : No
Fill up missing offset samples with silence : Yes
Delete leading and trailing silent blocks : No
Null samples used in CRC calculations : Yes
Used interface : Installed external ASPI interface

Used output format : User Defined Encoder
Selected bitrate : 1024 kBit/s
Quality : High
Add ID3 tag : No
Command line compressor : D:\Rec Install\lossless\lossless\Exact Audio Copy 0.9b4 + APE WV & FLAC Encoders\FLAC.EXE
Additional command line options : -8 -V %s


TOC of the extracted CD

Track | Start | Length | Start sector | End sector
––––––––––––––––––––––––––––-
1 | 0:00.00 | 4:40.35 | 0 | 21034
2 | 4:40.35 | 4:18.50 | 21035 | 40434
3 | 8:59.10 | 5:26.15 | 40435 | 64899
4 | 14:25.25 | 3:36.63 | 64900 | 81162
5 | 18:02.13 | 4:33.15 | 81163 | 101652
6 | 22:35.28 | 3:41.02 | 101653 | 118229
7 | 26:16.30 | 6:37.58 | 118230 | 148062
8 | 32:54.13 | 4:03.22 | 148063 | 166309
9 | 36:57.35 | 6:03.18 | 166310 | 193552
10 | 43:00.53 | 4:14.07 | 193553 | 212609
11 | 47:14.60 | 4:07.70 | 212610 | 231204
12 | 51:22.55 | 4:28.50 | 231205 | 251354
13 | 55:51.30 | 2:40.38 | 251355 | 263392
14 | 58:31.68 | 3:54.07 | 263393 | 280949


Range status and errors

Selected range

Filename G:\# MY\Mr. Big (Discography)\1993 - Japandemonium\Mr. Big - Japandemonium.wav

Peak level 100.0 %
Extraction speed 0.3 X
Range quality 99.9 %
Test CRC C0B80D62
Copy CRC C0B80D62
Copy OK

No errors occurred


AccurateRip summary

Track 1 not present in database
Track 2 not present in database
Track 3 not present in database
Track 4 not present in database
Track 5 not present in database
Track 6 not present in database
Track 7 not present in database
Track 8 not present in database
Track 9 not present in database
Track 10 not present in database
Track 11 not present in database
Track 12 not present in database
Track 13 not present in database
Track 14 not present in database

None of the tracks are present in the AccurateRip database

End of status report
__________________________

[CUETools log; Date: 29.06.2011 22:56:31; Version: 2.1.1]
[AccurateRip ID: 00212f87-01617af0-d10ea20e] found.
Track [ CRC ] Status
01 [8eff2f97] (1/1) Accurately ripped
02 [352838ad] (1/1) Accurately ripped
03 [d7246681] (1/1) Accurately ripped
04 [e9d0c229] (1/1) Accurately ripped
05 [b4893512] (1/1) Accurately ripped
06 [b92a716c] (1/1) Accurately ripped
07 [665e654b] (1/1) Accurately ripped
08 [c303eb27] (1/1) Accurately ripped
09 [1e1a7101] (1/1) Accurately ripped
10 [a7019f43] (1/1) Accurately ripped
11 [6db451c2] (1/1) Accurately ripped
12 [c0659ee3] (1/1) Accurately ripped
13 [5bcee502] (1/1) Accurately ripped
14 [586d8b4b] (1/1) Accurately ripped

Track Peak [ CRC32 ] [W/O NULL] [ LOG ]
– 100,0 [C0B80D62] [D545F649] CRC32
01 100,0 [FA0C63D9] [C6DB000F]
02 100,0 [2AD5DD20] [79C4DDEB]
03 100,0 [A5D16B6B] [BFD87293]
04 100,0 [F9AA7E98] [E5AAA632]
05 100,0 [11709F18] [D2824FDF]
06 99,9 [B950C740] [478D23A0]
07 82,8 [35D75600] [F184CD57]
08 100,0 [24C0A011] [F562A0DD]
09 97,4 [B575D457] [C393EC2E]
10 98,6 [32341436] [3B6A76D8]
11 100,0 [8C12AA44] [C09355C3]
12 100,0 [6DF66FEC] [695895E5]
13 100,0 [C5966BA8] [779B3DCE]
14 100,0 [645B5F6C] [1980C06E]



DOWNLOAD: Mr. Big - Japandemonium

FileSonic

lossless
http://www.filesonic.com/file/1333488891/MrBig1993L.part1.rar
http://www.filesonic.com/file/1333492471/MrBig1993L.part2.rar
http://www.filesonic.com/file/1333498511/MrBig1993L.part3.rar
http://www.filesonic.com/file/1333498551/MrBig1993L.part4.rar

Covers
http://www.filesonic.com/file/1333482561/MrBig1993COV.rar

MP3 CBR 320
http://www.filesonic.com/file/1333501141/MrBig1993M.rar


WUpload
lossless (only)
http://www.wupload.com/file/38240396/MrBig1993L.part1.rar
http://www.wupload.com/file/38241884/MrBig1993L.part2.rar
http://www.wupload.com/file/38241892/MrBig1993L.part3.rar
http://www.wupload.com/file/38242717/MrBig1993L.part4.rar

The files are interchangeable. Recovery info has included.
//