Subcategories

Mud - Let’s Have A Party: The Best Of Mud (1990)

Posted By: popsakov
Mud - Let’s Have A Party: The Best Of Mud (1990)

Mud - Let’s Have A Party: The Best Of Mud (1990)
EAC Rip | FLAC (Img) + Cue + Log ~ 426 Mb | MP3 CBR320 ~ 163 Mb
Scans Included (JPG, 600 dpi) | RAR 5% Recovery
Glam Rock | EMI #CDP 793984 2 / CZ 280

Mud (now Mud II) are an English glam rock band, formed in February 1966. Their earlier success came in a pop and then glam rock style, while later hits were influenced by 1950s rock and roll, and are best remembered for their hit singles "Tiger Feet", which was the UK's best-selling single of 1974, and "Lonely This Christmas" which reached Christmas number 1 in December 1974. After signing to Rak Records and teaming up with songwriters/producers Nicky Chinn and Mike Chapman, the band had fourteen UK Top 20 hits between 1973 and 1976, including three number ones.
~ Wiki

***************

Mud - Let’s Have A Party: The Best Of Mud (1990)

Mud - Let’s Have A Party: The Best Of Mud (1990)

Track List:

01. Crazy [3:13]
02. Hypnosis [2:49]
03. Dyna-Mite [2:59]
04. Tiger Feet [3:53]
05. The Cat Crept In [4:02]
06. Rocket [4:08]
07. Hippy Hippy Shake [2:35]
08. The Secrets That You Keep [3:13]
09. Oh Boy [2:53]
10. Moonshine Sally [3:22]
11. One Night [2:57]
12. Blue Moon [2:26]
13. The End Of The World [4:07]
14. Tallahassee Lassie [3:21]
15. Let's Have A Party [1:48]
16. Living Doll [3:06]
17. Diana [4:00]
18. In The Mood [3:41]
19. Hula Love [4:01]
20. Lonely This Christmas [3:33]

Exact Audio Copy V1.0 beta 3 from 29. August 2011

EAC extraction logfile from 13. February 2018, 20:19

Mud / Let's Have A Party - The Best Of Mud

Used drive : PLEXTOR DVDR PX-740A Adapter: 0 ID: 0

Read mode : Secure
Utilize accurate stream : Yes
Defeat audio cache : Yes
Make use of C2 pointers : No

Read offset correction : 618
Overread into Lead-In and Lead-Out : No
Fill up missing offset samples with silence : Yes
Delete leading and trailing silent blocks : No
Null samples used in CRC calculations : Yes
Used interface : Native Win32 interface for Win NT & 2000

Used output format : Internal WAV Routines
Sample format : 44.100 Hz; 16 Bit; Stereo


TOC of the extracted CD

Track | Start | Length | Start sector | End sector
––––––––––––––––––––––––––––-
1 | 0:00.33 | 3:13.20 | 33 | 14527
2 | 3:13.53 | 2:49.35 | 14528 | 27237
3 | 6:03.13 | 2:58.62 | 27238 | 40649
4 | 9:02.00 | 3:52.53 | 40650 | 58102
5 | 12:54.53 | 4:02.37 | 58103 | 76289
6 | 16:57.15 | 4:08.23 | 76290 | 94912
7 | 21:05.38 | 2:35.22 | 94913 | 106559
8 | 23:40.60 | 3:12.68 | 106560 | 121027
9 | 26:53.53 | 2:53.02 | 121028 | 134004
10 | 29:46.55 | 3:21.43 | 134005 | 149122
11 | 33:08.23 | 2:57.17 | 149123 | 162414
12 | 36:05.40 | 2:26.18 | 162415 | 173382
13 | 38:31.58 | 4:07.00 | 173383 | 191907
14 | 42:38.58 | 3:21.15 | 191908 | 206997
15 | 45:59.73 | 1:48.22 | 206998 | 215119
16 | 47:48.20 | 3:05.65 | 215120 | 229059
17 | 50:54.10 | 4:00.35 | 229060 | 247094
18 | 54:54.45 | 3:40.38 | 247095 | 263632
19 | 58:35.08 | 4:01.25 | 263633 | 281732
20 | 62:36.33 | 3:33.12 | 281733 | 297719


Range status and errors

Selected range

Filename C:\MUSIC\CD Rips_J\Mud\Mud - Let's Have A Party - The Best Of Mud.wav

Peak level 100.0 %
Extraction speed 9.8 X
Range quality 100.0 %
Test CRC 93B54C59
Copy CRC 93B54C59
Copy OK

No errors occurred


AccurateRip summary

Track 1 accurately ripped (confidence 8) [AEA2B925] (AR v2)
Track 2 accurately ripped (confidence 7) [8DBC7F70] (AR v2)
Track 3 accurately ripped (confidence 7) [97C10608] (AR v2)
Track 4 accurately ripped (confidence 8) [8D5E6870] (AR v2)
Track 5 accurately ripped (confidence 7) [35821F07] (AR v2)
Track 6 accurately ripped (confidence 7) [D212C7B6] (AR v2)
Track 7 accurately ripped (confidence 7) [37876EF5] (AR v2)
Track 8 accurately ripped (confidence 7) [1D976201] (AR v2)
Track 9 accurately ripped (confidence 7) [5A9D7500] (AR v2)
Track 10 accurately ripped (confidence 7) [22EFA27F] (AR v2)
Track 11 accurately ripped (confidence 7) [4B98FFA8] (AR v2)
Track 12 accurately ripped (confidence 7) [2F9E06BA] (AR v2)
Track 13 accurately ripped (confidence 7) [5E9C66CD] (AR v2)
Track 14 accurately ripped (confidence 7) [9CCA03E7] (AR v2)
Track 15 accurately ripped (confidence 7) [03FB10D8] (AR v2)
Track 16 accurately ripped (confidence 7) [12B584EF] (AR v2)
Track 17 accurately ripped (confidence 7) [1DE85FE8] (AR v2)
Track 18 accurately ripped (confidence 7) [DBD42B3D] (AR v2)
Track 19 accurately ripped (confidence 7) [A5B26602] (AR v2)
Track 20 accurately ripped (confidence 7) [43B05D02] (AR v2)

All tracks accurately ripped

End of status report

==== Log checksum 8A8EDEDE34CC45AE6949809987E2EC6133AF49E6EE7B976DE5F298C225CE081F ====

foobar2000 1.3.16 / Dynamic Range Meter 1.1.1
log date: 2018-02-15 18:04:18

––––––––––––––––––––––––––––––––––––––––
Analyzed: Mud / Let's Have A Party - The Best Of Mud
––––––––––––––––––––––––––––––––––––––––

DR Peak RMS Duration Track
––––––––––––––––––––––––––––––––––––––––
DR12 0.00 dB -13.90 dB 3:13 01-Crazy
DR13 -0.56 dB -15.57 dB 2:49 02-Hypnosis
DR12 -0.63 dB -14.73 dB 2:59 03-Dyna-Mite
DR12 -0.71 dB -14.70 dB 3:53 04-Tiger Feet
DR13 0.00 dB -14.64 dB 4:02 05-The Cat Crept In
DR12 0.00 dB -13.13 dB 4:08 06-Rocket
DR12 0.00 dB -13.57 dB 2:35 07-Hippy Hippy Shake
DR14 -0.10 dB -16.21 dB 3:13 08-The Secrets That You Keep
DR13 0.00 dB -16.14 dB 2:53 09-Oh Boy
DR12 -0.31 dB -13.62 dB 3:22 10-Moonshine Sally
DR14 -0.26 dB -16.10 dB 2:57 11-One Night
DR11 -1.69 dB -16.66 dB 2:26 12-Blue Moon
DR13 -0.91 dB -16.05 dB 4:07 13-The End Of The World
DR13 0.00 dB -14.45 dB 3:21 14-Tallahassee Lassie
DR13 0.00 dB -15.10 dB 1:48 15-Let's Have A Party
DR15 0.00 dB -16.21 dB 3:06 16-Living Doll
DR13 0.00 dB -15.82 dB 4:00 17-Diana
DR12 0.00 dB -12.61 dB 3:41 18-In The Mood
DR12 -0.38 dB -14.10 dB 4:01 19-Hula Love
DR11 -0.57 dB -13.32 dB 3:33 20-Lonely This Christmas
––––––––––––––––––––––––––––––––––––––––

Number of tracks: 20
Official DR value: DR13

Samplerate: 44100 Hz
Channels: 2
Bits per sample: 16
Bitrate: 849 kbps
Codec: FLAC
================================================================================

[CUETools log; Date: 15.02.2018 18:04:29; Version: 2.1.5]
Pregap length 00:00:33.
[CTDB TOCID: SkpOQzJzYIbHpmFM7AwLr6f5d6I-] found.
Track | CTDB Status
1 | (46/46) Accurately ripped
2 | (46/46) Accurately ripped
3 | (46/46) Accurately ripped
4 | (43/46) Accurately ripped, or (2/46) differs in 2 samples @03:31:14
5 | (45/46) Accurately ripped
6 | (44/46) Accurately ripped, or (2/46) differs in 2 samples @00:35:55
7 | (46/46) Accurately ripped
8 | (46/46) Accurately ripped
9 | (43/46) Accurately ripped, or (1/46) differs in 157 samples @00:17:63,00:18:03,00:18:19,00:18:35,00:21:61,00:22:01-00:22:02,00:22:17-00:22:18,00:22:33,00:23:05-00:23:06, or (2/46) differs in 1 samples @01:12:59
10 | (46/46) Accurately ripped
11 | (46/46) Accurately ripped
12 | (46/46) Accurately ripped
13 | (44/46) Accurately ripped
14 | (42/46) Accurately ripped, or (2/46) differs in 2 samples @01:48:17
15 | (45/46) Accurately ripped
16 | (45/46) Accurately ripped
17 | (46/46) Accurately ripped
18 | (46/46) Accurately ripped
19 | (46/46) Accurately ripped
20 | (45/46) Accurately ripped
[AccurateRip ID: 002f2c50-02b2f3ea-2d0f8114] found.
Track [ CRC | V2 ] Status
01 [d8a39f34|aea2b925] (09+08/45) Accurately ripped
02 [67658c79|8dbc7f70] (09+07/44) Accurately ripped
03 [51ccd818|97c10608] (09+07/45) Accurately ripped
04 [354c90f5|8d5e6870] (09+08/46) Accurately ripped
05 [6fbba681|35821f07] (09+07/45) Accurately ripped
06 [3b78a770|d212c7b6] (09+07/43) Accurately ripped
07 [3ebf4381|37876ef5] (09+07/44) Accurately ripped
08 [f7421ac4|1d976201] (09+07/45) Accurately ripped
09 [6c533896|5a9d7500] (09+07/45) Accurately ripped
10 [f53cc31e|22efa27f] (09+07/45) Accurately ripped
11 [41e666f9|4b98ffa8] (09+07/45) Accurately ripped
12 [4ecc8d60|2f9e06ba] (08+07/43) Accurately ripped
13 [1d0ad630|5e9c66cd] (09+07/44) Accurately ripped
14 [691aa446|9cca03e7] (09+07/44) Accurately ripped
15 [f1afbcab|03fb10d8] (09+07/44) Accurately ripped
16 [b8a37c68|12b584ef] (09+07/43) Accurately ripped
17 [3e02afc0|1de85fe8] (08+07/43) Accurately ripped
18 [30f93e8a|dbd42b3d] (09+07/44) Accurately ripped
19 [77b7dede|a5b26602] (09+07/44) Accurately ripped
20 [f4ce96e9|43b05d02] (09+07/45) Accurately ripped
Offsetted by 1231:
01 [4854ba2e] (10/45) Accurately ripped
02 [f53e1b8f] (10/44) Accurately ripped
03 [37bffdef] (10/45) Accurately ripped
04 [6be17518] (10/46) Accurately ripped
05 [ba58d33a] (10/45) Accurately ripped
06 [20ec6840] (10/43) Accurately ripped
07 [4d6b67d7] (10/44) Accurately ripped
08 [7a70fbe3] (10/45) Accurately ripped
09 [f8d40201] (10/45) Accurately ripped
10 [5cd84594] (10/45) Accurately ripped
11 [a53bc056] (10/45) Accurately ripped
12 [65a2c714] (10/43) Accurately ripped
13 [a53c307b] (10/44) Accurately ripped
14 [955d700a] (10/44) Accurately ripped
15 [3c72c705] (10/44) Accurately ripped
16 [74388d0e] (10/43) Accurately ripped
17 [821c27de] (10/43) Accurately ripped
18 [05d8048e] (10/44) Accurately ripped
19 [6e7eb088] (10/44) Accurately ripped
20 [bd988945] (10/45) Accurately ripped
Offsetted by -659:
01 [ae50aa22] (00/45) No match (V2 was not tested)
02 [a26d8fbb] (00/44) No match (V2 was not tested)
03 [787e409d] (00/45) No match (V2 was not tested)
04 [d8dc005e] (00/46) No match (V2 was not tested)
05 [89ebc5ac] (00/45) No match (V2 was not tested)
06 [816ab9e0] (00/43) No match
07 [aaef4683] (00/44) No match (V2 was not tested)
08 [b490fd21] (00/45) No match (V2 was not tested)
09 [697a9fd7] (00/45) No match (V2 was not tested)
10 [85350080] (00/45) No match (V2 was not tested)
11 [6b233010] (00/45) No match (V2 was not tested)
12 [a94e6e7c] (00/43) No match (V2 was not tested)
13 [8b58d011] (00/44) No match (V2 was not tested)
14 [19e24b92] (00/44) No match (V2 was not tested)
15 [23b5f5b9] (00/44) No match (V2 was not tested)
16 [8760945a] (00/43) No match (V2 was not tested)
17 [bd6d761a] (00/43) No match (V2 was not tested)
18 [2d071496] (00/44) No match (V2 was not tested)
19 [a216bddc] (00/44) No match (V2 was not tested)
20 [cd8749fd] (00/45) No match (V2 was not tested)
Offsetted by 690:
01 [bb88a920] (00/45) No match (V2 was not tested)
02 [b254396d] (00/44) No match (V2 was not tested)
03 [01465e3a] (00/45) No match (V2 was not tested)
04 [9fcc86bf] (00/46) No match (V2 was not tested)
05 [be5d5e3f] (00/45) No match (V2 was not tested)
06 [07fd54d0] (00/43) No match (V2 was not tested)
07 [65bfe1f5] (00/44) No match
08 [ee3a7bd6] (00/45) No match (V2 was not tested)
09 [3f229550] (00/45) No match (V2 was not tested)
10 [58479b52] (00/45) No match (V2 was not tested)
11 [09e73e2f] (00/45) No match (V2 was not tested)
12 [c040adb8] (00/43) No match
13 [67826b2a] (00/44) No match
14 [656c2b7e] (00/44) No match
15 [02d839d7] (00/44) No match
16 [9533593c] (00/43) No match
17 [07d8d024] (00/43) No match
18 [26bb5d42] (00/44) No match (V2 was not tested)
19 [ae06746a] (00/44) No match
20 [ff3e8971] (00/45) No match

Track Peak [ CRC32 ] [W/O NULL] [ LOG ]
– 100,0 [93B54C59] [768794C9] CRC32
01 100,0 [AF5C2A14] [DF0BAF09]
02 93,7 [1307CB0F] [ECB8A9AA]
03 92,9 [2CD25923] [EDE17488]
04 92,1 [92D3D558] [BF66B5AA]
05 100,0 [8090BD85] [B3DEDBA1]
06 100,0 [A6ED3EEC] [68933038]
07 100,0 [E5E57098] [4AD1744F]
08 98,8 [A105CE39] [4AA8658A]
09 100,0 [C947EFB9] [DADB7B90]
10 96,4 [F0ADB222] [D03C5A6E]
11 97,0 [3710BB4E] [893B9EC2]
12 82,3 [45B68E6D] [E4802235]
13 90,0 [6A291806] [787CF3FC]
14 100,0 [74AFD9FC] [4BACFD9F]
15 100,0 [54C281B3] [DC9C74A8]
16 100,0 [E36FF455] [AFFCCD8D]
17 100,0 [A84E38B4] [088BE0DC]
18 100,0 [299B63C1] [74E6A439]
19 95,6 [2322D149] [919E1F91]
20 93,6 [7C5F1D50] [D9DFB458]

Mud - Let’s Have A Party: The Best Of Mud (1990)

All thanks go to Juergen

>>> MUD in my Blog <<<

Download from icerbox.com: