Subcategories
Tags
Language
Tags

Muddy Waters - Folk Singer (1964) {1993, Remastered}

Posted By: popsakov
Muddy Waters - Folk Singer (1964) {1993, Remastered}

Muddy Waters - Folk Singer (1964) {1993, Remastered}
EAC Rip | FLAC (Img) + Cue + Log ~ 200 Mb | MP3 CBR320 ~ 98 Mb
Full Scans ~ 70 Mb | 00:40:34 | RAR 5% Recovery
Chicago Blues, Delta Blues | Mobile Fidelity Sound Lab #UDCD 593

Folk Singer is the fourth studio album by Muddy Waters, released in April 1964 by Chess Records. The album features Waters on acoustic guitar, backed by Willie Dixon on string bass, Clifton James on drums, and Buddy Guy on acoustic guitar. It is Waters's only all-acoustic album. Numerous reissues of Folk Singer include bonus tracks from two subsequent sessions, in April 1964 and October 1964. Despite not charting in any country, Folk Singer received critical acclaim; most reviewers praised its high-quality sound, especially on remastered versions, as well as the instrumentation. In 2003, the album was ranked number 280 on Rolling Stone magazine's list of the 500 greatest albums of all time.

Muddy Waters - Folk Singer (1964) {1993, Remastered}

Muddy Waters' "unplugged" album was cut in September of 1963 and still sounds fresh and vital today. It was Waters simply returning to his original style on a plain acoustic guitar in a well-tuned room with Willie Dixon on string bass, Clifton James on drums, and Buddy Guy on second acoustic guitar. The nine tracks are divvied up between full rhythm section treatments with Buddy and Muddy as a duo and the final track, "Feel Like Going Home," which Waters approaches solo. What makes this version of the album a worthwhile buy is the inclusion of five bonus tracks from his next two sessions: An April 1964 session brings us Willie Dixon's "The Same Thing" and Waters' "You Can't Lose What You Never Had," while the October 1964 session features J.T. Brown on sax and clarinet on "Short Dress Woman" and "My John the Conqueror Root," as well as "Put Me in Your Lay Away," another strong side. Folk Singer offers both sides of Waters from the early '60s. This 1993 Mobile Fidelity CD was in 1993 and features two bonus tracks: "You Can't Lose What You Ain't New Had" and "The Same Thing."

~ Cub Koda, All Music

***************

Muddy Waters - Folk Singer (1964) {1993, Remastered}

Muddy Waters - Folk Singer (1964) {1993, Remastered}

Track List:

01. My Home Is In The Delta [04:01]
02. Long Distance [03:33]
03. My Captain [05:13]
04. Good Morning Little School Girl [03:15]
05. You Gonna Need My Help [03:13]
06. Cold Weather Blues [04:43]
07. Big Leg Woman [03:29]
08. Country Boy [03:29]
09. Feel Like Going Home [03:56]
10. You Can't Lose What You Ain't Never Had (Bonus Track) [02:59]
11. The Same Thing (Bonus Track) [02:46]

EAC extraction logfile from 23. January 2006, 11:05 for CD
MUDDY WATERS / FOLK SINGER (MFSL UDCD 593)

Used drive : TOSHIBA DVD-ROM SD-R2412 Adapter: 1 ID: 0
Read mode : Secure with NO C2, accurate stream, disable cache
Read offset correction : 116
Overread into Lead-In and Lead-Out : No

Used output format : Internal WAV Routines
44.100 Hz; 16 Bit; Stereo

Other options :
Fill up missing offset samples with silence : Yes
Delete leading and trailing silent blocks : No
Installed external ASPI interface


Range status and errors
Selected range
Filename _CDImage.wav

Peak level 100.0 %
Range quality 99.9 %
CRC 6D59BD46
Copy OK

No errors occured

End of status report

[CUETools log; Date: 13.08.2016 18:02:04; Version: 2.1.5]
[CTDB TOCID: nh.s63aDX8vV1UX7zHWcjsXDh6A-] found.
Track | CTDB Status
1 | (35/36) Accurately ripped
2 | (35/36) Accurately ripped
3 | (35/36) Accurately ripped
4 | (35/36) Accurately ripped
5 | (35/36) Accurately ripped
6 | ( 0/36) No match
7 | (35/36) Accurately ripped
8 | (35/36) Accurately ripped
9 | (35/36) Accurately ripped
10 | (35/36) Accurately ripped
11 | (34/36) Accurately ripped
[AccurateRip ID: 001182ef-009692ce-9f09810b] found.
Track [ CRC | V2 ] Status
01 [1536da14|8092e525] (34+46/84) Accurately ripped
02 [eb44d1fb|2335420b] (34+46/84) Accurately ripped
03 [e19a1535|6fb4ef13] (33+45/82) Accurately ripped
04 [4a8e2f5c|7686d1a3] (35+45/86) Accurately ripped
05 [39031d33|5e1b2c99] (35+44/85) Accurately ripped
06 [be19cef5|d426b3ed] (00+00/82) No match
07 [9550a416|dd0f8970] (34+43/81) Accurately ripped
08 [85f1c3a4|7ee1d69f] (35+43/82) Accurately ripped
09 [e0b44c1e|915bda4d] (36+44/86) Accurately ripped
10 [decbbb91|7fe0c882] (35+45/86) Accurately ripped
11 [d4a8f70c|72149561] (35+45/86) Accurately ripped
Offsetted by -1953:
01 [9597f981] (00/84) No match (V2 was not tested)
02 [8b43bb87] (00/84) No match (V2 was not tested)
03 [f466171c] (00/82) No match (V2 was not tested)
04 [427e57b7] (02/86) Accurately ripped
05 [9e50b5da] (02/85) Accurately ripped
06 [e18ebb3a] (00/82) No match (V2 was not tested)
07 [1acab22e] (00/81) No match (V2 was not tested)
08 [20c8c733] (02/82) Accurately ripped
09 [72374b3c] (02/86) Accurately ripped
10 [57413226] (02/86) Accurately ripped
11 [0a836471] (02/86) Accurately ripped
Offsetted by -30:
01 [ddd26f41] (00/84) No match (V2 was not tested)
02 [621b4f02] (00/84) No match (V2 was not tested)
03 [1169c513] (00/82) No match (V2 was not tested)
04 [806e1571] (00/86) No match (V2 was not tested)
05 [1fc7826d] (00/85) No match (V2 was not tested)
06 [0c7d5f89] (00/82) No match (V2 was not tested)
07 [eaa17e70] (00/81) No match (V2 was not tested)
08 [d317949d] (00/82) No match (V2 was not tested)
09 [199522c8] (00/86) No match (V2 was not tested)
10 [fd487d9a] (00/86) No match (V2 was not tested)
11 [8f9e75d5] (00/86) No match (V2 was not tested)
Offsetted by -18:
01 [6e3b5c41] (00/84) No match (V2 was not tested)
02 [5db04d25] (00/84) No match (V2 was not tested)
03 [678a5e83] (00/82) No match (V2 was not tested)
04 [6572ce03] (00/86) No match (V2 was not tested)
05 [eb4c07d0] (00/85) No match (V2 was not tested)
06 [0c1ba109] (00/82) No match (V2 was not tested)
07 [007e7ed5] (00/81) No match (V2 was not tested)
08 [9e2331b6] (00/82) No match (V2 was not tested)
09 [c3ccb787] (00/86) No match (V2 was not tested)
10 [14f7b760] (00/86) No match (V2 was not tested)
11 [77e97676] (00/86) No match (V2 was not tested)
Offsetted by 30:
01 [1ed8149d] (02/84) Accurately ripped
02 [40559748] (02/84) Accurately ripped
03 [ebf49ea6] (02/82) Accurately ripped
04 [f5c36bb9] (02/86) Accurately ripped
05 [cfb524a9] (02/85) Accurately ripped
06 [abb9fb4b] (00/82) No match (V2 was not tested)
07 [5278fd4d] (02/81) Accurately ripped
08 [cac877c0] (00/82) No match (V2 was not tested)
09 [f677dfdf] (02/86) Accurately ripped
10 [e33e7199] (02/86) Accurately ripped
11 [1a5a7694] (02/86) Accurately ripped

Track Peak [ CRC32 ] [W/O NULL] [ LOG ]
– 100,0 [6D59BD46] [6DB11E62] CRC32
01 88,8 [A4533865] [6EF47F1F]
02 84,5 [0D61DE89] [0AE552C1]
03 72,3 [9D96C433] [A6B0F963]
04 51,8 [E0A82C54] [18C64FB5]
05 83,9 [68519C13] [ECB878DF]
06 78,1 [A302B398] [3DAB42BA]
07 44,4 [026C187A] [D87D48D7]
08 100,0 [55EAF625] [648C551C]
09 91,6 [1F380D13] [079BF3E0]
10 81,5 [8D0A9D33] [E9079755]
11 73,2 [60F0D388] [BD8B7EF8]

Muddy Waters - Folk Singer (1964) {1993, Remastered}


All thanks go to the original ripper(s) …

>>> Muddy Waters in my Blog <<<

DOWNLOAD: