Tags
Language
Tags

Muddy Waters, Johnny Winter, & James Cotton - Breakin' It Up, Breakin' It Down (2007) Recorded 1977

Posted By: Designol
Muddy Waters, Johnny Winter, & James Cotton - Breakin' It Up, Breakin' It Down (2007) Recorded 1977

Muddy Waters, Johnny Winter, & James Cotton - Breakin' It Up, Breakin' It Down (2007)
XLD | FLAC | Image (Cue&Log) ~ 438 Mb | Mp3 (CBR320) ~ 181 Mb | Scans included
Electric Blues, Chicago Blues | Label: Epic, Legacy | # 88697 07283 2 | 00:59:22

Muddy Waters had his second coming 30 years ago, when longtime friend and disciple Johnny Winter and his Blue Sky label returned him–after a series of listless recordings aimed at the rock audience–to the raw, powerful authenticity of his timeless Chess material with a series of powerful albums. Beginning with 1977's acclaimed Hard Again, a subsequent tour produced Muddy "Mississippi" Waters Live, recorded onstage in Detroit, New York, and Philadelphia with Muddy's band, Winter, and harmonica player/vocalist James Cotton. Enough live material remained for Legacy to release an expanded version with an entire second disc of unissued concert material. It seems even that wasn't the end. This collection returns again to those remarkable concerts, featuring Muddy on five tracks, among them a rousing "I Can't Be Satisfied," "Trouble No More," "Caldonia," and the closing "Got My Mojo Workin'." Winter and Cotton are no less powerful, Cotton redoing Jackie Brenston's hit "Rocket '88'" and Winter ripping up John Lee Hooker's "I Done Got Over It" and "Mama Talk to Your Daughter."

Review by Rich Kienzle, Amazon.com Editorial Review

In March 1977, Muddy Waters, Johnny Winter, and James Cotton did a concert tour together in support of Waters' then-recent Hard Again LP, on which Winter had played guitar (as well as produced) and Cotton had played harmonica. This CD, not released until about 30 years later, has an hour of music drawn from three different shows on the tour. It might have been spurred by a Muddy Waters album, but in fact Waters, Winter, and Cotton all took vocals – sometimes alone, and sometimes on the same song – on stage, and these 11 songs feature the vocals of each of the three in about equal measure. Often these kind of touring combinations are too many cooks in the kitchen, or, if not quite that, at least more fun to attend than to listen to on tape. The latter could be said of the material on this disc, which is really just okay, not great, and not even among the best recordings that have been issued of Waters in the mid-'70s. It's still solid and decent, including some Waters classics ("Can't Be Satisfied," "Got My Mojo Workin'," "Trouble No More"), Cotton originals, and covers of staples by Jackie Brenston ("Rocket 88"), John Lee Hooker ("I Done Got Over It"), J.B. Lenoir ("Mama Talk to Your Daughter"), Lowell Fulson ("Love Her with a Feeling"), and Elmore James ("Dust My Broom"), as well as the famed jump blues "Caledonia." It's undeniable, however, that Waters was, even at this relatively advanced age, by far the most commanding singer of the trio. The songs on which his vocals are prominent (especially "Can't Be Satisfied" and "Trouble No More") kind of dwarf the ones on which his singing is absent or secondary, making the cuts that emphasize Cotton and Winter seem rather workmanlike in comparison. Nevertheless, the sound is good, and the band filled out competently with sidemen (particularly Pinetop Perkins on piano), making this a satisfactory listen for serious blues collectors, though a little superfluous for most fans.

Review by Richie Unterberger, Allmusic.com

Muddy Waters, Johnny Winter, & James Cotton - Breakin' It Up, Breakin' It Down (2007) Recorded 1977

Muddy Waters, Johnny Winter, & James Cotton - Breakin' It Up, Breakin' It Down (2007) Recorded 1977

Muddy Waters, Johnny Winter, & James Cotton - Breakin' It Up, Breakin' It Down (2007) Recorded 1977


Personnel:
Muddy Waters, vocals and guitar
Johnny Winter, vocals and guitar
James Cotton, vocals and harp
Bob Margolin, vocals and guitar
Pinetop Perkins, vocals and piano
Willie "Big Eyes" Smith, drums
Charles Calmese, bass

Tracklist:

01. Black Cat Bone/Dust My Broom (5:54)
02. Can't Be Satisfied (3:48)
03. Caledonia (6:58)
04. Dealin' With The Devil (7:50)
05. Rocket 88 (2:09)
06. I Done Got Over It (6:00)
07. How Long Can A Fool Go Wrong (5:54)
08. Mama Talk To Your Daughter (5:54)
09. Love Her With A Feeling (5:47)
10. Trouble No More (4:10)
11. Got My Mojo Workin' (4:59)


X Lossless Decoder version 20131102 (145.0)

XLD extraction logfile from 2014-03-07 22:53:52 +0200

Muddy Waters, Johnny Winter, & James Cotton / Breakin' It Up, Breakin' It Down

Used drive : MATSHITA DVD-R UJ-898 (revision HC09)
Media type : Pressed CD

Ripper mode : XLD Secure Ripper
Disable audio cache : OK for the drive with a cache less than 1375KiB
Make use of C2 pointers : NO
Read offset correction : 102
Max retry count : 20
Gap status : Analyzed, Appended

TOC of the extracted CD
Track | Start | Length | Start sector | End sector
––––––––––––––––––––––––––––-
1 | 00:00:00 | 05:53:70 | 0 | 26544
2 | 05:53:70 | 03:47:48 | 26545 | 43617
3 | 09:41:43 | 06:57:46 | 43618 | 74938
4 | 16:39:14 | 07:50:31 | 74939 | 110219
5 | 24:29:45 | 02:09:22 | 110220 | 119916
6 | 26:38:67 | 05:59:42 | 119917 | 146883
7 | 32:38:34 | 05:53:42 | 146884 | 173400
8 | 38:32:01 | 05:53:41 | 173401 | 199916
9 | 44:25:42 | 05:47:13 | 199917 | 225954
10 | 50:12:55 | 04:09:60 | 225955 | 244689
11 | 54:22:40 | 04:59:35 | 244690 | 267149

List of alternate offset correction values
# | Absolute | Relative | Confidence
–––––––––––––––––––––
1 | 114 | 12 | 45
2 | -532 | -634 | 11

AccurateRip Summary (DiscID: 0018ebd4-00d78b44-7b0dea0b)
Track 01 : OK (v1+v2, confidence 33/87)
Track 02 : OK (v1+v2, confidence 33/87)
Track 03 : OK (v1+v2, confidence 33/86)
Track 04 : OK (v1+v2, confidence 33/84)
Track 05 : OK (v1+v2, confidence 33/87)
Track 06 : OK (v1+v2, confidence 33/86)
Track 07 : OK (v1+v2, confidence 33/88)
Track 08 : OK (v1+v2, confidence 33/85)
Track 09 : OK (v1+v2, confidence 33/87)
Track 10 : OK (v1+v2, confidence 33/86)
Track 11 : OK (v1+v2, confidence 33/87)
->All tracks accurately ripped.

All Tracks
Filename : /Users/Home/Music/my rips/muddy waters,johnny winter&james cotton-breakin' it up,breaking' it down-2007/Muddy Waters, Johnny Winter, & James Cotton-Breakin' It Up, Breakin' It Down-1977.flac
Album gain : -7.54 dB
Peak : 1.000000
CRC32 hash (test run) : 6D14484E
CRC32 hash : 6D14484E
CRC32 hash (skip zero) : 249CBB5B
Statistics
Read error : 0
Jitter error (maybe fixed) : 0
Retry sector count : 0
Damaged sector count : 0

Track 01
Pre-gap length : 00:02:00

Track gain : -7.48 dB
Peak : 1.000000
CRC32 hash (test run) : 400179EA
CRC32 hash : 400179EA
CRC32 hash (skip zero) : D1594796
AccurateRip v1 signature : 429FE47E
AccurateRip v2 signature : 738F2DD6
->Accurately ripped (v1+v2, confidence 16+17/87)
Statistics
Read error : 0
Jitter error (maybe fixed) : 0
Retry sector count : 0
Damaged sector count : 0

Track 02

Track gain : -7.68 dB
Peak : 1.000000
CRC32 hash (test run) : 656A0122
CRC32 hash : 656A0122
CRC32 hash (skip zero) : 491B0AF1
AccurateRip v1 signature : 7CF2D19E
AccurateRip v2 signature : 9B218B02
->Accurately ripped (v1+v2, confidence 16+17/87)
Statistics
Read error : 0
Jitter error (maybe fixed) : 0
Retry sector count : 0
Damaged sector count : 0

Track 03

Track gain : -7.74 dB
Peak : 1.000000
CRC32 hash (test run) : 9B20541F
CRC32 hash : 9B20541F
CRC32 hash (skip zero) : 4D7CD013
AccurateRip v1 signature : 0C5287AA
AccurateRip v2 signature : B3760084
->Accurately ripped (v1+v2, confidence 16+17/86)
Statistics
Read error : 0
Jitter error (maybe fixed) : 0
Retry sector count : 0
Damaged sector count : 0

Track 04

Track gain : -7.71 dB
Peak : 1.000000
CRC32 hash (test run) : 43F779FB
CRC32 hash : 43F779FB
CRC32 hash (skip zero) : D81E0A10
AccurateRip v1 signature : 66BFCD8A
AccurateRip v2 signature : 49EE35DC
->Accurately ripped (v1+v2, confidence 16+17/84)
Statistics
Read error : 0
Jitter error (maybe fixed) : 0
Retry sector count : 0
Damaged sector count : 0

Track 05

Track gain : -6.41 dB
Peak : 1.000000
CRC32 hash (test run) : 99D65605
CRC32 hash : 99D65605
CRC32 hash (skip zero) : B122B6CA
AccurateRip v1 signature : 6F5666FF
AccurateRip v2 signature : E324622C
->Accurately ripped (v1+v2, confidence 16+17/87)
Statistics
Read error : 0
Jitter error (maybe fixed) : 0
Retry sector count : 0
Damaged sector count : 0

Track 06

Track gain : -7.32 dB
Peak : 1.000000
CRC32 hash (test run) : 06EC698E
CRC32 hash : 06EC698E
CRC32 hash (skip zero) : 79012163
AccurateRip v1 signature : DEBD73AB
AccurateRip v2 signature : 111782E0
->Accurately ripped (v1+v2, confidence 16+17/86)
Statistics
Read error : 0
Jitter error (maybe fixed) : 0
Retry sector count : 0
Damaged sector count : 0

Track 07

Track gain : -7.38 dB
Peak : 1.000000
CRC32 hash (test run) : DDC98107
CRC32 hash : DDC98107
CRC32 hash (skip zero) : 92ABFCB5
AccurateRip v1 signature : C91068F9
AccurateRip v2 signature : 09FD2186
->Accurately ripped (v1+v2, confidence 16+17/88)
Statistics
Read error : 0
Jitter error (maybe fixed) : 0
Retry sector count : 0
Damaged sector count : 0

Track 08

Track gain : -7.73 dB
Peak : 1.000000
CRC32 hash (test run) : BB1469CC
CRC32 hash : BB1469CC
CRC32 hash (skip zero) : 6B8F24B6
AccurateRip v1 signature : 59199BD8
AccurateRip v2 signature : D1E80E37
->Accurately ripped (v1+v2, confidence 16+17/85)
Statistics
Read error : 0
Jitter error (maybe fixed) : 0
Retry sector count : 0
Damaged sector count : 0

Track 09

Track gain : -7.38 dB
Peak : 1.000000
CRC32 hash (test run) : 72DB73F0
CRC32 hash : 72DB73F0
CRC32 hash (skip zero) : 8EA1E313
AccurateRip v1 signature : 0BB81F6F
AccurateRip v2 signature : 0D033D92
->Accurately ripped (v1+v2, confidence 16+17/87)
Statistics
Read error : 0
Jitter error (maybe fixed) : 0
Retry sector count : 0
Damaged sector count : 0

Track 10

Track gain : -7.51 dB
Peak : 1.000000
CRC32 hash (test run) : 3E40A6B3
CRC32 hash : 3E40A6B3
CRC32 hash (skip zero) : 718AD2D5
AccurateRip v1 signature : 44C954C7
AccurateRip v2 signature : B5FB4C74
->Accurately ripped (v1+v2, confidence 16+17/86)
Statistics
Read error : 0
Jitter error (maybe fixed) : 0
Retry sector count : 0
Damaged sector count : 0

Track 11

Track gain : -7.92 dB
Peak : 1.000000
CRC32 hash (test run) : 81423FBE
CRC32 hash : 81423FBE
CRC32 hash (skip zero) : B4BB19E9
AccurateRip v1 signature : 392AAAF9
AccurateRip v2 signature : F0653E68
->Accurately ripped (v1+v2, confidence 16+17/87)
Statistics
Read error : 0
Jitter error (maybe fixed) : 0
Retry sector count : 0
Damaged sector count : 0

No errors occurred

End of status report

[CUETools log; Date: 29.07.2018 2:14:21; Version: 2.1.4]
[CTDB TOCID: JekxcuV5MvwvEhvpuVYNN_1Znyg-] found.
Track | CTDB Status
1 | (142/142) Accurately ripped
2 | (142/142) Accurately ripped
3 | (142/142) Accurately ripped
4 | (142/142) Accurately ripped
5 | (142/142) Accurately ripped
6 | (141/142) Accurately ripped
7 | (141/142) Accurately ripped
8 | (141/142) Accurately ripped
9 | (141/142) Accurately ripped
10 | (141/142) Accurately ripped
11 | (138/142) Accurately ripped
[AccurateRip ID: 0018ebd4-00d78b44-7b0dea0b] found.
Track [ CRC | V2 ] Status
01 [429fe47e|738f2dd6] (017+034/146) Accurately ripped
02 [7cf2d19e|9b218b02] (017+034/146) Accurately ripped
03 [0c5287aa|b3760084] (017+034/145) Accurately ripped
04 [66bfcd8a|49ee35dc] (017+034/143) Accurately ripped
05 [6f5666ff|e324622c] (017+034/147) Accurately ripped
06 [debd73ab|111782e0] (017+034/145) Accurately ripped
07 [c91068f9|09fd2186] (017+034/147) Accurately ripped
08 [59199bd8|d1e80e37] (017+034/144) Accurately ripped
09 [0bb81f6f|0d033d92] (017+034/147) Accurately ripped
10 [44c954c7|b5fb4c74] (017+034/147) Accurately ripped
11 [392aaaf9|f0653e68] (017+034/147) Accurately ripped
Offsetted by -634:
01 [0b61b6cc] (005/146) Accurately ripped
02 [9ed05cf6] (006/146) Accurately ripped
03 [1f89de0c] (006/145) Accurately ripped
04 [8e1a54e9] (006/143) Accurately ripped
05 [7b5ded75] (006/147) Accurately ripped
06 [53f6fefa] (006/145) Accurately ripped
07 [5e4518f0] (007/147) Accurately ripped
08 [00de2cae] (006/144) Accurately ripped
09 [791e5478] (007/147) Accurately ripped
10 [c3b4eff9] (007/147) Accurately ripped
11 [e6bc515c] (006/147) Accurately ripped
Offsetted by 12:
01 [bc7e5d2b] (031/146) Accurately ripped
02 [276391bb] (030/146) Accurately ripped
03 [487afdbe] (030/145) Accurately ripped
04 [485fce22] (028/143) Accurately ripped
05 [72fc6aa7] (031/147) Accurately ripped
06 [4860f835] (029/145) Accurately ripped
07 [df8c560a] (030/147) Accurately ripped
08 [d9ebeb46] (028/144) Accurately ripped
09 [1841738f] (029/147) Accurately ripped
10 [cb4f88af] (028/147) Accurately ripped
11 [46bcc056] (030/147) Accurately ripped

Track Peak [ CRC32 ] [W/O NULL]
– 100,0 [6D14484E] [249CBB5B]
01 100,0 [400179EA] [D1594796]
02 100,0 [656A0122] [491B0AF1]
03 100,0 [9B20541F] [4D7CD013]
04 100,0 [43F779FB] [D81E0A10]
05 100,0 [99D65605] [B122B6CA]
06 100,0 [06EC698E] [79012163]
07 100,0 [DDC98107] [92ABFCB5]
08 100,0 [BB1469CC] [6B8F24B6]
09 100,0 [72DB73F0] [8EA1E313]
10 100,0 [3E40A6B3] [718AD2D5]
11 100,0 [81423FBE] [B4BB19E9]

foobar2000 1.2 / Dynamic Range Meter 1.1.1
log date: 2018-07-29 02:23:22

––––––––––––––––––––––––––––––––––––––––
Analyzed: Muddy Waters, Johnny Winter, & James Cotton / Breakin' It Up, Breakin' It Down
––––––––––––––––––––––––––––––––––––––––

DR Peak RMS Duration Track
––––––––––––––––––––––––––––––––––––––––
DR9 0.00 dB -10.40 dB 5:54 01-Black Cat Bone/Dust My Broom
DR9 0.00 dB -11.73 dB 3:48 02-Can't Be Satisfied
DR9 0.00 dB -11.35 dB 6:58 03-Caledonia
DR9 0.00 dB -10.91 dB 7:50 04-Dealin' With The Devil
DR10 0.00 dB -11.33 dB 2:09 05-Rocket 88
DR9 0.00 dB -10.94 dB 6:00 06-I Done Got Over It
DR10 0.00 dB -11.59 dB 5:54 07-How Long Can A Fool Go Wrong
DR9 0.00 dB -9.82 dB 5:54 08-Mama Talk To Your Daughter
DR9 0.00 dB -11.05 dB 5:47 09-Love Her With A Feeling
DR9 0.00 dB -11.33 dB 4:10 10-Trouble No More
DR8 0.00 dB -9.51 dB 4:59 11-Got My Mojo Workin'
––––––––––––––––––––––––––––––––––––––––

Number of tracks: 11
Official DR value: DR9

Samplerate: 44100 Hz
Channels: 2
Bits per sample: 16
Bitrate: 924 kbps
Codec: FLAC
================================================================================

Muddy Waters, Johnny Winter, & James Cotton - Breakin' It Up, Breakin' It Down (2007) Recorded 1977

Muddy Waters, Johnny Winter, & James Cotton - Breakin' It Up, Breakin' It Down (2007) Recorded 1977

All thanks to original releaser - igaann

More interesting music in My Blog