Subcategories

Muhal Richard Abrams - Family Talk (1993)

Posted By: basa005
Muhal Richard Abrams - Family Talk (1993)

Muhal Richard Abrams - Family Talk (1993)
EAC RIP | APE + CUE + LOG | COVER + BOOK | RAR FILES (3% recovery) | 358 Mb
Jazz | Black Saint 120132-2

Muhal Richard Abrams - Family Talk (1993)

Tracklist:
1. "Meditation 1" - 4:35
2. "Drumbutu" - 17:21
3. "DizBirdMonkBudMax (A Tribute)" - 15:48
4. "FamilyTalk" - 13:47
5. "Illuso" - 15:15
6. "Sound Image of the Past, Present and Future" - 5:19

All compositions by Muhal Richard Abrams
Recorded February 26–27 & March 1, 1993 at Sear Sound, New York City

Jack Walrath: trumpet
Patience Higgins: bass clarinet, tenor saxophone, English horn
Brad Jones: bass
Warren Smith: vibes, timpani, marimba, gongs
Reggie Nicholson: drums, marimba, bells
Muhal Richard Abrams: piano, synthesizer, conductor

Family Talk is an album by Muhal Richard Abrams released on the Italian Black Saint label in 1993 and features performances of six of Abrams compositions by Abrams, Jack Walrath, Patience Higgins, Brad Jones, Warren Smith and Reggie Nicholson. The Allmusic review by Scott Yanow states "This CD has such intriguing writing by Muhal Richard Abrams for his sextet that the group sounds like an orchestra at times… This is one of Muhal Richard Abrams' better-known combo sessions."


Exact Audio Copy V0.99 prebeta 4 from 23. January 2008

EAC extraction logfile from 26. January 2011, 15:20

Muhal Richard Abrams / Family Talk

Used drive : ATAPI DVD A DH16A1L Adapter: 1 ID: 0

Read mode : Secure
Utilize accurate stream : Yes
Defeat audio cache : Yes
Make use of C2 pointers : No

Read offset correction : 6
Overread into Lead-In and Lead-Out : No
Fill up missing offset samples with silence : Yes
Delete leading and trailing silent blocks : No
Null samples used in CRC calculations : Yes
Used interface : Native Win32 interface for Win NT & 2000

Used output format : Internal WAV Routines
Sample format : 44.100 Hz; 16 Bit; Stereo


TOC of the extracted CD

Track | Start | Length | Start sector | End sector
––––––––––––––––––––––––––––-
1 | 0:00.33 | 4:35.30 | 33 | 20687
2 | 4:35.63 | 17:21.27 | 20688 | 98789
3 | 21:57.15 | 15:48.18 | 98790 | 169907
4 | 37:45.33 | 13:47.50 | 169908 | 231982
5 | 51:33.08 | 15:15.25 | 231983 | 300632
6 | 66:48.33 | 5:19.00 | 300633 | 324557


Range status and errors

Selected range

Filename C:\avaxhome\Muhal Richard Abrams - Family Talk.wav

Peak level 100.0 %
Range quality 99.9 %
Copy CRC D678EEC2
Copy OK

No errors occurred


AccurateRip summary

Track 1 accurately ripped (confidence 5) [F85319CE]
Track 2 accurately ripped (confidence 5) [449EAD9B]
Track 3 accurately ripped (confidence 5) [8D60B56C]
Track 4 accurately ripped (confidence 5) [9E544454]
Track 5 accurately ripped (confidence 5) [180203CC]
Track 6 accurately ripped (confidence 5) [3ECB3155]

All tracks accurately ripped

End of status report

FS download:
cover