Tags
Language
Tags

Muse: 3CD (Germany Original) (1999-2006)

Posted By: v3122
Muse: 3CD (Germany Original) (1999-2006)

Muse: 3CD (Germany Original) (1999-2006)
EAC | Flac(Image) + Cue + Log & MP3 CBR 320Kbps
Taste Media, A&E | ~ 997 or 346 Mb | Scans(jpg) -> 200 Mb
Alternative Rock

~ 1999 - Showbiz; 2001 - Origin Of Symmetry; 2006 - Black Holes And Revelations ~

Muse's fusion of progressive rock, electronica, and Radiohead-influenced experimentation have helped them sell millions of records and top charts worldwide. It's all crafted by guitarist/vocalist Matthew Bellamy, bassist Chris Wolstenholme, and drummer Dominic Howard, a trio of friends who began playing music together in their hometown of Teignmouth, Devon; they started the first incarnation of the band at the age of 13, changing the name of the group from Gothic Plague to Fixed Penalty to Rocket Baby Dolls as time passed. By 1997, the bandmates settled on the name Muse and released their self-titled debut EP on Dangerous Records, followed by the Muscle Museum EP in 1998. The group's emotive, passionate sound and live presence drew critical acclaim and industry buzz, and Muse signed a deal with Maverick Records after a trip to New York's CMJ festival. The singles "Cave" and "Uno" preceded their debut full-length album, Showbiz, which was released toward the end of 1999. Two years later, Muse issued Origin of Symmetry and had a major hit with "Hyper Music," which helped propel the album to platinum status in the U.K.

In 2002, fans were treated to Hullabaloo Soundtrack, a combination rarities/live set that peaked at number ten in Europe. Muse then returned with a proper studio effort, Absolution, which became the band's first album to chart in America. A short North American tour in the spring of 2004 coincided with Muse's spot on the fifth annual Coachella Music and Arts Festival, and Absolution eventually went gold in the U.S. Back at home, the album earned Muse their second platinum certification.

Released in 2006, Black Holes & Revelations marked the band's brightest, most dynamic set of material to date, topping the U.K. album chart within its first week and earning Muse their second consecutive number one album at home. In America, the album broke into the Top Ten. Muse toured Europe, America, Australia, and Southeast Asia in support of Black Holes & Revelations, and their dynamic stage performance won the band multiple awards for Best Live Act, including accolades from the NME Awards, the Q Awards, and the Vodafone Live Music Awards. (It was also captured on 2008's H.A.A.R.P. Live from Wembley.)

The trio spent the remainder of 2008, as well as the early part of 2009, in the recording studio, eventually emerging with The Resistance in September. Reviews were very positive, and the album hit number one in more than a dozen countries. The band soon kicked off a world tour, headlining shows as well as supporting U2. In 2011, Bellamy and company were asked to write the official theme for the 2012 Summer Olympics, which were being held in London, and the band returned with the triumphant rock anthem "Survival." The song also became the lead single of their next album, 2012's The 2nd Law.

The road-hungry band undertook another large-scale tour to promote The 2nd Law, and their spectacular show at Rome's Olympic Stadium – complete with pyrotechnics, video walls, and acrobats – was filmed in ultra-high definition for the concert movie Live at Rome Olympic Stadium, which was slated for release theatrically in December 2013. In early March 2015, the band dropped "Dead Inside," the first single from their seventh studio long-player Drones, which arrived in June. It was their fifth consecutive U.K. number one album and their first release to top the U.S. charts

by Heather Phares, AMG
Muse: 3CD (Germany Original) (1999-2006)


Muse: 3CD (Germany Original) (1999-2006):

Muse: 3CD (Germany Original) (1999-2006)

CD01: Muse - Showbiz (1999)
EAC | Flac(Image) + Cue + Log & MP3 CBR 320Kbps
Taste Media, 5050466888624 | ~ 336 or 117 Mb | Scans(jpg) -> 53 Mb
Alternative Rock

The musical touchstone for the British trio Muse is obviously Radiohead and that fact is crystal clear from the smoldering opening cut, "Sunburn." Their John Leckie-produced debut, Showbiz, is strong on angst-filled vocals, esoteric lyrics, and dramatic shifts in sonic dynamics. Hailing from rural England, singer/guitarist Matthew Bellamy, bassist Chris Wolstenholme, and drummer Dominic Howard average 20 years of age, so there's plenty of potential for them to grow into a sound that is more of their own. In the meantime, Bellamy does an impressive job of aping the quirky, nervous vocal tic of Thom Yorke on songs like the mid-tempo, Mellotron-driven "Muscle Museum," and he cuts loose vocally on the soaring "Cave" and on the lovely, mournful ballad "Unintended." Showbiz hints at the potential in this young band, and it should be of interest to many Radiohead fans.

by Tom Demalon, AMG
Tracklist:

01. Sunburn 3:55
02. Muscle Museum 4:23
03. Fillip 4:02
04. Falling Down 4:34
05. Cave 4:46
06. Showbiz 5:17
07. Unintended 3:57
08. Uno 3:39
09. Sober 4:04
10. Escape 3:32
11. Overdue 2:26
12. Hate This & I'll Love You 5:12

Exact Audio Copy V1.1 from 23. June 2015

EAC extraction logfile from 7. April 2016, 20:29

Muse / Showbiz (5050466888624)

Used drive : PLEXTOR DVDR PX-891SA Adapter: 1 ID: 0

Read mode : Secure
Utilize accurate stream : Yes
Defeat audio cache : Yes
Make use of C2 pointers : No

Read offset correction : 6
Overread into Lead-In and Lead-Out : No
Fill up missing offset samples with silence : Yes
Delete leading and trailing silent blocks : No
Null samples used in CRC calculations : Yes
Used interface : Native Win32 interface for Win NT & 2000

Used output format : User Defined Encoder
Selected bitrate : 128 kBit/s
Quality : High
Add ID3 tag : No
Command line compressor : C:\Program Files (x86)\Exact Audio Copy\Flac\flac.exe
Additional command line options : -V -8 -T "Genre=%genre%" -T "Artist=%artist%" -T "Title=%title%" -T "Album=%albumtitle%" -T "Date=%year%" -T "Tracknumber=%tracknr%" -T "Comment=%comment%" %source%


TOC of the extracted CD

Track | Start | Length | Start sector | End sector
––––––––––––––––––––––––––––-
1 | 0:00.00 | 3:54.47 | 0 | 17596
2 | 3:54.47 | 4:22.55 | 17597 | 37301
3 | 8:17.27 | 4:01.53 | 37302 | 55429
4 | 12:19.05 | 4:33.60 | 55430 | 75964
5 | 16:52.65 | 4:45.62 | 75965 | 97401
6 | 21:38.52 | 5:17.08 | 97402 | 121184
7 | 26:55.60 | 3:56.70 | 121185 | 138954
8 | 30:52.55 | 3:38.45 | 138955 | 155349
9 | 34:31.25 | 4:04.17 | 155350 | 173666
10 | 38:35.42 | 3:31.43 | 173667 | 189534
11 | 42:07.10 | 2:26.20 | 189535 | 200504
12 | 44:33.30 | 5:11.45 | 200505 | 223874


Range status and errors

Selected range

Filename H:\dafnaplus\Muse ‎– Showbiz\Muse - Showbiz (5050466888624).wav

Peak level 99.2 %
Extraction speed 7.2 X
Range quality 99.9 %
Test CRC F464E5F5
Copy CRC F464E5F5
Copy OK

No errors occurred


AccurateRip summary

Track 1 accurately ripped (confidence 200) [2520E105] (AR v2)
Track 2 accurately ripped (confidence 200) [43F3D4EC] (AR v2)
Track 3 accurately ripped (confidence 200) [73E0D41F] (AR v2)
Track 4 accurately ripped (confidence 200) [CA9F39B2] (AR v2)
Track 5 accurately ripped (confidence 200) [2FC33D1D] (AR v2)
Track 6 accurately ripped (confidence 200) [7F220317] (AR v2)
Track 7 accurately ripped (confidence 200) [F7003BED] (AR v2)
Track 8 accurately ripped (confidence 200) [544F8D97] (AR v2)
Track 9 accurately ripped (confidence 200) [83BDBE90] (AR v2)
Track 10 accurately ripped (confidence 200) [C61A5758] (AR v2)
Track 11 accurately ripped (confidence 200) [57E3FA6F] (AR v2)
Track 12 accurately ripped (confidence 200) [2571EF7A] (AR v2)

All tracks accurately ripped

End of status report

–– CUETools DB Plugin V2.1.6

[CTDB TOCID: xi_0jHRTymi9_g9zWT2VN5UuYas-] found
Submit result: already submitted
Track | CTDB Status
1 | (361/364) Accurately ripped
2 | (364/364) Accurately ripped
3 | (363/364) Accurately ripped
4 | (363/364) Accurately ripped
5 | (363/364) Accurately ripped
6 | (363/364) Accurately ripped
7 | (364/364) Accurately ripped
8 | (363/364) Accurately ripped
9 | (363/364) Accurately ripped
10 | (362/364) Accurately ripped
11 | (363/364) Accurately ripped
12 | (363/364) Accurately ripped


==== Log checksum C3FCF550083039B118DB5F86E81548B9D2D32EB572A5C5356B7A54C02547E783 ====


[CUETools log; Date: 01.08.2016 15:50:35; Version: 2.1.4]
[CTDB TOCID: xi_0jHRTymi9_g9zWT2VN5UuYas-] found.
Track | CTDB Status
1 | (407/411) Accurately ripped
2 | (411/411) Accurately ripped
3 | (410/411) Accurately ripped
4 | (409/411) Accurately ripped
5 | (410/411) Accurately ripped
6 | (410/411) Accurately ripped
7 | (410/411) Accurately ripped
8 | (409/411) Accurately ripped
9 | (409/411) Accurately ripped
10 | (407/411) Accurately ripped
11 | (409/411) Accurately ripped
12 | (409/411) Accurately ripped
[AccurateRip ID: 0016afb0-00d3040d-990ba90c] found.
Track [ CRC | V2 ] Status
01 [5bbcc3ad|2520e105] (200+200/405) Accurately ripped
02 [ac96d58f|43f3d4ec] (200+200/405) Accurately ripped
03 [da263667|73e0d41f] (200+200/405) Accurately ripped
04 [f94c53a0|ca9f39b2] (200+200/405) Accurately ripped
05 [23cc8b76|2fc33d1d] (200+200/405) Accurately ripped
06 [6a3bd74b|7f220317] (200+200/405) Accurately ripped
07 [f93f27ee|f7003bed] (200+200/405) Accurately ripped
08 [a5b978c1|544f8d97] (200+200/405) Accurately ripped
09 [6ac8cd72|83bdbe90] (200+200/405) Accurately ripped
10 [160d4f78|c61a5758] (200+200/405) Accurately ripped
11 [d8ec6f05|57e3fa6f] (200+200/407) Accurately ripped
12 [4aebb75f|2571ef7a] (200+200/409) Accurately ripped
Offsetted by -700:
01 [76d235ea] (000/405) No match (V2 was not tested)
02 [eee409ea] (000/405) No match (V2 was not tested)
03 [23dc535f] (000/405) No match (V2 was not tested)
04 [415be1fc] (000/405) No match (V2 was not tested)
05 [ce52da16] (000/405) No match (V2 was not tested)
06 [8f7200cf] (000/405) No match (V2 was not tested)
07 [bf464c39] (000/405) No match (V2 was not tested)
08 [c32881ce] (000/405) No match (V2 was not tested)
09 [56be76e6] (000/405) No match (V2 was not tested)
10 [215c11f8] (000/405) No match (V2 was not tested)
11 [8ba680b5] (000/407) No match (V2 was not tested)
12 [6f378d47] (000/409) No match (V2 was not tested)
Offsetted by -78:
01 [4a783033] (000/405) No match (V2 was not tested)
02 [cc415ff5] (000/405) No match (V2 was not tested)
03 [e5a92c33] (000/405) No match (V2 was not tested)
04 [020f283e] (000/405) No match (V2 was not tested)
05 [e305e95c] (000/405) No match (V2 was not tested)
06 [72c0b5d9] (000/405) No match (V2 was not tested)
07 [b8c0deee] (000/405) No match (V2 was not tested)
08 [f8179c77] (000/405) No match (V2 was not tested)
09 [18fd496b] (000/405) No match (V2 was not tested)
10 [b368c6c3] (000/405) No match (V2 was not tested)
11 [b771ce9d] (000/407) No match (V2 was not tested)
12 [bd6931f3] (000/409) No match (V2 was not tested)
Offsetted by 6:
01 [95106cb2] (000/405) No match (V2 was not tested)
02 [1a1fb190] (000/405) No match (V2 was not tested)
03 [f71f83c9] (000/405) No match (V2 was not tested)
04 [e4ee920a] (000/405) No match (V2 was not tested)
05 [13101167] (000/405) No match (V2 was not tested)
06 [56cef896] (000/405) No match (V2 was not tested)
07 [48d862a3] (000/405) No match (V2 was not tested)
08 [bfef68aa] (000/405) No match (V2 was not tested)
09 [96598769] (000/405) No match (V2 was not tested)
10 [31b4f781] (000/405) No match (V2 was not tested)
11 [79098f0d] (000/407) No match (V2 was not tested)
12 [a4934b7b] (000/409) No match (V2 was not tested)

Track Peak [ CRC32 ] [W/O NULL] [ LOG ]
– 99,2 [F464E5F5] [D1EA1E43] CRC32
01 98,6 [55BE1344] [C576A028]
02 99,2 [5783D474] [1F0B1AA6]
03 98,8 [DFF1D9FD] [30FE7FF2]
04 98,6 [25995254] [B85B6EAB]
05 98,6 [E67DF4D0] [59A75488]
06 98,5 [0562D9DB] [3157A03A]
07 98,9 [0EA5E86E] [8F3D99DC]
08 98,4 [6C82E632] [20437B52]
09 98,5 [89491BF9] [751C6F2F]
10 98,5 [D3F4ED85] [919058BD]
11 99,0 [B24FD0A9] [1D1135FF]
12 98,6 [F0B1FE2F] [9C9F34E3]


Muse: 3CD (Germany Original) (1999-2006)

CD02: Muse - Origin Of Symmetry (2001)
EAC | Flac(Image) + Cue + Log & MP3 CBR 320Kbps
Taste Media, 5050466847621 | ~ 347 or 122 Mb | Scans(jpg) -> 73 Mb
Alternative Rock

If you're going to pillage someone else's ideas, then go for broke. Because even if you find yourself crammed between the barriers of creative space, utterly at a loss for ideas, expression, or thought, you'd still have a self-respect buzzing in your ear like a mad angelic insect, putting down the newspaper and taking out a cigar to remind you that, hell, if want to sound like Radiohead when even Thom Yorke doesn't want to sound like Radiohead, you might as well take it to preposterous, bombastic, over-the-top levels. Add church organs, mental electronics, riffs bouncing off each other like the monolithic screams in 2001: A Space Odyssey, and you'll finally be in position to crack skulls like coconuts and make the world's speakers ooze gooey blood.

by Dean Carlson, AMG
Tracklist:

01. New Born 6:03
02. Bliss 4:12
03. Space Dementia 6:21
04. Hyper Music 3:21
05. Plug In Baby 3:40
06. Citizen Erased 7:19
07. Micro Cuts 3:39
08. Screenager 4:20
09. Darkshines 4:48
10. Feeling Good 3:20
11. Megalomania 4:38

Exact Audio Copy V1.1 from 23. June 2015

EAC extraction logfile from 6. April 2016, 21:40

Muse / Origin Of Symmetry

Used drive : PLEXTOR DVDR PX-891SA Adapter: 1 ID: 0

Read mode : Secure
Utilize accurate stream : Yes
Defeat audio cache : Yes
Make use of C2 pointers : No

Read offset correction : 6
Overread into Lead-In and Lead-Out : No
Fill up missing offset samples with silence : Yes
Delete leading and trailing silent blocks : No
Null samples used in CRC calculations : Yes
Used interface : Native Win32 interface for Win NT & 2000

Used output format : User Defined Encoder
Selected bitrate : 128 kBit/s
Quality : High
Add ID3 tag : No
Command line compressor : C:\Program Files (x86)\Exact Audio Copy\Flac\flac.exe
Additional command line options : -V -8 -T "Genre=%genre%" -T "Artist=%artist%" -T "Title=%title%" -T "Album=%albumtitle%" -T "Date=%year%" -T "Tracknumber=%tracknr%" -T "Comment=%comment%" %source%


TOC of the extracted CD

Track | Start | Length | Start sector | End sector
––––––––––––––––––––––––––––-
1 | 0:00.00 | 6:03.32 | 0 | 27256
2 | 6:03.32 | 4:12.35 | 27257 | 46191
3 | 10:15.67 | 6:20.60 | 46192 | 74751
4 | 16:36.52 | 3:21.28 | 74752 | 89854
5 | 19:58.05 | 3:39.60 | 89855 | 106339
6 | 23:37.65 | 7:19.22 | 106340 | 139286
7 | 30:57.12 | 3:38.48 | 139287 | 155684
8 | 34:35.60 | 4:20.00 | 155685 | 175184
9 | 38:55.60 | 4:47.40 | 175185 | 196749
10 | 43:43.25 | 3:19.57 | 196750 | 211731
11 | 47:03.07 | 4:38.08 | 211732 | 232589


Range status and errors

Selected range

Filename H:\dafnaplus\Muse\2 Origin Of Symmetry\Muse - Origin Of Symmetry.wav

Peak level 99.8 %
Extraction speed 7.3 X
Range quality 99.9 %
Test CRC E80DA3C1
Copy CRC E80DA3C1
Copy OK

No errors occurred


AccurateRip summary

Track 1 accurately ripped (confidence 200) [8CCD63EA] (AR v2)
Track 2 accurately ripped (confidence 200) [78E0B900] (AR v2)
Track 3 accurately ripped (confidence 200) [53B67505] (AR v2)
Track 4 accurately ripped (confidence 200) [A37E05B6] (AR v2)
Track 5 accurately ripped (confidence 200) [3381096A] (AR v2)
Track 6 accurately ripped (confidence 200) [659438C2] (AR v2)
Track 7 accurately ripped (confidence 200) [EDE78C74] (AR v2)
Track 8 accurately ripped (confidence 200) [8ED24AFD] (AR v2)
Track 9 accurately ripped (confidence 200) [0D9EF8D5] (AR v2)
Track 10 accurately ripped (confidence 200) [5CD982A8] (AR v2)
Track 11 accurately ripped (confidence 200) [F9A786DC] (AR v2)

All tracks accurately ripped

End of status report

–– CUETools DB Plugin V2.1.6

[CTDB TOCID: Vcxwg3aMXsvMb2ER4jbdpDjIy3w-] found
Submit result: Vcxwg3aMXsvMb2ER4jbdpDjIy3w- has been confirmed
Track | CTDB Status
1 | (506/509) Accurately ripped
2 | (509/509) Accurately ripped
3 | (508/509) Accurately ripped
4 | (509/509) Accurately ripped
5 | (509/509) Accurately ripped
6 | (507/509) Accurately ripped
7 | (507/509) Accurately ripped
8 | (507/509) Accurately ripped
9 | (508/509) Accurately ripped
10 | (508/509) Accurately ripped
11 | (508/509) Accurately ripped


==== Log checksum 87142C5C7F80C02C42D75C38F7A3FF6B68C26655B17524E1EDDB46A698A0DC05 ====


[CUETools log; Date: 06.04.2016 21:40:46; Version: 2.1.5]
[CTDB TOCID: Vcxwg3aMXsvMb2ER4jbdpDjIy3w-] found.
Track | CTDB Status
1 | (507/510) Accurately ripped
2 | (510/510) Accurately ripped
3 | (509/510) Accurately ripped
4 | (510/510) Accurately ripped
5 | (510/510) Accurately ripped
6 | (508/510) Accurately ripped
7 | (508/510) Accurately ripped
8 | (508/510) Accurately ripped
9 | (509/510) Accurately ripped
10 | (509/510) Accurately ripped
11 | (509/510) Accurately ripped
[AccurateRip ID: 00163609-00be3048-a00c1d0b] found.
Track [ CRC | V2 ] Status
01 [0b578098|8ccd63ea] (151+200/656) Accurately ripped
02 [e3114aab|78e0b900] (150+200/663) Accurately ripped
03 [cbb0ff4f|53b67505] (151+200/661) Accurately ripped
04 [09f682b4|a37e05b6] (152+200/658) Accurately ripped
05 [80006372|3381096a] (151+200/665) Accurately ripped
06 [aa3ac777|659438c2] (149+200/657) Accurately ripped
07 [b5550f5f|ede78c74] (151+200/659) Accurately ripped
08 [6e81f292|8ed24afd] (150+200/658) Accurately ripped
09 [cfdc0084|0d9ef8d5] (151+200/657) Accurately ripped
10 [0f1fa7f4|5cd982a8] (151+200/661) Accurately ripped
11 [b8905da9|f9a786dc] (147+200/647) Accurately ripped
Offsetted by 664:
01 [3df0b6ff] (177/656) Accurately ripped
02 [5bff783c] (180/663) Accurately ripped
03 [314abdf3] (178/661) Accurately ripped
04 [021836ab] (176/658) Accurately ripped
05 [e8edf113] (180/665) Accurately ripped
06 [23fc0749] (177/657) Accurately ripped
07 [705e6362] (172/659) Accurately ripped
08 [df5ee9a7] (174/658) Accurately ripped
09 [3ec83edf] (175/657) Accurately ripped
10 [024f00e7] (178/661) Accurately ripped
11 [c3061cf1] (171/647) Accurately ripped
Offsetted by -36:
01 [782fb438] (000/656) No match (V2 was not tested)
02 [87b015fa] (000/663) No match (V2 was not tested)
03 [5133632c] (000/661) No match (V2 was not tested)
04 [d14f82e6] (000/658) No match (V2 was not tested)
05 [a5d753bc] (000/665) No match (V2 was not tested)
06 [e4cedcea] (000/657) No match (V2 was not tested)
07 [b128e594] (000/659) No match (V2 was not tested)
08 [519a0875] (000/658) No match (V2 was not tested)
09 [13051dca] (000/657) No match (V2 was not tested)
10 [c36af084] (000/661) No match (V2 was not tested)
11 [b3f4342c] (000/647) No match (V2 was not tested)
Offsetted by -3:
01 [7b08f1f9] (000/656) No match (V2 was not tested)
02 [81359bc6] (000/663) No match (V2 was not tested)
03 [e92ec65f] (000/661) No match (V2 was not tested)
04 [15a1b247] (000/658) No match (V2 was not tested)
05 [31cca608] (000/665) No match (V2 was not tested)
06 [dfed99e9] (000/657) No match (V2 was not tested)
07 [6a5f4df2] (000/659) No match (V2 was not tested)
08 [8511c07a] (000/658) No match (V2 was not tested)
09 [bdc7d2f6] (000/657) No match (V2 was not tested)
10 [0b4ea3d6] (000/661) No match (V2 was not tested)
11 [a313da9e] (000/647) No match (V2 was not tested)
Offsetted by 6:
01 [26604a7e] (000/656) No match
02 [32cd37df] (000/663) No match
03 [d56fafeb] (000/661) No match
04 [de07629a] (000/658) No match
05 [15f68d48] (000/665) No match
06 [3f74910e] (000/657) No match
07 [a4e1cdd0] (000/659) No match
08 [50478631] (000/658) No match (V2 was not tested)
09 [f36adfa5] (000/657) No match
10 [ee45b047] (000/661) No match
11 [e36d637e] (000/647) No match
Offsetted by 670:
01 [004e8069] (000/656) No match
02 [9144f2b1] (000/663) No match
03 [81b0eb10] (000/661) No match
04 [4ae8c62f] (000/658) No match
05 [21f4358c] (000/665) No match
06 [f189f65f] (000/657) No match
07 [2da906aa] (002/659) Accurately ripped
08 [b2e7eefb] (002/658) Accurately ripped
09 [adc916bf] (000/657) No match (V2 was not tested)
10 [0c35228d] (000/661) No match (V2 was not tested)
11 [dc05068a] (000/647) No match (V2 was not tested)

Track Peak [ CRC32 ] [W/O NULL] [ LOG ]
– 99,8 [E80DA3C1] [D5A0DE45] CRC32
01 99,8 [BDC12ECE] [9825C375]
02 99,8 [452A2920] [EE677AFF]
03 99,8 [31B8EE19] [AC17AE80]
04 99,8 [4AF172D5] [09B2CD4D]
05 99,8 [C0151C73] [3F8B8902]
06 99,8 [DC025CAA] [44E63B91]
07 99,8 [A678E999] [00CCE67A]
08 99,8 [A402ECC4] [86A5A6C9]
09 99,8 [CAD59737] [3F15AB30]
10 99,8 [D02815C6] [B368DC09]
11 94,5 [8D9C3299] [CF6D88A6]


Muse: 3CD (Germany Original) (1999-2006)

CD03: Muse - Black Holes And Revelations (2006)
EAC | Flac(Image) + Cue + Log & MP3 CBR 320Kbps
A&E, 25646 3509-5 | ~ 314 or 107 Mb | Scans(jpg) -> 74 Mb
Alternative Rock

Naysayers listen up: Muse refuses to be the "next" Radiohead. Since forming in 1997, the alternative rock trio has continuously battled comparisons to the famed Oxford group while ambitiously creating a sound of its own, mixing elements of glam, pop, and symphonic music into a rock hybrid. British fans have praised the group for years, despite Americans taking until Absolution to discover Muse and give them their rightful props. Whether or not you championed the grand dramatics of Absolution, Muse is a solid, unique band and Black Holes and Revelations defines those strengths with a passion. Rich Costey joins Muse in the co-production of this 11-song set; together, they create the band's most realized and meticulous album to date. "Take a Bow" sets the scene by layering full rock orchestration with waves of synthesizers and percussion, all of it building up to vocalist/guitarist Matthew Bellamy's aching performance of a world torn apart by its own instability. Though frequently compared to Queen's Freddie Mercury and Thom Yorke, Bellamy comes into his own as a vocalist here. He, drummer Dominic Howard, and bassist Chris Wolstenholme pull equal weight throughout, and Muse sounds like a complete band on Black Holes and Revelations. The sultry, swaggering "Supermassive Black Hole" and the razor-edged paranoiac "Assassin" are prime examples of how adamant Muse is about delivering the biggest rock & roll package possible, while "Starlight" proves they write a radio-worthy anthem without jeopardizing their own ethics. Bellamy howls "You and I must fight for our rights/You and I must fight to survive" during the riotous, Rush-like megalomania of "Knights of Cydonia," and it's true – they've totally fought for their craft on this one. It may have taken four albums for Americans to get with the program, but with Black Holes and Revelations, the whole world should be watching.

by MacKenzie Wilson, AMG
Tracklist:

01. Take A Bow 4:35
02. Starlight 4:00
03. Supermassive Black Hole 3:29
04. Map Of The Problematique 4:19
05. Soldier's Poem 2:04
06. Invincible 5:00
07. Assassin 3:31
08. Exo-Politics 3:53
09. City Of Delusion 4:49
10. Hoodoo 3:43
11. Knights Of Cydonia 6:07

Exact Audio Copy V1.1 from 23. June 2015

EAC extraction logfile from 7. April 2016, 22:07

Muse / Black Holes And Revelations (25646 3509-5)

Used drive : PLEXTOR DVDR PX-891SA Adapter: 1 ID: 0

Read mode : Secure
Utilize accurate stream : Yes
Defeat audio cache : Yes
Make use of C2 pointers : No

Read offset correction : 6
Overread into Lead-In and Lead-Out : No
Fill up missing offset samples with silence : Yes
Delete leading and trailing silent blocks : No
Null samples used in CRC calculations : Yes
Used interface : Native Win32 interface for Win NT & 2000

Used output format : User Defined Encoder
Selected bitrate : 128 kBit/s
Quality : High
Add ID3 tag : No
Command line compressor : C:\Program Files (x86)\Exact Audio Copy\Flac\flac.exe
Additional command line options : -V -8 -T "Genre=%genre%" -T "Artist=%artist%" -T "Title=%title%" -T "Album=%albumtitle%" -T "Date=%year%" -T "Tracknumber=%tracknr%" -T "Comment=%comment%" %source%


TOC of the extracted CD

Track | Start | Length | Start sector | End sector
––––––––––––––––––––––––––––-
1 | 0:00.00 | 4:35.37 | 0 | 20661
2 | 4:35.37 | 3:59.60 | 20662 | 38646
3 | 8:35.22 | 3:29.25 | 38647 | 54346
4 | 12:04.47 | 4:18.65 | 54347 | 73761
5 | 16:23.37 | 2:03.68 | 73762 | 83054
6 | 18:27.30 | 5:00.15 | 83055 | 105569
7 | 23:27.45 | 3:31.10 | 105570 | 121404
8 | 26:58.55 | 3:53.20 | 121405 | 138899
9 | 30:52.00 | 4:48.65 | 138900 | 160564
10 | 35:40.65 | 3:43.25 | 160565 | 177314
11 | 39:24.15 | 6:06.60 | 177315 | 204824


Range status and errors

Selected range

Filename H:\dafnaplus\Muse ‎– Black Holes And Revelations\Muse - Black Holes And Revelations (25646 3509-5).wav

Peak level 100.0 %
Extraction speed 7.0 X
Range quality 99.9 %
Test CRC 5F8AB651
Copy CRC 5F8AB651
Copy OK

No errors occurred


AccurateRip summary

Track 1 accurately ripped (confidence 200) [E509DB81] (AR v2)
Track 2 accurately ripped (confidence 200) [196A5260] (AR v2)
Track 3 accurately ripped (confidence 200) [1FA8E08F] (AR v2)
Track 4 accurately ripped (confidence 200) [87FE9357] (AR v2)
Track 5 accurately ripped (confidence 200) [81805F6D] (AR v2)
Track 6 accurately ripped (confidence 200) [85EE8651] (AR v2)
Track 7 accurately ripped (confidence 200) [D77D0A75] (AR v2)
Track 8 accurately ripped (confidence 200) [FDDB8C3F] (AR v2)
Track 9 accurately ripped (confidence 200) [F0BAE24E] (AR v2)
Track 10 accurately ripped (confidence 200) [DD4DC24B] (AR v2)
Track 11 accurately ripped (confidence 200) [1A46738D] (AR v2)

All tracks accurately ripped

End of status report

–– CUETools DB Plugin V2.1.6

[CTDB TOCID: mbTLdwkIKKzl8yUBSEUZTwoVTo0-] found
Submit result: already submitted
Track | CTDB Status
1 | (1778/1785) Accurately ripped
2 | (1779/1785) Accurately ripped
3 | (1780/1785) Accurately ripped
4 | (1779/1785) Accurately ripped
5 | (1780/1785) Accurately ripped
6 | (1778/1785) Accurately ripped
7 | (1779/1785) Accurately ripped
8 | (1777/1785) Accurately ripped
9 | (1779/1785) Accurately ripped
10 | (1780/1785) Accurately ripped
11 | (1774/1785) Accurately ripped


==== Log checksum 017FABBB548CC1633D8BB6512455D0F5663658F38BFE7DA391088C98EF1FEF3D ====


[CUETools log; Date: 01.08.2016 11:11:16; Version: 2.1.5]
[CTDB TOCID: mbTLdwkIKKzl8yUBSEUZTwoVTo0-] found.
Track | CTDB Status
1 | (1989/1999) Accurately ripped
2 | (1992/1999) Accurately ripped
3 | (1993/1999) Accurately ripped
4 | (1991/1999) Accurately ripped
5 | (1993/1999) Accurately ripped
6 | (1990/1999) Accurately ripped
7 | (1991/1999) Accurately ripped
8 | (1989/1999) Accurately ripped
9 | (1992/1999) Accurately ripped
10 | (1991/1999) Accurately ripped
11 | (1985/1999) Accurately ripped
[AccurateRip ID: 0011fdad-009be2cb-920aab0b] found.
Track [ CRC | V2 ] Status
01 [412acae1|e509db81] (200+200/853) Accurately ripped
02 [1d1c23e3|196a5260] (200+200/855) Accurately ripped
03 [e4a6abcf|1fa8e08f] (200+200/855) Accurately ripped
04 [0d10fe3a|87fe9357] (200+200/852) Accurately ripped
05 [3f96e2c5|81805f6d] (200+200/853) Accurately ripped
06 [3dba5790|85ee8651] (200+200/854) Accurately ripped
07 [2df844b2|d77d0a75] (200+200/855) Accurately ripped
08 [6cac13d1|fddb8c3f] (200+200/860) Accurately ripped
09 [3b5c8801|f0bae24e] (200+200/857) Accurately ripped
10 [42036ea8|dd4dc24b] (200+200/853) Accurately ripped
11 [89c06fe4|1a46738d] (200+200/853) Accurately ripped
Offsetted by -700:
01 [1d38dabf] (007/853) Accurately ripped
02 [ff6e5d84] (007/855) Accurately ripped
03 [7df332a0] (007/855) Accurately ripped
04 [80508c4a] (007/852) Accurately ripped
05 [6d6052cd] (007/853) Accurately ripped
06 [656bbfdc] (007/854) Accurately ripped
07 [6f140b9a] (007/855) Accurately ripped
08 [971ba245] (007/860) Accurately ripped
09 [0b2d02ed] (007/857) Accurately ripped
10 [ce64e99c] (007/853) Accurately ripped
11 [c410d52c] (007/853) Accurately ripped
Offsetted by -676:
01 [46f175a6] (004/853) Accurately ripped
02 [e6c8d2ce] (004/855) Accurately ripped
03 [a825fa57] (005/855) Accurately ripped
04 [fa2b42aa] (004/852) Accurately ripped
05 [aeb94725] (004/853) Accurately ripped
06 [c634c6e8] (004/854) Accurately ripped
07 [7f111cde] (004/855) Accurately ripped
08 [fd840f7d] (004/860) Accurately ripped
09 [dc8db9f5] (004/857) Accurately ripped
10 [012b71d4] (004/853) Accurately ripped
11 [4e802ddc] (004/853) Accurately ripped
Offsetted by -664:
01 [c6b0228c] (014/853) Accurately ripped
02 [e190c0c5] (015/855) Accurately ripped
03 [42efd59e] (014/855) Accurately ripped
04 [37189dda] (014/852) Accurately ripped
05 [986230ca] (014/853) Accurately ripped
06 [4487e82e] (014/854) Accurately ripped
07 [068a24b3] (014/855) Accurately ripped
08 [b0b84619] (014/860) Accurately ripped
09 [453e1579] (014/857) Accurately ripped
10 [1a8eb5f0] (014/853) Accurately ripped
11 [93b7da34] (014/853) Accurately ripped
Offsetted by -132:
01 [67aa6c11] (003/853) Accurately ripped
02 [f6209841] (003/855) Accurately ripped
03 [052dd971] (003/855) Accurately ripped
04 [6ede132a] (003/852) Accurately ripped
05 [c90cc7b2] (002/853) Accurately ripped
06 [bd557854] (003/854) Accurately ripped
07 [6661c545] (003/855) Accurately ripped
08 [b96dbb1d] (003/860) Accurately ripped
09 [bbc89955] (003/857) Accurately ripped
10 [2abf8174] (003/853) Accurately ripped
11 [905c081c] (003/853) Accurately ripped
Offsetted by -18:
01 [b9e997c4] (003/853) Accurately ripped
02 [973ed42b] (002/855) Accurately ripped
03 [cf9848f8] (002/855) Accurately ripped
04 [31acf572] (002/852) Accurately ripped
05 [c4c52fe8] (002/853) Accurately ripped
06 [2ba0c611] (002/854) Accurately ripped
07 [625a57ae] (002/855) Accurately ripped
08 [dfddc1e7] (003/860) Accurately ripped
09 [9e53febb] (003/857) Accurately ripped
10 [1bee887e] (003/853) Accurately ripped
11 [21eced60] (003/853) Accurately ripped
Offsetted by 6:
01 [ea38f937] (002/853) Accurately ripped
02 [0fbba609] (002/855) Accurately ripped
03 [e96674df] (002/855) Accurately ripped
04 [ab87abd2] (002/852) Accurately ripped
05 [ba25a6e4] (002/853) Accurately ripped
06 [9a9a4b4f] (002/854) Accurately ripped
07 [721d3e30] (002/855) Accurately ripped
08 [46462f1f] (002/860) Accurately ripped
09 [6fb4b5c3] (002/857) Accurately ripped
10 [4eb510b6] (002/853) Accurately ripped
11 [ac5c4610] (002/853) Accurately ripped
Offsetted by 572:
01 [43a406ab] (200/853) Accurately ripped
02 [87c4c733] (200/855) Accurately ripped
03 [ef5119c1] (200/855) Accurately ripped
04 [ba984e2a] (200/852) Accurately ripped
05 [d8823d42] (200/853) Accurately ripped
06 [4061f0d3] (200/854) Accurately ripped
07 [34c77b5a] (200/855) Accurately ripped
08 [caba3edd] (200/860) Accurately ripped
09 [6432e795] (200/857) Accurately ripped
10 [517f1d34] (200/853) Accurately ripped
11 [6d1e319c] (200/853) Accurately ripped
Offsetted by -667:
01 [18893397] (000/853) No match (V2 was not tested)
02 [d5203b85] (000/855) No match (V2 was not tested)
03 [dbfc5f59] (000/855) No match (V2 was not tested)
04 [67dd470e] (000/852) No match (V2 was not tested)
05 [3eaa2799] (000/853) No match (V2 was not tested)
06 [a98658b8] (000/854) No match (V2 was not tested)
07 [64c7a2c6] (000/855) No match (V2 was not tested)
08 [43eb3872] (003/860) Accurately ripped
09 [2b11fe98] (000/857) No match (V2 was not tested)
10 [9435e4e9] (000/853) No match (V2 was not tested)
11 [8269ef1e] (000/853) No match (V2 was not tested)
Offsetted by -66:
01 [6c6b8bfe] (000/853) No match (V2 was not tested)
02 [7f0b9345] (002/855) Accurately ripped
03 [5c72a234] (002/855) Accurately ripped
04 [3df788b2] (002/852) Accurately ripped
05 [e54b97db] (002/853) Accurately ripped
06 [3f685acf] (002/854) Accurately ripped
07 [477485c9] (000/855) No match (V2 was not tested)
08 [130ce777] (002/860) Accurately ripped
09 [fb9290ab] (002/857) Accurately ripped
10 [b661780e] (002/853) Accurately ripped
11 [0d0e3c00] (002/853) Accurately ripped
Offsetted by -6:
01 [308ca89f] (000/853) No match (V2 was not tested)
02 [122f6ee1] (000/855) No match (V2 was not tested)
03 [deb6e17f] (000/855) No match (V2 was not tested)
04 [6e9a50a2] (000/852) No match (V2 was not tested)
05 [77122699] (000/853) No match (V2 was not tested)
06 [e3577428] (000/854) No match (V2 was not tested)
07 [e9e54b2a] (000/855) No match (V2 was not tested)
08 [9311f883] (000/860) No match (V2 was not tested)
09 [07045a3f] (000/857) No match (V2 was not tested)
10 [3551cc9a] (000/853) No match (V2 was not tested)
11 [672499b8] (000/853) No match (V2 was not tested)
Offsetted by 3:
01 [178c4501] (000/853) No match (V2 was not tested)
02 [c5464a31] (000/855) No match (V2 was not tested)
03 [e729107b] (000/855) No match (V2 was not tested)
04 [dc4c5506] (000/852) No match (V2 was not tested)
05 [d9b0c22c] (000/853) No match (V2 was not tested)
06 [6bdc51bb] (000/854) No match (V2 was not tested)
07 [d009c170] (000/855) No match (V2 was not tested)
08 [d9792178] (000/860) No match (V2 was not tested)
09 [55889ee2] (000/857) No match (V2 was not tested)
10 [c85c3faf] (000/853) No match (V2 was not tested)
11 [9b0e5afa] (000/853) No match (V2 was not tested)
Offsetted by 9:
01 [67b419c5] (000/853) No match (V2 was not tested)
02 [184a1f66] (000/855) No match (V2 was not tested)
03 [eb58d8f2] (000/855) No match (V2 was not tested)
04 [7ac3029e] (000/852) No match (V2 was not tested)
05 [d00cc86d] (000/853) No match (V2 was not tested)
06 [cb334213] (000/854) No match (V2 was not tested)
07 [1434baef] (000/855) No match (V2 was not tested)
08 [b3133cc6] (000/860) No match (V2 was not tested)
09 [89e0cca4] (000/857) No match (V2 was not tested)
10 [d50de1bd] (000/853) No match (V2 was not tested)
11 [bdaa3126] (000/853) No match (V2 was not tested)
Offsetted by 474:
01 [358b71f2] (000/853) No match (V2 was not tested)
02 [df40ccc5] (000/855) No match (V2 was not tested)
03 [31181af8] (000/855) No match (V2 was not tested)
04 [f3b09022] (000/852) No match (V2 was not tested)
05 [435edc03] (000/853) No match (V2 was not tested)
06 [b78d9c3b] (000/854) No match (V2 was not tested)
07 [f35c89e9] (000/855) No match (V2 was not tested)
08 [933a80e3] (000/860) No match (V2 was not tested)
09 [6292a6df] (000/857) No match (V2 was not tested)
10 [2cd470fa] (000/853) No match (V2 was not tested)
11 [37d78778] (000/853) No match (V2 was not tested)
Offsetted by 578:
01 [bf7215b1] (000/853) No match
02 [fe5bf994] (000/855) No match
03 [a7110362] (000/855) No match
04 [590efbc2] (000/852) No match
05 [6d1ad785] (000/853) No match
06 [065461d4] (000/854) No match
07 [76707022] (003/855) Accurately ripped
08 [a4545a2b] (002/860) Accurately ripped
09 [988b1557] (002/857) Accurately ripped
10 [5e30bf42] (000/853) No match
11 [8fba07c8] (000/853) No match
Offsetted by 670:
01 [199a1154] (000/853) No match (V2 was not tested)
02 [a145e806] (000/855) No match (V2 was not tested)
03 [dd62c1b1] (000/855) No match (V2 was not tested)
04 [81800c32] (000/852) No match (V2 was not tested)
05 [0858e01e] (000/853) No match (V2 was not tested)
06 [361f0558] (000/854) No match (V2 was not tested)
07 [5c4f74cd] (000/855) No match (V2 was not tested)
08 [0239fcd7] (000/860) No match (V2 was not tested)
09 [65d3284b] (000/857) No match (V2 was not tested)
10 [7629c96e] (000/853) No match (V2 was not tested)
11 [a264dbc0] (000/853) No match (V2 was not tested)

Track Peak [ CRC32 ] [W/O NULL] [ LOG ]
– 100,0 [5F8AB651] [4FE39267] CRC32
01 100,0 [9F2D8837] [A6FA69AB]
02 100,0 [7C7CA070] [0BA29E93]
03 100,0 [E53B02C5] [6098A774]
04 100,0 [931F1BB2] [43776E39]
05 100,0 [FD80CCE6] [23E8BA91]
06 100,0 [9CAB1FFE] [376F3542]
07 100,0 [1AD14118] [2C42E510]
08 100,0 [2BA3B959] [0BFB2F7D]
09 100,0 [991D16D8] [EC507B9D]
10 100,0 [8D043277] [8E3D6F05]
11 100,0 [C57207F1] [3B64C2F9]


* * *

All thanks go to dafnaplus

Muse in my Blog

Download Muse: 3CD (Germany Original) (1999-2006):