Tags
Language
Tags

Muse - Origin Of Symmetry (2001)

Posted By: v3122
Muse - Origin Of Symmetry (2001)

Muse - Origin Of Symmetry (2001)
EAC | Flac(Image) + Cue + Log & MP3 CBR 320Kbps
Taste Media MUSH93CD | ~ 342 or 122 Mb | Artwork(jpg) -> 75 Mb
Alternative Rock

If you're going to pillage someone else's ideas, then go for broke. Because even if you find yourself crammed between the barriers of creative space, utterly at a loss for ideas, expression, or thought, you'd still have a self-respect buzzing in your ear like a mad angelic insect, putting down the newspaper and taking out a cigar to remind you that, hell, if want to sound like Radiohead when even Thom Yorke doesn't want to sound like Radiohead, you might as well take it to preposterous, bombastic, over-the-top levels. Add church organs, mental electronics, riffs bouncing off each other like the monolithic screams in 2001: A Space Odyssey, and you'll finally be in position to crack skulls like coconuts and make the world's speakers ooze gooey blood.

by Dean Carlson, allmusic
Muse - Origin Of Symmetry (2001):

Muse - Origin Of Symmetry (2001)

Tracklist:

01. New Born 6:03
02. Bliss 4:12
03. Space Dementia 6:21
04. Hyper Music 3:21
05. Plug In Baby 3:40
06. Citizen Erased 7:19
07. Micro Cuts 3:39
08. Screenager 4:20
09. Darkshines 4:48
10. Feeling Good 3:20
11. Megalomania 4:38

Exact Audio Copy V1.3 from 2. September 2016

EAC extraction logfile from 1. February 2019, 8:30

Muse / Origin Of Symmetry (MUSH93CD)

Used drive : ASUS DRW-24D5MT Adapter: 1 ID: 0

Read mode : Secure
Utilize accurate stream : Yes
Defeat audio cache : Yes
Make use of C2 pointers : No

Read offset correction : 6
Overread into Lead-In and Lead-Out : No
Fill up missing offset samples with silence : Yes
Delete leading and trailing silent blocks : No
Null samples used in CRC calculations : Yes
Used interface : Native Win32 interface for Win NT & 2000

Used output format : User Defined Encoder
Selected bitrate : 768 kBit/s
Quality : High
Add ID3 tag : No
Command line compressor : C:\Program Files (x86)\Exact Audio Copy\Flac\flac.exe
Additional command line options : -V -8 -T "Genre=%genre%" -T "Artist=%artist%" -T "Title=%title%" -T "Album=%albumtitle%" -T "Date=%year%" -T "Tracknumber=%tracknr%" -T "Comment=%comment%" %source%


TOC of the extracted CD

Track | Start | Length | Start sector | End sector
––––––––––––––––––––––––––––-
1 | 0:00.00 | 6:02.46 | 0 | 27195
2 | 6:02.46 | 4:12.36 | 27196 | 46131
3 | 10:15.07 | 6:21.00 | 46132 | 74706
4 | 16:36.07 | 3:21.01 | 74707 | 89782
5 | 19:57.08 | 3:40.11 | 89783 | 106293
6 | 23:37.19 | 7:19.13 | 106294 | 139231
7 | 30:56.32 | 3:38.47 | 139232 | 155628
8 | 34:35.04 | 4:20.09 | 155629 | 175137
9 | 38:55.13 | 4:47.46 | 175138 | 196708
10 | 43:42.59 | 3:19.73 | 196709 | 211706
11 | 47:02.57 | 4:37.30 | 211707 | 232511
12 | 54:12.12 | 6:52.74 | 243912 | 274885


Range status and errors

Selected range

Filename I:\dafnaplus\Muse ‎- Origin Of Symmetry\Muse - Origin Of Symmetry (MUSH93CD).wav

Peak level 99.9 %
Extraction speed 8.0 X
Range quality 100.0 %
Test CRC B863816D
Copy CRC B863816D
Copy OK

No errors occurred


AccurateRip summary

Track 1 accurately ripped (confidence 27) [9ED32EF5] (AR v2)
Track 2 accurately ripped (confidence 27) [54AF03F7] (AR v2)
Track 3 accurately ripped (confidence 27) [294B6630] (AR v2)
Track 4 accurately ripped (confidence 26) [EB4D1B7C] (AR v2)
Track 5 accurately ripped (confidence 25) [BE970ECA] (AR v2)
Track 6 accurately ripped (confidence 26) [744D563A] (AR v2)
Track 7 accurately ripped (confidence 26) [DF2606BF] (AR v2)
Track 8 accurately ripped (confidence 26) [FB60C148] (AR v2)
Track 9 accurately ripped (confidence 26) [8AE98E79] (AR v2)
Track 10 accurately ripped (confidence 27) [E8F83738] (AR v2)
Track 11 accurately ripped (confidence 27) [44E4C75B] (AR v2)

All tracks accurately ripped

End of status report

–– CUETools DB Plugin V2.1.6

[CTDB TOCID: kZKaEgJSFSsNfv6dxcIoezRJ82o-] found
Submit result: kZKaEgJSFSsNfv6dxcIoezRJ82o- has been confirmed
Track | CTDB Status
1 | (121/128) Accurately ripped
2 | (126/128) Accurately ripped
3 | (125/128) Accurately ripped
4 | (128/128) Accurately ripped
5 | (128/128) Accurately ripped
6 | (126/128) Accurately ripped
7 | (127/128) Accurately ripped
8 | (126/128) Accurately ripped
9 | (128/128) Accurately ripped
10 | (128/128) Accurately ripped
11 | (126/128) Accurately ripped


==== Log checksum 7D7E40518C20A208D5E2F65C330F556E1669FDFF272186E08353BBB7B6985F0B ====


[CUETools log; Date: 14.03.2020 23:55:10; Version: 2.1.5]
CD-Extra data track length 06:52:74.
[CTDB TOCID: kZKaEgJSFSsNfv6dxcIoezRJ82o-] found.
Track | CTDB Status
1 | (158/165) Accurately ripped
2 | (163/165) Accurately ripped
3 | (162/165) Accurately ripped
4 | (165/165) Accurately ripped
5 | (165/165) Accurately ripped
6 | (163/165) Accurately ripped
7 | (164/165) Accurately ripped
8 | (163/165) Accurately ripped
9 | (164/165) Accurately ripped
10 | (164/165) Accurately ripped
11 | (161/165) Accurately ripped
[AccurateRip ID: 0016d945-00c5e2f5-bb0e510c] found.
Track [ CRC | V2 ] Status
01 [0d646eb9|9ed32ef5] (047+029/105) Accurately ripped
02 [2aca1b12|54af03f7] (051+029/109) Accurately ripped
03 [aa3f8459|294b6630] (049+029/107) Accurately ripped
04 [467bc41a|eb4d1b7c] (052+028/109) Accurately ripped
05 [2aafa551|be970eca] (051+027/107) Accurately ripped
06 [0f74363e|744d563a] (051+028/108) Accurately ripped
07 [d19c774f|df2606bf] (049+028/106) Accurately ripped
08 [d82d4afc|fb60c148] (049+028/106) Accurately ripped
09 [13e84424|8ae98e79] (050+028/107) Accurately ripped
10 [a9551c3d|e8f83738] (050+029/108) Accurately ripped
11 [606b873e|44e4c75b] (049+029/107) Accurately ripped
Offsetted by -30:
01 [e902ad50] (011/105) Accurately ripped
02 [358028f3] (011/109) Accurately ripped
03 [33e56a04] (011/107) Accurately ripped
04 [01163c34] (011/109) Accurately ripped
05 [2fb89031] (011/107) Accurately ripped
06 [821f06d3] (011/108) Accurately ripped
07 [61309d3b] (011/106) Accurately ripped
08 [7af77ca3] (011/106) Accurately ripped
09 [f102a677] (011/107) Accurately ripped
10 [b3481163] (011/108) Accurately ripped
11 [0c43cffa] (011/107) Accurately ripped

Track Peak [ CRC32 ] [W/O NULL] [ LOG ]
– 99,9 [B863816D] [8BD5D014] CRC32
01 99,8 [048651EA] [7150BFBB]
02 88,0 [0D231EC6] [E9EDC89D]
03 99,9 [51CB6FE2] [3A4D3F1C]
04 99,9 [3602DE99] [7223B571]
05 84,1 [6894D32D] [7113B920]
06 99,9 [94429C37] [EFA9C394]
07 99,9 [16A3D95A] [5A0C273A]
08 95,4 [40EBDDF1] [DBF54E12]
09 99,9 [9F57F8E1] [EEA8D783]
10 96,2 [89E45E1E] [188D7D1F]
11 99,8 [6F595C71] [09B76D48]


Muse - Origin Of Symmetry (2001)

All thanks go to dafnaplus

Muse in my Blog

Download Muse - Origin Of Symmetry (2001):