Tags
Language
Tags

Muse - Origins Of Muse (2019) [9CD + 4LP Box Set]

Posted By: v3122
Muse - Origins Of Muse (2019) [9CD + 4LP Box Set]

Muse - Origins Of Muse (2019
EAC | Flac(Image) + Cue + Log & MP3 CBR 320Kbps
9CD | Warner Music, 0190295810184 | ~ 3269 or 1421 Mb | Artwork(png) -> 1.97 Gb
Alternative Rock

Beautiful box set with remastered Showbiz and Origin of Symmetry plus an abundance of rarities spread out over 4 vinyl LPs and 9 CDs. The CD's are all tucked away in an extensive hardcover book chronicling the early days of Muse. Listen to the music while exploring the book. Great concept. A must for any Muse fan.

by Smart guy, amazon
Muse - Origins Of Muse (2019:

Muse - Origins Of Muse (2019) [9CD + 4LP Box Set]

Tracklist CD1 - 2019 Newton Abbot Demos:

First Demos By The Band Including
An Early Version Of Plug In Baby
00 Hidden Track + 01 Cave
02 Rain
03 Agitated
04 Crazy Days
05 Coma
06 Connect The Kettle Lead
07 Balloonatic
08 Boredom
09 Sober
10 Jimmy Kane
11 Ashamed
12 Plug In Baby
13 Earthquake
14 Good News
15 Overdue

Exact Audio Copy V1.3 from 2. September 2016

EAC extraction logfile from 19. December 2019, 10:26

Muse / Newton Abbot Demos

Used drive : Optiarc DVD RW AD-7280S Adapter: 1 ID: 0

Read mode : Secure
Utilize accurate stream : Yes
Defeat audio cache : Yes
Make use of C2 pointers : No

Read offset correction : 48
Overread into Lead-In and Lead-Out : No
Fill up missing offset samples with silence : Yes
Delete leading and trailing silent blocks : No
Null samples used in CRC calculations : Yes
Used interface : Native Win32 interface for Win NT & 2000

Used output format : Internal WAV Routines
Sample format : 44.100 Hz; 16 Bit; Stereo


TOC of the extracted CD

Track | Start | Length | Start sector | End sector
––––––––––––––––––––––––––––-
1 | 6:26.73 | 4:52.50 | 29023 | 50972
2 | 11:19.48 | 4:32.20 | 50973 | 71392
3 | 15:51.68 | 3:15.09 | 71393 | 86026
4 | 19:07.02 | 4:32.62 | 86027 | 106488
5 | 23:39.64 | 3:32.53 | 106489 | 122441
6 | 27:12.42 | 2:25.11 | 122442 | 133327
7 | 29:37.53 | 3:01.13 | 133328 | 146915
8 | 32:38.66 | 4:42.51 | 146916 | 168116
9 | 37:21.42 | 4:11.29 | 168117 | 186970
10 | 41:32.71 | 3:11.05 | 186971 | 201300
11 | 44:44.01 | 4:41.02 | 201301 | 222377
12 | 49:25.03 | 2:45.74 | 222378 | 234826
13 | 52:11.02 | 3:36.39 | 234827 | 251065
14 | 55:47.41 | 3:42.59 | 251066 | 267774
15 | 59:30.25 | 3:26.64 | 267775 | 283288


Range status and errors

Selected range

Filename C:\Users\Alex\Desktop\ALLexxess\Muse\2019 Origins Of Muse (13-Disc Box Set Warner Music)\CD1 2019 Newton Abbot Demos\Muse - Newton Abbot Demos.wav

Peak level 99.8 %
Extraction speed 1.9 X
Range quality 98.1 %
Test CRC BB9A06A7
Copy CRC BB9A06A7
Copy OK

No errors occurred


AccurateRip summary

Track 1 not present in database
Track 2 not present in database
Track 3 not present in database
Track 4 not present in database
Track 5 not present in database
Track 6 not present in database
Track 7 not present in database
Track 8 not present in database
Track 9 not present in database
Track 10 not present in database
Track 11 not present in database
Track 12 not present in database
Track 13 not present in database
Track 14 not present in database
Track 15 not present in database

None of the tracks are present in the AccurateRip database

End of status report

–– CUETools DB Plugin V2.1.6

[CTDB TOCID: I_wzB_0_q8hHiLuoq3xNrie5wFQ-] found
Submit result: I_wzB_0_q8hHiLuoq3xNrie5wFQ- has been confirmed
Track | CTDB Status
1 | (28/28) Accurately ripped
2 | (28/28) Accurately ripped
3 | (28/28) Accurately ripped
4 | (28/28) Accurately ripped
5 | (28/28) Accurately ripped
6 | (28/28) Accurately ripped
7 | (28/28) Accurately ripped
8 | (28/28) Accurately ripped
9 | (28/28) Accurately ripped
10 | (28/28) Accurately ripped
11 | (28/28) Accurately ripped
12 | (28/28) Accurately ripped
13 | (28/28) Accurately ripped
14 | (28/28) Accurately ripped
15 | (28/28) Accurately ripped


==== Log checksum 02F08B825EC12B9954C5186B523CE5034DDD5314DC9A7F4E6C2C1218680D1474 ====


[CUETools log; Date: 19.12.2019 16:32:24; Version: 2.1.6]
Pregap length 06:26:73.
[CTDB TOCID: KKapSvbQdIE3k2nFJkC2QvazGRs-] disk not present in database.
[AccurateRip ID: 002ea05a-020daba9-f10ec210] disk not present in database.

Track Peak [ CRC32 ] [W/O NULL] [ LOG ]
– 99,8 [D4C7C3D2] [721D33C1] [BB9A06A7]
01 0,0 [0F90530F] [00000000]
02 99,8 [4AE55644] [80906A89]
03 99,8 [6655E779] [90C70344]
04 99,8 [7A8EAF83] [0C507B13]
05 99,8 [3CB3A318] [5F472212]
06 99,8 [A6DF73E9] [4F615CCC]
07 99,8 [6DDD5D43] [0272F636]
08 99,8 [CFFD1FE8] [ABACD63E]
09 99,8 [186F45FD] [CAC86868]
10 99,8 [8462FDC7] [A3929607]
11 99,8 [977E7B86] [9812930D]
12 99,8 [18EAABC5] [398E8B3B]
13 99,8 [E766F9A6] [DCC74C52]
14 99,8 [B002DAA6] [A2E24C69]
15 99,8 [B195C55C] [6865AE53]
16 99,8 [3C994EE0] [60E604FE]


Tracklist CD2 - 2019 The Muse EPs + Showbiz Demos:

Their Debut Releases On Dangerous Records
And Demos For Their First Album Showbiz
01 Overdue
02 Cave
03 Coma
04 Escape
05 Muscle Museum
06 Sober
07 Uno
08 Unintended
09 Pink Ego Box
10 (Muscle Museum) #2
11 Showbiz (Live, Sawmills Studios, 1998)
12 Do We Need This (Live, Fortress Studios, 1999)
13 Sunburn (Live, Fortress Studios, 1999)
14 Overdue (Live, Fortress Studios, 1999)
15 Uno (Alternate Version, Rak Studios, 1999)

Exact Audio Copy V1.3 from 2. September 2016

EAC extraction logfile from 19. December 2019, 8:35

Muse / The Muse EPs + Showbiz Demos

Used drive : PLEXTOR BD-R PX-B950SA Adapter: 1 ID: 1

Read mode : Secure
Utilize accurate stream : Yes
Defeat audio cache : Yes
Make use of C2 pointers : No

Read offset correction : 6
Overread into Lead-In and Lead-Out : No
Fill up missing offset samples with silence : Yes
Delete leading and trailing silent blocks : No
Null samples used in CRC calculations : Yes
Used interface : Native Win32 interface for Win NT & 2000

Used output format : Internal WAV Routines
Sample format : 44.100 Hz; 16 Bit; Stereo


TOC of the extracted CD

Track | Start | Length | Start sector | End sector
––––––––––––––––––––––––––––-
1 | 0:00.00 | 4:10.59 | 0 | 18808
2 | 4:10.59 | 4:44.17 | 18809 | 40125
3 | 8:55.01 | 3:36.22 | 40126 | 56347
4 | 12:31.23 | 3:19.25 | 56348 | 71297
5 | 15:50.48 | 4:18.22 | 71298 | 90669
6 | 20:08.70 | 4:02.25 | 90670 | 108844
7 | 24:11.20 | 3:40.16 | 108845 | 125360
8 | 27:51.36 | 3:56.52 | 125361 | 143112
9 | 31:48.13 | 3:29.67 | 143113 | 158854
10 | 35:18.05 | 1:21.73 | 158855 | 165002
11 | 36:40.03 | 4:19.18 | 165003 | 184445
12 | 40:59.21 | 4:23.68 | 184446 | 204238
13 | 45:23.14 | 3:50.01 | 204239 | 221489
14 | 49:13.15 | 2:34.01 | 221490 | 233040
15 | 51:47.16 | 3:32.53 | 233041 | 248993


Range status and errors

Selected range

Filename C:\Users\Alex\Desktop\ALLexxess\Muse\2019 Origins Of Muse (13-Disc Box Set Warner Music)\CD2 2019 The Muse EPs + Showbiz Demos\Muse - The Muse EPs + Showbiz Demos.wav

Peak level 99.8 %
Extraction speed 5.9 X
Range quality 100.0 %
Test CRC E6369877
Copy CRC E6369877
Copy OK

No errors occurred


AccurateRip summary

Track 1 not present in database
Track 2 not present in database
Track 3 not present in database
Track 4 not present in database
Track 5 not present in database
Track 6 not present in database
Track 7 not present in database
Track 8 not present in database
Track 9 not present in database
Track 10 not present in database
Track 11 not present in database
Track 12 not present in database
Track 13 not present in database
Track 14 not present in database
Track 15 not present in database

None of the tracks are present in the AccurateRip database

End of status report

–– CUETools DB Plugin V2.1.6

[CTDB TOCID: KDR4XZzQoq7QQ5xsyLaeqYP59yM-] found
Submit result: KDR4XZzQoq7QQ5xsyLaeqYP59yM- has been confirmed
Track | CTDB Status
1 | (26/26) Accurately ripped
2 | (26/26) Accurately ripped
3 | (26/26) Accurately ripped
4 | (26/26) Accurately ripped
5 | (26/26) Accurately ripped
6 | (26/26) Accurately ripped
7 | (26/26) Accurately ripped
8 | (26/26) Accurately ripped
9 | (26/26) Accurately ripped
10 | (26/26) Accurately ripped
11 | (26/26) Accurately ripped
12 | (26/26) Accurately ripped
13 | (26/26) Accurately ripped
14 | (26/26) Accurately ripped
15 | (26/26) Accurately ripped


==== Log checksum 0985CB6B8A65A1B80E077B8634457016B4DAFFBBD1778BE6024191D6FEB23C2B ====


[CUETools log; Date: 19.12.2019 16:34:45; Version: 2.1.6]
[CTDB TOCID: KDR4XZzQoq7QQ5xsyLaeqYP59yM-] found.
Track | CTDB Status
1 | (27/27) Accurately ripped
2 | (27/27) Accurately ripped
3 | (27/27) Accurately ripped
4 | (27/27) Accurately ripped
5 | (27/27) Accurately ripped
6 | (27/27) Accurately ripped
7 | (27/27) Accurately ripped
8 | (27/27) Accurately ripped
9 | (27/27) Accurately ripped
10 | (27/27) Accurately ripped
11 | (27/27) Accurately ripped
12 | (27/27) Accurately ripped
13 | (27/27) Accurately ripped
14 | (27/27) Accurately ripped
15 | (27/27) Accurately ripped
[AccurateRip ID: 001f986e-0161d694-b00cf70f] disk not present in database.

Track Peak [ CRC32 ] [W/O NULL] [ LOG ]
– 99,8 [E6369877] [1C0EF325] CRC32
01 99,8 [88E75F9F] [93F3D17B]
02 99,8 [96EFCE4E] [0FAA7436]
03 99,8 [125AE50E] [3421E746]
04 99,8 [E4C18A88] [35588F3B]
05 99,8 [DC2B4F70] [95AFEB0C]
06 99,8 [6EF471A2] [93D5A367]
07 99,8 [98219FC8] [37D50470]
08 99,8 [B60ADFC0] [6B61C285]
09 99,8 [39A27D06] [A3EE9912]
10 67,7 [7CA7D90A] [716CEEA0]
11 99,8 [9F59C4A5] [0F80DAC2]
12 99,8 [9AB4B4A9] [00C4AD1B]
13 99,8 [6EC99165] [2D3D7755]
14 99,8 [C9378A89] [F88B8248]
15 99,8 [B5254470] [C872CD91]


Tracklist CD3 - 1999 Showbiz:

Remastered Debut Album
01 Sunburn
02 Muscle Museum
03 Fillip
04 Falling Down
05 Cave
06 Showbiz
07 Unintended
08 Uno
09 Sober
10 Spiral Static (Bonus Track)
11 Escape
12 Overdue
13 Hate This & I’ll Love You

Exact Audio Copy V1.3 from 2. September 2016

EAC extraction logfile from 19. December 2019, 7:56

Muse / Showbiz

Used drive : PLEXTOR BD-R PX-B950SA Adapter: 1 ID: 1

Read mode : Secure
Utilize accurate stream : Yes
Defeat audio cache : Yes
Make use of C2 pointers : No

Read offset correction : 6
Overread into Lead-In and Lead-Out : No
Fill up missing offset samples with silence : Yes
Delete leading and trailing silent blocks : No
Null samples used in CRC calculations : Yes
Used interface : Native Win32 interface for Win NT & 2000

Used output format : Internal WAV Routines
Sample format : 44.100 Hz; 16 Bit; Stereo


TOC of the extracted CD

Track | Start | Length | Start sector | End sector
––––––––––––––––––––––––––––-
1 | 0:00.00 | 3:54.33 | 0 | 17582
2 | 3:54.33 | 4:23.30 | 17583 | 37337
3 | 8:17.63 | 4:00.38 | 37338 | 55375
4 | 12:18.26 | 4:33.10 | 55376 | 75860
5 | 16:51.36 | 4:46.22 | 75861 | 97332
6 | 21:37.58 | 5:17.41 | 97333 | 121148
7 | 26:55.24 | 3:56.53 | 121149 | 138901
8 | 30:52.02 | 3:38.58 | 138902 | 155309
9 | 34:30.60 | 4:04.09 | 155310 | 173618
10 | 38:34.69 | 4:45.67 | 173619 | 195060
11 | 43:20.61 | 3:31.51 | 195061 | 210936
12 | 46:52.37 | 2:26.23 | 210937 | 221909
13 | 49:18.60 | 5:13.69 | 221910 | 245453


Range status and errors

Selected range

Filename C:\Users\Alex\Desktop\ALLexxess\Muse\2019 Origins Of Muse (13-Disc Box Set Warner Music)\CD3 1999 Showbiz\Muse - Showbiz.wav

Peak level 100.0 %
Extraction speed 3.3 X
Range quality 100.0 %
Test CRC 2384A6E7
Copy CRC 2384A6E7
Copy OK

No errors occurred


AccurateRip summary

Track 1 not present in database
Track 2 not present in database
Track 3 not present in database
Track 4 not present in database
Track 5 not present in database
Track 6 not present in database
Track 7 not present in database
Track 8 not present in database
Track 9 not present in database
Track 10 not present in database
Track 11 not present in database
Track 12 not present in database
Track 13 not present in database

None of the tracks are present in the AccurateRip database

End of status report

–– CUETools DB Plugin V2.1.6

[CTDB TOCID: AjJhmzgJnwO0rX3Q6ZaU8HST5ZU-] found
Submit result: AjJhmzgJnwO0rX3Q6ZaU8HST5ZU- has been confirmed
Track | CTDB Status
1 | (28/28) Accurately ripped
2 | (28/28) Accurately ripped
3 | (28/28) Accurately ripped
4 | (28/28) Accurately ripped
5 | (28/28) Accurately ripped
6 | (28/28) Accurately ripped
7 | (28/28) Accurately ripped
8 | (28/28) Accurately ripped
9 | (28/28) Accurately ripped
10 | (28/28) Accurately ripped
11 | (28/28) Accurately ripped
12 | (28/28) Accurately ripped
13 | (28/28) Accurately ripped


==== Log checksum F85529462BDB4A6289E58EAF44652363D155985B0C14A3262A3A1460CC2A56EF ====


[CUETools log; Date: 19.12.2019 16:37:04; Version: 2.1.6]
[CTDB TOCID: AjJhmzgJnwO0rX3Q6ZaU8HST5ZU-] found.
Track | CTDB Status
1 | (29/29) Accurately ripped
2 | (29/29) Accurately ripped
3 | (29/29) Accurately ripped
4 | (29/29) Accurately ripped
5 | (29/29) Accurately ripped
6 | (29/29) Accurately ripped
7 | (29/29) Accurately ripped
8 | (29/29) Accurately ripped
9 | (29/29) Accurately ripped
10 | (29/29) Accurately ripped
11 | (29/29) Accurately ripped
12 | (29/29) Accurately ripped
13 | (29/29) Accurately ripped
[AccurateRip ID: 001aa3a9-0109dbe0-aa0cc80d] disk not present in database.

Track Peak [ CRC32 ] [W/O NULL] [ LOG ]
– 100,0 [2384A6E7] [2303BDE4] CRC32
01 97,9 [94C1475B] [301EC249]
02 98,7 [A8337AA0] [E3FD6379]
03 98,5 [07D4C515] [DE7DB644]
04 98,4 [E4450297] [520D967D]
05 98,7 [17B38939] [46FBF7D8]
06 100,0 [A266B6CC] [EB0FEFFC]
07 97,6 [EB51B102] [58B1C12F]
08 100,0 [5CDC455C] [52B58552]
09 99,3 [C914A236] [309896BF]
10 98,5 [84B7DC87] [486CC207]
11 98,4 [59EEBC46] [A8C03B0F]
12 98,1 [F8BAF1D5] [E4000C5A]
13 99,7 [F1DFCE69] [6B355767]


Tracklist CD4 - 2019 Showbiz B-Sides:

01 Recess (Unreleased Alternate Version, Trident Studios, 1999)
02 Jimmy Kane
03 Forced In
04 Agitated
05 Twin
06 Host
07 Do We Need This?
08 Con-Science
09 Minimum
10 Ashamed
11 Yes Please
12 Recess
13 Nishe

Exact Audio Copy V1.3 from 2. September 2016

EAC extraction logfile from 19. December 2019, 2:05

Muse / Showbiz B-Sides

Used drive : PLEXTOR BD-R PX-B950SA Adapter: 1 ID: 1

Read mode : Secure
Utilize accurate stream : Yes
Defeat audio cache : Yes
Make use of C2 pointers : No

Read offset correction : 6
Overread into Lead-In and Lead-Out : No
Fill up missing offset samples with silence : Yes
Delete leading and trailing silent blocks : No
Null samples used in CRC calculations : Yes
Used interface : Native Win32 interface for Win NT & 2000

Used output format : Internal WAV Routines
Sample format : 44.100 Hz; 16 Bit; Stereo


TOC of the extracted CD

Track | Start | Length | Start sector | End sector
––––––––––––––––––––––––––––-
1 | 0:00.00 | 4:17.47 | 0 | 19321
2 | 4:17.47 | 3:26.72 | 19322 | 34843
3 | 7:44.44 | 5:08.69 | 34844 | 58012
4 | 12:53.38 | 2:22.65 | 58013 | 68727
5 | 15:16.28 | 3:15.02 | 68728 | 83354
6 | 18:31.30 | 4:11.60 | 83355 | 102239
7 | 22:43.15 | 4:17.08 | 102240 | 121522
8 | 27:00.23 | 4:51.65 | 121523 | 143412
9 | 31:52.13 | 2:44.54 | 143413 | 155766
10 | 34:36.67 | 3:51.45 | 155767 | 173136
11 | 38:28.37 | 3:07.61 | 173137 | 187222
12 | 41:36.23 | 3:38.41 | 187223 | 203613
13 | 45:14.64 | 2:44.43 | 203614 | 215956


Range status and errors

Selected range

Filename C:\Users\Alex\Desktop\ALLexxess\Muse\2019 Origins Of Muse (13-Disc Box Set Warner Music)\CD4 2019 Showbiz B-Sides\Muse - Showbiz B-Sides.wav

Peak level 99.8 %
Extraction speed 3.1 X
Range quality 99.9 %
Test CRC F8D5B65A
Copy CRC F8D5B65A
Copy OK

No errors occurred


AccurateRip summary

Track 1 not present in database
Track 2 not present in database
Track 3 not present in database
Track 4 not present in database
Track 5 not present in database
Track 6 not present in database
Track 7 not present in database
Track 8 not present in database
Track 9 not present in database
Track 10 not present in database
Track 11 not present in database
Track 12 not present in database
Track 13 not present in database

None of the tracks are present in the AccurateRip database

End of status report

–– CUETools DB Plugin V2.1.6

[CTDB TOCID: t.zm3D87zA6b9JTyabiCkvxwpuk-] found
Submit result: t.zm3D87zA6b9JTyabiCkvxwpuk- has been confirmed
Track | CTDB Status
1 | (23/23) Accurately ripped
2 | (23/23) Accurately ripped
3 | (23/23) Accurately ripped
4 | (23/23) Accurately ripped
5 | (23/23) Accurately ripped
6 | (23/23) Accurately ripped
7 | (23/23) Accurately ripped
8 | (23/23) Accurately ripped
9 | (23/23) Accurately ripped
10 | (23/23) Accurately ripped
11 | (23/23) Accurately ripped
12 | (23/23) Accurately ripped
13 | (23/23) Accurately ripped


==== Log checksum 977DB50A01E0833D46B6B4854D1EEE4003E6EB26EB3F01DFF4B96CEB8242010B ====


[CUETools log; Date: 19.12.2019 16:39:00; Version: 2.1.6]
[CTDB TOCID: t.zm3D87zA6b9JTyabiCkvxwpuk-] found.
Track | CTDB Status
1 | (24/24) Accurately ripped
2 | (24/24) Accurately ripped
3 | (24/24) Accurately ripped
4 | (24/24) Accurately ripped
5 | (24/24) Accurately ripped
6 | (24/24) Accurately ripped
7 | (24/24) Accurately ripped
8 | (24/24) Accurately ripped
9 | (24/24) Accurately ripped
10 | (24/24) Accurately ripped
11 | (24/24) Accurately ripped
12 | (24/24) Accurately ripped
13 | (24/24) Accurately ripped
[AccurateRip ID: 0017e9a0-00edaeed-b40b3f0d] disk not present in database.

Track Peak [ CRC32 ] [W/O NULL] [ LOG ]
– 99,8 [F8D5B65A] [090D5E17] CRC32
01 99,8 [CE6461BE] [C6976975]
02 99,8 [8E48CD37] [1B9001A6]
03 99,8 [AACA8F70] [D316F933]
04 99,8 [C5D38294] [E123A0C9]
05 99,8 [A935F3C6] [C4D12EA1]
06 99,8 [988569E1] [C2BDA01F]
07 99,8 [1B5409BE] [4A22A936]
08 99,8 [D49B7CD4] [CB661659]
09 99,8 [1ADB2491] [56651F01]
10 99,8 [1762CF9A] [94BAFCEF]
11 99,8 [BCB5773F] [42C20405]
12 99,8 [AA91064A] [419CD140]
13 99,8 [4BF0556C] [DDA40A4C]


Tracklist CD5 - 2019 Showbiz Live:

Recording Of Live Shows Boadcast
On BBC Radio One In 1999/2000
Live, The Pyramid Centre, Portsmouth, 1999
01 Uno
02 Cave
03 Muscle Museum
04 Falling Down
05 Fillip
06 Do We Need This
Live, The Astoria, London, 2000
07 Agitated
08 Sunburn
09 Plug In Baby
10 Showbiz
Acoustic Live Demo, Airfield Studios, 1999
11 Cave
12 Muscle Museum

Exact Audio Copy V1.3 from 2. September 2016

EAC extraction logfile from 19. December 2019, 0:48

Muse / Showbiz Live

Used drive : PLEXTOR BD-R PX-B950SA Adapter: 1 ID: 1

Read mode : Secure
Utilize accurate stream : Yes
Defeat audio cache : Yes
Make use of C2 pointers : No

Read offset correction : 6
Overread into Lead-In and Lead-Out : No
Fill up missing offset samples with silence : Yes
Delete leading and trailing silent blocks : No
Null samples used in CRC calculations : Yes
Used interface : Native Win32 interface for Win NT & 2000

Used output format : Internal WAV Routines
Sample format : 44.100 Hz; 16 Bit; Stereo


TOC of the extracted CD

Track | Start | Length | Start sector | End sector
––––––––––––––––––––––––––––-
1 | 0:00.00 | 3:48.10 | 0 | 17109
2 | 3:48.10 | 4:45.61 | 17110 | 38545
3 | 8:33.71 | 4:07.55 | 38546 | 57125
4 | 12:41.51 | 4:48.57 | 57126 | 78782
5 | 17:30.33 | 4:10.02 | 78783 | 97534
6 | 21:40.35 | 5:18.67 | 97535 | 121451
7 | 26:59.27 | 2:57.00 | 121452 | 134726
8 | 29:56.27 | 4:03.72 | 134727 | 153023
9 | 34:00.24 | 4:16.63 | 153024 | 172286
10 | 38:17.12 | 6:42.70 | 172287 | 202506
11 | 45:00.07 | 4:18.14 | 202507 | 221870
12 | 49:18.21 | 4:36.60 | 221871 | 242630


Range status and errors

Selected range

Filename C:\Users\Alex\Desktop\ALLexxess\Muse\2019 Origins Of Muse (13-Disc Box Set Warner Music)\CD5 2019 Showbiz Live\Muse - Showbiz Live.wav

Peak level 100.0 %
Extraction speed 3.3 X
Range quality 100.0 %
Test CRC 431995F3
Copy CRC 431995F3
Copy OK

No errors occurred


AccurateRip summary

Track 1 not present in database
Track 2 not present in database
Track 3 not present in database
Track 4 not present in database
Track 5 not present in database
Track 6 not present in database
Track 7 not present in database
Track 8 not present in database
Track 9 not present in database
Track 10 not present in database
Track 11 not present in database
Track 12 not present in database

None of the tracks are present in the AccurateRip database

End of status report

–– CUETools DB Plugin V2.1.6

[CTDB TOCID: CE0Sj9fAj9Pmo5CIesVe9EdI0WA-] found
Submit result: CE0Sj9fAj9Pmo5CIesVe9EdI0WA- has been confirmed
Track | CTDB Status
1 | (22/22) Accurately ripped
2 | (22/22) Accurately ripped
3 | (22/22) Accurately ripped
4 | (22/22) Accurately ripped
5 | (22/22) Accurately ripped
6 | (22/22) Accurately ripped
7 | (22/22) Accurately ripped
8 | (22/22) Accurately ripped
9 | (22/22) Accurately ripped
10 | (22/22) Accurately ripped
11 | (22/22) Accurately ripped
12 | (22/22) Accurately ripped


==== Log checksum 7310EBFA461412E8A1811EAE97D46E40E28B3E72C9B64F6A99DF173F0891A36C ====


[CUETools log; Date: 19.12.2019 16:41:21; Version: 2.1.6]
[CTDB TOCID: CE0Sj9fAj9Pmo5CIesVe9EdI0WA-] found.
Track | CTDB Status
1 | (23/23) Accurately ripped
2 | (23/23) Accurately ripped
3 | (23/23) Accurately ripped
4 | (23/23) Accurately ripped
5 | (23/23) Accurately ripped
6 | (23/23) Accurately ripped
7 | (23/23) Accurately ripped
8 | (23/23) Accurately ripped
9 | (23/23) Accurately ripped
10 | (23/23) Accurately ripped
11 | (23/23) Accurately ripped
12 | (23/23) Accurately ripped
[AccurateRip ID: 0017763f-00dc2e5a-8d0ca30c] disk not present in database.

Track Peak [ CRC32 ] [W/O NULL] [ LOG ]
– 100,0 [431995F3] [CCB9A9B1] CRC32
01 99,8 [1E759E65] [3D9679B9]
02 99,8 [20920D0B] [4C9BE9F7]
03 99,8 [5C0A0766] [E61A6D56]
04 99,8 [E45257CC] [F2E4CC53]
05 99,8 [CEB30930] [831E4F87]
06 99,8 [F12EAEDA] [8F28972E]
07 100,0 [BAC30E85] [91868859]
08 99,8 [3CDC4122] [16EB22A7]
09 99,8 [2272C44F] [20B26BA3]
10 99,8 [7F7CAF78] [629C690B]
11 99,8 [FE87D30F] [BBE4165C]
12 99,8 [5F04D9A7] [6DA1A279]


Tracklist CD6 - 2019 Origin Of Symmetry Instrumental Demos:

Recorded At The Community Centre In Teignmouth
01 Micro Cuts
02 Feeling Good
03 Space Dementia
04 Hyper Music
05 Citizen Erased
06 Megalomania
07 Screenager
08 Shrinking Universe
09 Shine

Exact Audio Copy V1.3 from 2. September 2016

EAC extraction logfile from 18. December 2019, 23:21

Muse / Origin Of Symmetry Instrumental Demos

Used drive : PLEXTOR BD-R PX-B950SA Adapter: 1 ID: 1

Read mode : Secure
Utilize accurate stream : Yes
Defeat audio cache : Yes
Make use of C2 pointers : No

Read offset correction : 6
Overread into Lead-In and Lead-Out : No
Fill up missing offset samples with silence : Yes
Delete leading and trailing silent blocks : No
Null samples used in CRC calculations : Yes
Used interface : Native Win32 interface for Win NT & 2000

Used output format : Internal WAV Routines
Sample format : 44.100 Hz; 16 Bit; Stereo


TOC of the extracted CD

Track | Start | Length | Start sector | End sector
––––––––––––––––––––––––––––-
1 | 0:00.00 | 3:58.13 | 0 | 17862
2 | 3:58.13 | 3:15.29 | 17863 | 32516
3 | 7:13.42 | 5:07.18 | 32517 | 55559
4 | 12:20.60 | 3:08.17 | 55560 | 69676
5 | 15:29.02 | 7:13.60 | 69677 | 102211
6 | 22:42.62 | 4:31.39 | 102212 | 122575
7 | 27:14.26 | 4:01.59 | 122576 | 140709
8 | 31:16.10 | 3:31.27 | 140710 | 156561
9 | 34:47.37 | 4:07.46 | 156562 | 175132


Range status and errors

Selected range

Filename C:\Users\Alex\Desktop\ALLexxess\Muse\2019 Origins Of Muse (13-Disc Box Set Warner Music)\CD6 2019 Origin Of Symmetry Instrumental Demos\Muse - Origin Of Symmetry Instrumental Demos.wav

Peak level 99.8 %
Extraction speed 6.7 X
Range quality 100.0 %
Test CRC 8BCA45D3
Copy CRC 8BCA45D3
Copy OK

No errors occurred


AccurateRip summary

Track 1 not present in database
Track 2 not present in database
Track 3 not present in database
Track 4 not present in database
Track 5 not present in database
Track 6 not present in database
Track 7 not present in database
Track 8 not present in database
Track 9 not present in database

None of the tracks are present in the AccurateRip database

End of status report

–– CUETools DB Plugin V2.1.6

[CTDB TOCID: rGjAUzm0BfcI59G5Dv4mOyDybyI-] found
Submit result: rGjAUzm0BfcI59G5Dv4mOyDybyI- has been confirmed
Track | CTDB Status
1 | (23/23) Accurately ripped
2 | (23/23) Accurately ripped
3 | (23/23) Accurately ripped
4 | (23/23) Accurately ripped
5 | (23/23) Accurately ripped
6 | (23/23) Accurately ripped
7 | (23/23) Accurately ripped
8 | (23/23) Accurately ripped
9 | (23/23) Accurately ripped


==== Log checksum B041B60752431611FC397703B83805B05F876B3013371763DDBC7649E12B3225 ====


[CUETools log; Date: 19.12.2019 16:43:04; Version: 2.1.6]
[CTDB TOCID: rGjAUzm0BfcI59G5Dv4mOyDybyI-] found.
Track | CTDB Status
1 | (24/24) Accurately ripped
2 | (24/24) Accurately ripped
3 | (24/24) Accurately ripped
4 | (24/24) Accurately ripped
5 | (24/24) Accurately ripped
6 | (24/24) Accurately ripped
7 | (24/24) Accurately ripped
8 | (24/24) Accurately ripped
9 | (24/24) Accurately ripped
[AccurateRip ID: 000d516a-0062975b-77091f09] disk not present in database.

Track Peak [ CRC32 ] [W/O NULL] [ LOG ]
– 99,8 [8BCA45D3] [46D88614] CRC32
01 99,8 [6F99D0A3] [3087BB37]
02 99,8 [5B0D1953] [B318AA22]
03 99,8 [DCDEA642] [F6472CDA]
04 99,8 [3A2CD9B7] [3402D815]
05 99,8 [93BEA9CE] [5ACD3E9C]
06 99,8 [81D0C497] [D147AF4B]
07 99,8 [CEC2942B] [402DAEC8]
08 99,8 [E70F98B6] [E7FF3757]
09 99,8 [EA02230C] [E36270A9]


Tracklist CD7 - 2001 Origin Of Symmetry:

Remastered
01 New Born
02 Bliss
03 Space Dementia
04 Hyper Music
05 Plug In Baby
06 Citizen Erased
07 Micro Cuts
08 Screenager
09 Darkshines
10 Feeling Good
11 Futurism (Bonus Track)
12 Megalomania

Exact Audio Copy V1.3 from 2. September 2016

EAC extraction logfile from 18. December 2019, 18:53

Muse / Origins Of Symmetry

Used drive : PLEXTOR BD-R PX-B950SA Adapter: 1 ID: 1

Read mode : Secure
Utilize accurate stream : Yes
Defeat audio cache : Yes
Make use of C2 pointers : No

Read offset correction : 6
Overread into Lead-In and Lead-Out : No
Fill up missing offset samples with silence : Yes
Delete leading and trailing silent blocks : No
Null samples used in CRC calculations : Yes
Used interface : Native Win32 interface for Win NT & 2000

Used output format : Internal WAV Routines
Sample format : 44.100 Hz; 16 Bit; Stereo


TOC of the extracted CD

Track | Start | Length | Start sector | End sector
––––––––––––––––––––––––––––-
1 | 0:00.00 | 6:02.42 | 0 | 27191
2 | 6:02.42 | 4:12.40 | 27192 | 46131
3 | 10:15.07 | 6:20.72 | 46132 | 74703
4 | 16:36.04 | 3:21.48 | 74704 | 89826
5 | 19:57.52 | 3:38.58 | 89827 | 106234
6 | 23:36.35 | 7:18.36 | 106235 | 139120
7 | 30:54.71 | 3:38.08 | 139121 | 155478
8 | 34:33.04 | 4:20.04 | 155479 | 174982
9 | 38:53.08 | 4:47.09 | 174983 | 196516
10 | 43:40.17 | 3:18.26 | 196517 | 211392
11 | 46:58.43 | 3:27.38 | 211393 | 226955
12 | 50:26.06 | 4:37.15 | 226956 | 247745


Range status and errors

Selected range

Filename C:\Users\Alex\Desktop\ALLexxess\Muse\2019 Origins Of Muse (13-Disc Box Set Warner Music)\CD7 2001 Origins Of Symmetry\Muse - Origins Of Symmetry.wav

Peak level 100.0 %
Extraction speed 5.9 X
Range quality 100.0 %
Test CRC 9B9625EC
Copy CRC 9B9625EC
Copy OK

No errors occurred


AccurateRip summary

Track 1 not present in database
Track 2 not present in database
Track 3 not present in database
Track 4 not present in database
Track 5 not present in database
Track 6 not present in database
Track 7 not present in database
Track 8 not present in database
Track 9 not present in database
Track 10 not present in database
Track 11 not present in database
Track 12 not present in database

None of the tracks are present in the AccurateRip database

End of status report

–– CUETools DB Plugin V2.1.6

[CTDB TOCID: wfFZy34MV2F_I2ZWO4olSUR1wOU-] found
Submit result: wfFZy34MV2F_I2ZWO4olSUR1wOU- has been confirmed
Track | CTDB Status
1 | (23/23) Accurately ripped
2 | (23/23) Accurately ripped
3 | (23/23) Accurately ripped
4 | (23/23) Accurately ripped
5 | (23/23) Accurately ripped
6 | (23/23) Accurately ripped
7 | (23/23) Accurately ripped
8 | (23/23) Accurately ripped
9 | (23/23) Accurately ripped
10 | (22/23) Accurately ripped
11 | (22/23) Accurately ripped
12 | (23/23) Accurately ripped


==== Log checksum 0A793CB6739BDD199535E5AFA858C48BE352DEF35DCAC14553295C9DA2B22799 ====


[CUETools log; Date: 19.12.2019 16:45:24; Version: 2.1.6]
[CTDB TOCID: wfFZy34MV2F_I2ZWO4olSUR1wOU-] found.
Track | CTDB Status
1 | (24/24) Accurately ripped
2 | (24/24) Accurately ripped
3 | (24/24) Accurately ripped
4 | (24/24) Accurately ripped
5 | (24/24) Accurately ripped
6 | (24/24) Accurately ripped
7 | (24/24) Accurately ripped
8 | (24/24) Accurately ripped
9 | (24/24) Accurately ripped
10 | (23/24) Accurately ripped
11 | (23/24) Accurately ripped
12 | (24/24) Accurately ripped
[AccurateRip ID: 0019e21d-00ee1e53-ad0ce70c] disk not present in database.

Track Peak [ CRC32 ] [W/O NULL] [ LOG ]
– 100,0 [9B9625EC] [1A013D3B] CRC32
01 100,0 [7FF68429] [8CCE560F]
02 100,0 [3E5430C8] [7D9AD9A3]
03 99,1 [96F9D483] [03FB291C]
04 100,0 [CD8E5E85] [F18A44E5]
05 98,7 [497D2E7B] [028B7F3E]
06 98,1 [245B4D7C] [B07CCDC3]
07 99,6 [91DB2902] [5D879114]
08 98,1 [34358A1F] [41C19F7A]
09 100,0 [4175DE24] [4B39E96D]
10 98,6 [E3ED19BC] [9A13E901]
11 98,6 [DEE81C43] [35F18597]
12 97,5 [B5DE878D] [E0706FDD]


Tracklist CD8 - 2019 Origin Of Symmetry B-Sides:

Every B-side Recorded For
Singles Released From The Album
01 Nature 1
02 Execution Commentary
03 Bedroom Acoustics
04 Shrinking Universe
05 Piano Thing
06 Map Of Your Head
07 The Gallery
08 Hyper Chondriac Music
09 Shine
10 Please, Please, Please, Let Me Get What I Want
11 Dead Star
12 In Your World
13 Can’t Take My Eyes Off You

Exact Audio Copy V1.3 from 2. September 2016

EAC extraction logfile from 18. December 2019, 18:17

Muse / Origin Of Symmetry B-Sides

Used drive : PLEXTOR BD-R PX-B950SA Adapter: 1 ID: 1

Read mode : Secure
Utilize accurate stream : Yes
Defeat audio cache : Yes
Make use of C2 pointers : No

Read offset correction : 6
Overread into Lead-In and Lead-Out : No
Fill up missing offset samples with silence : Yes
Delete leading and trailing silent blocks : No
Null samples used in CRC calculations : Yes
Used interface : Native Win32 interface for Win NT & 2000

Used output format : Internal WAV Routines
Sample format : 44.100 Hz; 16 Bit; Stereo


TOC of the extracted CD

Track | Start | Length | Start sector | End sector
––––––––––––––––––––––––––––-
1 | 0:00.00 | 3:42.05 | 0 | 16654
2 | 3:42.05 | 2:29.06 | 16655 | 27835
3 | 6:11.11 | 2:37.71 | 27836 | 39681
4 | 8:49.07 | 3:08.57 | 39682 | 53838
5 | 11:57.64 | 2:54.28 | 53839 | 66916
6 | 14:52.17 | 4:25.38 | 66917 | 86829
7 | 19:17.55 | 3:32.20 | 86830 | 102749
8 | 22:50.00 | 5:30.17 | 102750 | 127516
9 | 28:20.17 | 3:20.37 | 127517 | 142553
10 | 31:40.54 | 1:59.68 | 142554 | 151546
11 | 33:40.47 | 3:41.69 | 151547 | 168190
12 | 37:22.41 | 2:37.06 | 168191 | 179971
13 | 39:59.47 | 3:31.07 | 179972 | 195803


Range status and errors

Selected range

Filename C:\Users\Alex\Desktop\ALLexxess\Muse\2019 Origins Of Muse (13-Disc Box Set Warner Music)\CD8 2019 Origins Of Symmetry B-Sides\Muse - Origin Of Symmetry B-Sides.wav

Peak level 100.0 %
Extraction speed 6.9 X
Range quality 100.0 %
Test CRC 595CA8C1
Copy CRC 595CA8C1
Copy OK

No errors occurred


AccurateRip summary

Track 1 not present in database
Track 2 not present in database
Track 3 not present in database
Track 4 not present in database
Track 5 not present in database
Track 6 not present in database
Track 7 not present in database
Track 8 not present in database
Track 9 not present in database
Track 10 not present in database
Track 11 not present in database
Track 12 not present in database
Track 13 not present in database

None of the tracks are present in the AccurateRip database

End of status report

–– CUETools DB Plugin V2.1.6

[CTDB TOCID: zz1Ff6G1Q.E_mZPW_8n06ZEqUvM-] found
Submit result: zz1Ff6G1Q.E_mZPW_8n06ZEqUvM- has been confirmed
Track | CTDB Status
1 | (23/23) Accurately ripped
2 | (23/23) Accurately ripped
3 | (23/23) Accurately ripped
4 | (23/23) Accurately ripped
5 | (23/23) Accurately ripped
6 | (23/23) Accurately ripped
7 | (23/23) Accurately ripped
8 | (23/23) Accurately ripped
9 | (23/23) Accurately ripped
10 | (23/23) Accurately ripped
11 | (23/23) Accurately ripped
12 | (23/23) Accurately ripped
13 | (23/23) Accurately ripped


==== Log checksum 503FED53B1FBC1F77A5C9780D622A9C586BD66626B1433050DD5AE1D4DC4E479 ====


[CUETools log; Date: 19.12.2019 16:47:08; Version: 2.1.6]
[CTDB TOCID: zz1Ff6G1Q.E_mZPW_8n06ZEqUvM-] found.
Track | CTDB Status
1 | (24/24) Accurately ripped
2 | (24/24) Accurately ripped
3 | (24/24) Accurately ripped
4 | (24/24) Accurately ripped
5 | (24/24) Accurately ripped
6 | (24/24) Accurately ripped
7 | (24/24) Accurately ripped
8 | (24/24) Accurately ripped
9 | (24/24) Accurately ripped
10 | (24/24) Accurately ripped
11 | (24/24) Accurately ripped
12 | (24/24) Accurately ripped
13 | (24/24) Accurately ripped
[AccurateRip ID: 0014c0de-00d147f8-920a320d] disk not present in database.

Track Peak [ CRC32 ] [W/O NULL] [ LOG ]
– 100,0 [595CA8C1] [4109207B] CRC32
01 98,6 [233184FA] [CD0B33C7]
02 98,7 [9E979964] [7732B5B8]
03 78,8 [BA77E6BA] [42BDF42A]
04 99,5 [770FA549] [E7C528B7]
05 100,0 [5EB3878D] [394F2663]
06 99,7 [23944E32] [40B32F3A]
07 99,7 [65616911] [8BFF39E3]
08 99,8 [94386F31] [A9194A5A]
09 98,1 [81007035] [F1D5F2FB]
10 89,1 [E0953618] [47EA75BE]
11 99,9 [6D05E87E] [A95769A4]
12 99,9 [0925C437] [02B43AD5]
13 77,6 [3F3FB543] [DE7E9B38]


Tracklist CD9 - 2019 Origin Of Symmetry, Live At Reading Festival:

Full Live Version Of The Band’s Headline Performance
Of The Entire Album Recorded At Reading Festival 2011
On The 10th Anniversary Of Its Release
01 New Born
02 Bliss
03 Space Dementia
04 Hyper Music
05 Plug In Baby
06 Citizen Erased
07 Micro Cuts
08 Screenager
09 Darkshines
10 Feeling Good
11 Megalomania

Exact Audio Copy V1.3 from 2. September 2016

EAC extraction logfile from 18. December 2019, 17:38

Muse / Origin Of Symmetry Live 2011

Used drive : PLEXTOR BD-R PX-B950SA Adapter: 1 ID: 1

Read mode : Secure
Utilize accurate stream : Yes
Defeat audio cache : Yes
Make use of C2 pointers : No

Read offset correction : 6
Overread into Lead-In and Lead-Out : No
Fill up missing offset samples with silence : Yes
Delete leading and trailing silent blocks : No
Null samples used in CRC calculations : Yes
Used interface : Native Win32 interface for Win NT & 2000

Used output format : Internal WAV Routines
Sample format : 44.100 Hz; 16 Bit; Stereo


TOC of the extracted CD

Track | Start | Length | Start sector | End sector
––––––––––––––––––––––––––––-
1 | 0:00.00 | 6:24.58 | 0 | 28857
2 | 6:24.58 | 5:28.72 | 28858 | 53529
3 | 11:53.55 | 6:27.73 | 53530 | 82627
4 | 18:21.53 | 3:37.57 | 82628 | 98959
5 | 21:59.35 | 4:42.58 | 98960 | 120167
6 | 26:42.18 | 7:18.36 | 120168 | 153053
7 | 34:00.54 | 3:42.07 | 153054 | 169710
8 | 37:42.61 | 3:56.31 | 169711 | 187441
9 | 41:39.17 | 4:06.22 | 187442 | 205913
10 | 45:45.39 | 3:35.49 | 205914 | 222087
11 | 49:21.13 | 4:25.73 | 222088 | 242035


Range status and errors

Selected range

Filename C:\Users\Alex\Desktop\ALLexxess\Muse\2019 Origins Of Muse (13-Disc Box Set Warner Music)\CD9 2019 Origins Of Symmetry, Live At Reading Festival\Muse - Origin Of Symmetry Live 2011.wav

Peak level 99.8 %
Extraction speed 3.3 X
Range quality 100.0 %
Test CRC 6E757541
Copy CRC 6E757541
Copy OK

No errors occurred


AccurateRip summary

Track 1 not present in database
Track 2 not present in database
Track 3 not present in database
Track 4 not present in database
Track 5 not present in database
Track 6 not present in database
Track 7 not present in database
Track 8 not present in database
Track 9 not present in database
Track 10 not present in database
Track 11 not present in database

None of the tracks are present in the AccurateRip database

End of status report

–– CUETools DB Plugin V2.1.6

[CTDB TOCID: .5My4Y5tM1Q5KZMy12ynSqEhac0-] found
Submit result: .5My4Y5tM1Q5KZMy12ynSqEhac0- has been confirmed
Track | CTDB Status
1 | (24/24) Accurately ripped
2 | (24/24) Accurately ripped
3 | (24/24) Accurately ripped
4 | (24/24) Accurately ripped
5 | (24/24) Accurately ripped
6 | (24/24) Accurately ripped
7 | (24/24) Accurately ripped
8 | (24/24) Accurately ripped
9 | (24/24) Accurately ripped
10 | (24/24) Accurately ripped
11 | (24/24) Accurately ripped


==== Log checksum D0AF6D530515657D8A7CC5700C8A1CF7CFFB81DFE7F525484C38A6B0358EF62F ====


[CUETools log; Date: 19.12.2019 16:49:11; Version: 2.1.6]
[CTDB TOCID: .5My4Y5tM1Q5KZMy12ynSqEhac0-] found.
Track | CTDB Status
1 | (25/25) Accurately ripped
2 | (25/25) Accurately ripped
3 | (25/25) Accurately ripped
4 | (25/25) Accurately ripped
5 | (25/25) Accurately ripped
6 | (25/25) Accurately ripped
7 | (25/25) Accurately ripped
8 | (25/25) Accurately ripped
9 | (25/25) Accurately ripped
10 | (25/25) Accurately ripped
11 | (25/25) Accurately ripped
[AccurateRip ID: 0017dee5-00cabf2b-7d0c9b0b] disk not present in database.

Track Peak [ CRC32 ] [W/O NULL] [ LOG ]
– 99,8 [6E757541] [5BCCCF6F] CRC32
01 99,8 [FF49EABB] [4587E9AD]
02 99,8 [93361CAE] [F8A3BDA6]
03 99,8 [5BCD77E3] [4600415E]
04 99,8 [ABAF4144] [C7405D50]
05 99,8 [E5EAF0C6] [9D6FA52C]
06 99,8 [A32C59CF] [01A4ECF6]
07 99,8 [753D7A22] [485D6440]
08 99,8 [74DF4AA1] [A35B545B]
09 99,8 [A12BF54B] [B0DED194]
10 99,8 [92B41C2E] [2F8BD46A]
11 99,8 [75FEB48D] [0EB45CCC]


Muse - Origins Of Muse (2019) [9CD + 4LP Box Set]

All thanks go to ALLexxess

Muse in my Blog

Download Muse - Origins Of Muse (2019: