Subcategories

Museo Rosenbach - Zarathustra (1973) [Japanese Edition 2003]

Posted By: gribovar
Museo Rosenbach - Zarathustra (1973) [Japanese Edition 2003]

Museo Rosenbach - Zarathustra (1973) [Japanese Edition 2003]
EAC Rip | WavPack (image+.cue+log) - 273 MB | MP3 CBR 320 kbps (LAME 3.93) - 109 MB | Covers (16 MB) included
Genre: Progressive Rock | RAR 3% Rec. | Label: BMG (BVCM-37425)

Museo Rosenbach is an Italian progressive band, best known for their 1973 release Zarathustra, a concept album freely inspired by the controversial works of philosopher Friedrich Nietzsche and ‘Thus Spoke Zarathustra’. Unfortunately, at the time of its release, the album was widely disregarded because of the far right-wing views found within the Nietzsche-inspired lyrics. The band suffered for their political ideals, which prevented them from getting the kind of attention they deserved. Museo’s musical palette contained a dash of Banco, ELP and Van Der Graaf Generator. Comparisons to early King Crimson are also inevitable; this is symphonic progressive rock with a rough edge. While the group’s particular brand was less experimental than a lot of Italian prog, their compositions were equally challenging constructions, filled with time changes and eccentricities. Something is always happening.

Tracklist:
01. Zarathustra - L'Ultimo Uomo
02. Zarathustra - Il Re Di Ieri
03. Zarathustra - Al Di La Del Bene E Del Male
04. Zarathustra - Superuomo
05. Zarathustra - Il Tempio Delle Clessidre
06. Degli Uomini
07. Della Natura
08. Dell'Eterno Ritorno

Total time: 39:31

Exact Audio Copy V1.3 from 2. September 2016

EAC extraction logfile from 2. January 2019, 0:21

Museo Rosenbach / Zarathustra

Used drive : TSSTcorpCDDVDW SH-224DB Adapter: 1 ID: 0

Read mode : Secure
Utilize accurate stream : Yes
Defeat audio cache : Yes
Make use of C2 pointers : No

Read offset correction : 6
Overread into Lead-In and Lead-Out : No
Fill up missing offset samples with silence : Yes
Delete leading and trailing silent blocks : No
Null samples used in CRC calculations : Yes
Used interface : Native Win32 interface for Win NT & 2000

Used output format : User Defined Encoder
Selected bitrate : 896 kBit/s
Quality : High
Add ID3 tag : No
Command line compressor : C:\Program Files (x86)\Exact Audio Copy\wavpack.exe
Additional command line options : -hlm %source%


TOC of the extracted CD

Track | Start | Length | Start sector | End sector
––––––––––––––––––––––––––––-
1 | 0:00.00 | 3:57.47 | 0 | 17821
2 | 3:57.47 | 4:39.53 | 17822 | 38799
3 | 8:37.25 | 2:41.17 | 38800 | 50891
4 | 11:18.42 | 6:30.15 | 50892 | 80156
5 | 17:48.57 | 2:51.00 | 80157 | 92981
6 | 20:39.57 | 4:01.53 | 92982 | 111109
7 | 24:41.35 | 8:32.12 | 111110 | 149521
8 | 33:13.47 | 6:17.20 | 149522 | 177816


Range status and errors

Selected range

Filename E:\iso\Museo Rosenbach - Zarathustra\Museo Rosenbach - Zarathustra.wav

Peak level 99.9 %
Extraction speed 1.5 X
Range quality 100.0 %
Test CRC 7C568794
Copy CRC 7C568794
Copy OK

No errors occurred


AccurateRip summary

Track 1 accurately ripped (confidence 7) [63AABF71] (AR v2)
Track 2 accurately ripped (confidence 7) [F7618E5E] (AR v2)
Track 3 accurately ripped (confidence 7) [0AD5345B] (AR v2)
Track 4 accurately ripped (confidence 7) [9302F8E0] (AR v2)
Track 5 accurately ripped (confidence 7) [1B726928] (AR v2)
Track 6 accurately ripped (confidence 7) [2916E590] (AR v2)
Track 7 accurately ripped (confidence 7) [57AD6C87] (AR v2)
Track 8 accurately ripped (confidence 7) [18B0D938] (AR v2)

All tracks accurately ripped

End of status report

–– CUETools DB Plugin V2.1.6

[CTDB TOCID: AWKifqxUx0dRpFB8tuatQ.StImM-] found
Submit result: AWKifqxUx0dRpFB8tuatQ.StImM- has been confirmed
Track | CTDB Status
1 | (23/23) Accurately ripped
2 | (23/23) Accurately ripped
3 | (23/23) Accurately ripped
4 | (23/23) Accurately ripped
5 | (23/23) Accurately ripped
6 | (23/23) Accurately ripped
7 | (23/23) Accurately ripped
8 | (23/23) Accurately ripped


==== Log checksum C104336D44E784BD5AC9047D4E73AAA6EF401659C99B03CC83731493175F6080 ====

[CUETools log; Date: 02.11.2019 15:16:06; Version: 2.1.4]
[CTDB TOCID: AWKifqxUx0dRpFB8tuatQ.StImM-] found.
Track | CTDB Status
1 | (30/30) Accurately ripped
2 | (30/30) Accurately ripped
3 | (30/30) Accurately ripped
4 | (30/30) Accurately ripped
5 | (30/30) Accurately ripped
6 | (30/30) Accurately ripped
7 | (30/30) Accurately ripped
8 | (30/30) Accurately ripped
[AccurateRip ID: 000af8fe-004a980d-65094208] found.
Track [ CRC | V2 ] Status
01 [cef6b24f|63aabf71] (03+07/10) Accurately ripped
02 [b7fb06c7|f7618e5e] (03+07/10) Accurately ripped
03 [79a7ffd2|0ad5345b] (03+07/10) Accurately ripped
04 [a9f6136b|9302f8e0] (03+07/10) Accurately ripped
05 [22546100|1b726928] (03+07/10) Accurately ripped
06 [13955519|2916e590] (03+07/10) Accurately ripped
07 [43957f30|57ad6c87] (03+07/10) Accurately ripped
08 [3432f319|18b0d938] (03+07/10) Accurately ripped

Track Peak [ CRC32 ] [W/O NULL] [ LOG ]
– 99,9 [7C568794] [E4401CB7] CRC32
01 99,9 [3E4185B6] [377BE882]
02 99,9 [653FAD2F] [1E776255]
03 99,9 [2ECFC6EA] [DAB50A69]
04 99,9 [9CE18B92] [32DDD69E]
05 99,9 [457FE483] [272FB859]
06 99,7 [2C8F6ABA] [53AEB1D5]
07 99,7 [A28FB699] [4DC4731A]
08 98,9 [4E9BC5BF] [E637DADB]

Thanks to shatterhand