Subcategories
Tags
Language
Tags

Elliot Lawrence - Music of Elliot Lawrence (1995) [MFSL, UDCD 636] Re-up

Posted By: v3122
Elliot Lawrence - Music of Elliot Lawrence (1995) [MFSL, UDCD 636] Re-up

Elliot Lawrence - Music of Elliot Lawrence (1995)
EAC | Flac(Image) + Cue + Log & MP3 CBR 320Kbps
Mobile Fidelity Sound Lab, UDCD 636 | ~ 154 or 124 Mb | Scans(jpg) -> 12 Mb
Jazz, Big Band, Swing

This Audiophile CD release is comprised of 22 brief performances (generally 2-2 1/2 minutes apiece) that were originally recorded as radio transcriptions (rather than commercial records). Altoist Gene Quill and tenorman Al Cohn (one of the main arrangers) are the main soloists on the big-band selections while Lawrence (on piano) is also featured in a sextet with guitarist Mary Osborne and Tyree Glenn (who doubles on trombone and vibes). The music ranges from middle-of-the-road instrumental pop and swing to hints of bop and dixieland. Although not a major release, this CD does have enjoyable performances and is one of the few Elliot Lawrence recordings currently available.

by Scott Yanow, allmusic
Elliot Lawrence - Music of Elliot Lawrence (1995):

Elliot Lawrence - Music of Elliot Lawrence (1995) [MFSL, UDCD 636] Re-up

Tracklist:

01. Short'nin' Bread [2:06]
02. I Found The One I Love [2:13]
03. Reminiscing [2:14]
04. How Dear My Love [2:11]
05. Anna [1:59]
06. Groovin' In The A.M. [2:15]
07. Love Me Baby [1:49]
08. Pavane [2:37]
09. Sweet Magnolia Rose [1:57]
10. On Montego Bay [2:05]
11. The Shrine Of St. Cecilia [2:12]
12. Gone [2:16]
13. Did You Say Dixie? [2:31]
14. Alto Lament [3:10]
15. We'll Love Again [2:20]
16. Pebbles [2:49]
17. We Can't Go On [2:34]
18. Sioux City [2:55]
19. Autumn Time [2:34]
20. Blue Cha-Cha [2:50]
21. Dancing The Shadow Waltz [2:38]
22. Paradise Rock [2:21]

Exact Audio Copy V1.3 from 2. September 2016

EAC extraction logfile from 7. November 2016, 17:06

ELLIOT LAWRENCE / The Music Of … (USA, MFSL, UDCD 636)

Used drive : ASUS DRW-24B3ST Adapter: 1 ID: 1

Read mode : Secure
Utilize accurate stream : Yes
Defeat audio cache : Yes
Make use of C2 pointers : No

Read offset correction : 6
Overread into Lead-In and Lead-Out : No
Fill up missing offset samples with silence : Yes
Delete leading and trailing silent blocks : No
Null samples used in CRC calculations : Yes
Used interface : Native Win32 interface for Win NT & 2000

Used output format : User Defined Encoder
Selected bitrate : 1024 kBit/s
Quality : High
Add ID3 tag : No
Command line compressor : C:\Program Files\EAC(v.1.3)\WV\wavpack.exe
Additional command line options : -h -hh -m %source%


TOC of the extracted CD

Track | Start | Length | Start sector | End sector
––––––––––––––––––––––––––––-
1 | 0:00.00 | 2:05.40 | 0 | 9414
2 | 2:05.40 | 2:12.52 | 9415 | 19366
3 | 4:18.17 | 2:14.35 | 19367 | 29451
4 | 6:32.52 | 2:10.73 | 29452 | 39274
5 | 8:43.50 | 1:58.52 | 39275 | 48176
6 | 10:42.27 | 2:15.35 | 48177 | 58336
7 | 12:57.62 | 1:49.03 | 58337 | 66514
8 | 14:46.65 | 2:37.35 | 66515 | 78324
9 | 17:24.25 | 1:56.47 | 78325 | 87071
10 | 19:20.72 | 2:04.70 | 87072 | 96441
11 | 21:25.67 | 2:11.63 | 96442 | 106329
12 | 23:37.55 | 2:15.72 | 106330 | 116526
13 | 25:53.52 | 2:31.18 | 116527 | 127869
14 | 28:24.70 | 3:09.60 | 127870 | 142104
15 | 31:34.55 | 2:20.30 | 142105 | 152634
16 | 33:55.10 | 2:48.45 | 152635 | 165279
17 | 36:43.55 | 2:34.00 | 165280 | 176829
18 | 39:17.55 | 2:55.15 | 176830 | 189969
19 | 42:12.70 | 2:34.35 | 189970 | 201554
20 | 44:47.30 | 2:50.02 | 201555 | 214306
21 | 47:37.32 | 2:37.65 | 214307 | 226146
22 | 50:15.22 | 2:20.40 | 226147 | 236686


Range status and errors

Selected range

Filename F:\ELLIOT LAWRENCE - The Music Of … (1956,58) (US 1995 Mobile Fidelity Sound Lab • UDCD 636)\ELLIOT LAWRENCE - The Music Of … (USA, MFSL, UDCD 636).wav

Peak level 100.0 %
Extraction speed 7.6 X
Range quality 100.0 %
Test CRC FEA16CBD
Copy CRC FEA16CBD
Copy OK

No errors occurred


AccurateRip summary

Track 1 accurately ripped (confidence 7) [4135BA92] (AR v2)
Track 2 accurately ripped (confidence 7) [B996645A] (AR v2)
Track 3 accurately ripped (confidence 7) [3EEC55D8] (AR v2)
Track 4 accurately ripped (confidence 7) [EC2E2D88] (AR v2)
Track 5 accurately ripped (confidence 7) [FAA4A64B] (AR v2)
Track 6 accurately ripped (confidence 7) [B9F6820F] (AR v2)
Track 7 accurately ripped (confidence 7) [FD9BA2E7] (AR v2)
Track 8 accurately ripped (confidence 7) [EEFB7744] (AR v2)
Track 9 accurately ripped (confidence 7) [3998540A] (AR v2)
Track 10 accurately ripped (confidence 7) [B482F3FF] (AR v2)
Track 11 accurately ripped (confidence 7) [1E7619DB] (AR v2)
Track 12 accurately ripped (confidence 7) [C83DFE03] (AR v2)
Track 13 accurately ripped (confidence 7) [00B46334] (AR v2)
Track 14 accurately ripped (confidence 7) [7C0F94B8] (AR v2)
Track 15 accurately ripped (confidence 7) [6815668E] (AR v2)
Track 16 accurately ripped (confidence 7) [850DDE4D] (AR v2)
Track 17 accurately ripped (confidence 7) [45DBC98D] (AR v2)
Track 18 accurately ripped (confidence 7) [941817A5] (AR v2)
Track 19 accurately ripped (confidence 7) [059A6F3A] (AR v2)
Track 20 accurately ripped (confidence 7) [E1002A86] (AR v2)
Track 21 accurately ripped (confidence 7) [295EBFC3] (AR v2)
Track 22 accurately ripped (confidence 7) [0917FDCE] (AR v2)

All tracks accurately ripped

End of status report

==== Log checksum 0919195E6EAB35A73E40E3ECAD6F5F7BF614DBCCF3B402DD441C83E3A26296F4 ====

foobar2000 1.2.9 / Dynamic Range Meter 1.1.1
log date: 2016-11-16 12:08:55

––––––––––––––––––––––––––––––––––––––––
Analyzed: ELLIOT LAWRENCE / The Music Of … (USA, MFSL, UDCD 636)
––––––––––––––––––––––––––––––––––––––––

DR Peak RMS Duration Track
––––––––––––––––––––––––––––––––––––––––
DR13 -0.26 dB -15.52 dB 2:06 01-Short'nin' Bread
DR11 -1.80 dB -16.37 dB 2:13 02-I Found The One I Love
DR12 -4.20 dB -18.63 dB 2:14 03-Reminiscing
DR12 -2.95 dB -17.05 dB 2:11 04-How Dear My Love
DR11 -1.87 dB -15.81 dB 1:59 05-Anna
DR13 -1.25 dB -15.73 dB 2:15 06-Groovin' In The A.M.
DR13 0.00 dB -15.28 dB 1:49 07-Love Me Baby
DR12 -4.31 dB -19.02 dB 2:37 08-Pavane
DR11 -1.69 dB -15.55 dB 1:57 09-Sweet Magnolia Rose
DR12 -0.84 dB -15.97 dB 2:05 10-On Montego Bay
DR11 -3.91 dB -17.13 dB 2:12 11-The Shrine Of St. Cecilia
DR11 -1.49 dB -15.37 dB 2:16 12-Gone
DR12 -0.44 dB -15.20 dB 2:31 13-Did You Say Dixie?
DR11 -1.36 dB -16.22 dB 3:10 14-Alto Lament
DR11 -1.65 dB -15.89 dB 2:20 15-We'll Love Again
DR12 -2.32 dB -16.48 dB 2:49 16-Pebbles
DR12 -0.35 dB -14.78 dB 2:34 17-We Can't Go On
DR12 -0.09 dB -15.20 dB 2:55 18-Sioux City
DR11 -2.35 dB -16.72 dB 2:34 19-Autumn Time
DR12 -0.07 dB -15.23 dB 2:50 20-Blue Cha-Cha
DR11 -3.32 dB -17.24 dB 2:38 21-Dancing The Shadow Waltz
DR13 -0.07 dB -14.82 dB 2:21 22-Paradise Rock
––––––––––––––––––––––––––––––––––––––––

Number of tracks: 22
Official DR value: DR12

Samplerate: 44100 Hz
Channels: 2
Bits per sample: 16
Bitrate: 397 kbps
Codec: FLAC

[CUETools log; Date: 16.11.2016 12:08:45; Version: 2.1.4]
[CTDB TOCID: K8dcpVuyZAbbZFFtHlyeOOCz6tw-] found.
Track | CTDB Status
1 | (4/4) Accurately ripped
2 | (4/4) Accurately ripped
3 | (4/4) Accurately ripped
4 | (4/4) Accurately ripped
5 | (4/4) Accurately ripped
6 | (4/4) Accurately ripped
7 | (4/4) Accurately ripped
8 | (4/4) Accurately ripped
9 | (4/4) Accurately ripped
10 | (4/4) Accurately ripped
11 | (4/4) Accurately ripped
12 | (4/4) Accurately ripped
13 | (4/4) Accurately ripped
14 | (4/4) Accurately ripped
15 | (4/4) Accurately ripped
16 | (4/4) Accurately ripped
17 | (4/4) Accurately ripped
18 | (4/4) Accurately ripped
19 | (4/4) Accurately ripped
20 | (4/4) Accurately ripped
21 | (4/4) Accurately ripped
22 | (4/4) Accurately ripped
[AccurateRip ID: 00277fcc-02805439-4c0c5316] found.
Track [ CRC | V2 ] Status
01 [6644eae1|4135ba92] (06+07/13) Accurately ripped
02 [639944c6|b996645a] (06+07/13) Accurately ripped
03 [c7effbd7|3eec55d8] (06+07/13) Accurately ripped
04 [ddd6f4b2|ec2e2d88] (06+07/13) Accurately ripped
05 [68599cdc|faa4a64b] (06+07/13) Accurately ripped
06 [11fcd838|b9f6820f] (06+07/13) Accurately ripped
07 [91b3ff3a|fd9ba2e7] (06+07/13) Accurately ripped
08 [cdd9a16f|eefb7744] (06+07/13) Accurately ripped
09 [0af7a8b7|3998540a] (06+07/13) Accurately ripped
10 [050f114a|b482f3ff] (06+07/13) Accurately ripped
11 [1ec121d3|1e7619db] (06+07/13) Accurately ripped
12 [7432095b|c83dfe03] (06+07/13) Accurately ripped
13 [f2e1e6bb|00b46334] (06+07/13) Accurately ripped
14 [de19290b|7c0f94b8] (06+07/13) Accurately ripped
15 [61657407|6815668e] (06+07/13) Accurately ripped
16 [109b26be|850dde4d] (06+07/13) Accurately ripped
17 [a8b7155c|45dbc98d] (06+07/13) Accurately ripped
18 [800760fb|941817a5] (06+07/13) Accurately ripped
19 [e851eb3f|059a6f3a] (06+07/13) Accurately ripped
20 [b762b663|e1002a86] (06+07/13) Accurately ripped
21 [f997af22|295ebfc3] (06+07/13) Accurately ripped
22 [7ba16f1c|0917fdce] (06+07/13) Accurately ripped

Track Peak [ CRC32 ] [W/O NULL] [ LOG ]
– 100,0 [FEA16CBD] [E36886F3] CRC32
01 97,0 [8FB1D015] [6DACEC66]
02 81,2 [8093AD03] [6911EC8E]
03 61,6 [258DFAE1] [92E6A786]
04 71,2 [19C402BB] [B6679CAA]
05 80,6 [6F0EB4D1] [0DEC8DF9]
06 86,6 [42727F24] [2622094C]
07 100,0 [8451D25B] [62A76322]
08 60,8 [BEA8E23A] [3DEBF0B5]
09 82,3 [D394F700] [D923A5BC]
10 90,7 [EBB3B5A4] [27DED327]
11 63,7 [C4B1CA87] [1C075B7D]
12 84,2 [92CD790B] [CFD32EAE]
13 95,0 [7806F440] [03149A9F]
14 85,5 [3B303731] [DECE0719]
15 82,6 [EEB198AE] [F4AFDE1A]
16 76,5 [EA6B1336] [69B746A5]
17 96,0 [187071F7] [BE35AD58]
18 98,9 [217C9EC1] [88B14768]
19 76,3 [C003206A] [152F8057]
20 99,2 [DA27A136] [63800A0F]
21 68,2 [807E1430] [3AC105C6]
22 99,2 [C897C96A] [D9834AA3]

Elliot Lawrence - Music of Elliot Lawrence (1995) [MFSL, UDCD 636] Re-up

All thanks go to the original releaser

Download Elliot Lawrence - Music of Elliot Lawrence (1995):