Subcategories

Music from Christian & Jewish Spain (Jordi Savall) [1999]

Posted By: Sowulo
Music from Christian & Jewish Spain (Jordi Savall) [1999]

Music from Christian & Jewish Spain (Jordi Savall) [1999]
EAC Rip | FLAC, IMG+CUE, LOG | Covers | 2cd, 513.79 MB
Classical | Virgin | 7243 5 61591 2 9

Prior to the Spanish Inquisition, peace, tolerance, and shared learning existed. This shared knowledge influenced all subjects from the sciences to the arts. The music composed and performed during this time was about being in the moment: Some pieces tell stories–'Cancionera de la Columbina' for example–while others express emotions, as in the 'Romances.' Interestingly enough, the "non-Jewish" selections were written during the Inquisition, while the Sephardic selections were written right before it. Director Jordi Savall and Hesperion XX, an ensemble that specializes in early music from all over the world, are like chameleons. Soprano Montserrat Figueras is able to inhabit each work with great authenticity and individual style. Her singing on the 'Villancicos' displays more of a Renaissance influence, while in the 'Sephardic Romances' we hear authentic Middle Eastern inflections. The contrast in style of the "Christian" versus "Jewish" works is evident, but there are similarities. Both "Si d'amor pena sentis" and "La Reina xerifa mora" are lyrical, sparsely accompanied, and plaintive in tone. The songs on these discs are beautiful and expertly performed. The one setback is a lack of information in the liner notes, especially for listeners new to this music.

Performer:
Hesperion XX
Jordi Savall – direction

Tracklisting:
CD1: Court Music and Songs
01. Anonimo - Villancicos from Cancionero de la Columbina: Niña y viña
02. Anonimo - Villancicos from Cancionero de la Columbina: Propiñan de melyor
03. Anonimo - Villancicos from Cancionero de la Columbina: Como no le andaré yo?
04. Anonimo - Villancicos from Cancionero de la Columbina: Recercada
05. Milàn, Luis - Villancicos from Cancionero de la Columbina: Fantasia
06. Milàn, Luis - Villancicos from Cancionero de la Columbina: Pavana
07. Anonimo - Villancicos from Cancionero de Palacio: Al alva venid, buen amigo
08. Anonimo - Villancicos from Cancionero de Palacio: Perdí la mi rrueca
09. Anonimo - Villancicos from Cancionero de Palacio: A los baños del amor
10. Anonimo - Villancicos from Cancionero de Palacio: Fantasia
11. Anonimo - Villancicos from Cancionero de Palacio: Romanesca
12. Garcimuñós - Villancicos from Cancionero de Palacio: Pues bien para esta
13. Anonimo - Villancicos from Cancionero de Palacio: Si avéis dicho, marido
14. Anonimo - Romances from Cancionero de Palacio: Si d'amor pena sentís
15. Roman - Romances from Cancionero de Palacio: O voy
16. Encina, Juan del - Romances from Cancionero de Palacio: Qu'es de ti, desconsolado
17. Ortiz, Diego - Recercadas sobre tenores: Recercada 4
18. Ortiz, Diego - Recercadas sobre tenores: Recercada 5
19. Ortiz, Diego - Recercadas sobre tenores: Recercada 6
20. Anonimo - Villancicos from Cancionero de Uppsala: Yo me soy la morenica
21. Anonimo - Villancicos from Cancionero de Uppsala: Si la noche haze escura
22. Anonimo - Villancicos from Cancionero de Uppsala: Soleta só jo ací
23. Anonimo - Villancicos from Cancionero de Uppsala: Con qué la lavare?
24. Anonimo - Villancicos from Cancionero de Uppsala: Soy serranica
CD2: Sephardic Romances
01. Pregoneros vay y vienen
02. El rey de Fancia tres hijas tenía
03. Una matica de Ruda
04. Palestina hermoza
05. Nani, nani
06. El rey que tanto madruga
07. Por qué llorax blanca niña
08. Moricos los mis moricos
09. Lavava y suspirava
10. Paxarico tu te llamas
11. La reina xerifa mora
12. Por allí pasó un cavallero

Exact Audio Copy V1.0 beta 1 from 15. November 2010

EAC extraction logfile from 2. May 2012, 22:18

Hesperion XX - Jordi Savall / Music from Christian & Jewish Spain 1450-1550 - Court Music and Songs - CD1

Used drive : PIONEER DVD-RW DVR-218L Adapter: 1 ID: 0

Read mode : Secure
Utilize accurate stream : Yes
Defeat audio cache : Yes
Make use of C2 pointers : No

Read offset correction : 6
Overread into Lead-In and Lead-Out : No
Fill up missing offset samples with silence : Yes
Delete leading and trailing silent blocks : No
Null samples used in CRC calculations : Yes
Used interface : Native Win32 interface for Win NT & 2000

Used output format : User Defined Encoder
Selected bitrate : 192 kBit/s
Quality : High
Add ID3 tag : No
Command line compressor : C:\Program Files\Exact Audio Copy\Flac\flac.exe
Additional command line options : -T "DATE=%y" -T "GENRE=%m" -8 -V %s


TOC of the extracted CD

Track | Start | Length | Start sector | End sector
––––––––––––––––––––––––––––-
1 | 0:00.00 | 1:36.00 | 0 | 7199
2 | 1:36.00 | 1:42.49 | 7200 | 14898
3 | 3:18.49 | 2:22.28 | 14899 | 25576
4 | 5:41.02 | 1:38.07 | 25577 | 32933
5 | 7:19.09 | 2:15.55 | 32934 | 43113
6 | 9:34.64 | 1:54.24 | 43114 | 51687
7 | 11:29.13 | 3:49.16 | 51688 | 68878
8 | 15:18.29 | 2:22.30 | 68879 | 79558
9 | 17:40.59 | 1:35.73 | 79559 | 86756
10 | 19:16.57 | 1:39.40 | 86757 | 94221
11 | 20:56.22 | 1:15.20 | 94222 | 99866
12 | 22:11.42 | 3:19.54 | 99867 | 114845
13 | 25:31.21 | 1:59.23 | 114846 | 123793
14 | 27:30.44 | 5:12.58 | 123794 | 147251
15 | 32:43.27 | 1:58.67 | 147252 | 156168
16 | 34:42.19 | 5:32.60 | 156169 | 181128
17 | 40:15.04 | 1:41.49 | 181129 | 188752
18 | 41:56.53 | 2:20.04 | 188753 | 199256
19 | 44:16.57 | 1:18.55 | 199257 | 205161
20 | 45:35.37 | 1:11.05 | 205162 | 210491
21 | 46:46.42 | 3:47.57 | 210492 | 227573
22 | 50:34.24 | 1:33.25 | 227574 | 234573
23 | 52:07.49 | 3:53.17 | 234574 | 252065
24 | 56:00.66 | 1:17.36 | 252066 | 257876


Range status and errors

Selected range

Filename C:\Music from Christian & Jewish Spain 1450-1550 - CD1.wav

Peak level 98.7 %
Extraction speed 0.0 X
Range quality 100.0 %
Test CRC 92DE983E
Copy CRC 92DE983E
Copy OK

No errors occurred


AccurateRip summary

Track 1 accurately ripped (confidence 3) [1173CCEC]
Track 2 accurately ripped (confidence 3) [1BA19356]
Track 3 accurately ripped (confidence 3) [F0D84FBF]
Track 4 accurately ripped (confidence 3) [1FB0A0F5]
Track 5 accurately ripped (confidence 3) [95F9C2B0]
Track 6 accurately ripped (confidence 3) [627925D6]
Track 7 accurately ripped (confidence 3) [41C04ED6]
Track 8 accurately ripped (confidence 3) [CA89B642]
Track 9 accurately ripped (confidence 3) [14CC2123]
Track 10 accurately ripped (confidence 3) [811AD053]
Track 11 accurately ripped (confidence 3) [B476B60E]
Track 12 accurately ripped (confidence 3) [D1339E40]
Track 13 accurately ripped (confidence 3) [F1C0FB3E]
Track 14 accurately ripped (confidence 3) [9EEA359F]
Track 15 accurately ripped (confidence 3) [6A3AADF2]
Track 16 accurately ripped (confidence 3) [8F8158C4]
Track 17 accurately ripped (confidence 3) [AF3C9200]
Track 18 accurately ripped (confidence 3) [3C01C4EE]
Track 19 accurately ripped (confidence 3) [7B4058BF]
Track 20 accurately ripped (confidence 3) [F8EAD907]
Track 21 accurately ripped (confidence 3) [5B83EBF7]
Track 22 accurately ripped (confidence 3) [F5E81C59]
Track 23 accurately ripped (confidence 3) [9D76EF9D]
Track 24 accurately ripped (confidence 3) [7AB28F5A]

All tracks accurately ripped

End of status report

==== Log checksum 2E51EA862297A49F3F81719C83AF686DAD9863CC5581D988700B66B7873240C7 ====

Exact Audio Copy V1.0 beta 1 from 15. November 2010

EAC extraction logfile from 2. May 2012, 23:31

Hesperion XX - Jordi Savall / Music From Christian & Jewish Spain 1450-1550 - CD2

Used drive : PIONEER DVD-RW DVR-218L Adapter: 1 ID: 0

Read mode : Secure
Utilize accurate stream : Yes
Defeat audio cache : Yes
Make use of C2 pointers : No

Read offset correction : 6
Overread into Lead-In and Lead-Out : No
Fill up missing offset samples with silence : Yes
Delete leading and trailing silent blocks : No
Null samples used in CRC calculations : Yes
Used interface : Native Win32 interface for Win NT & 2000

Used output format : User Defined Encoder
Selected bitrate : 192 kBit/s
Quality : High
Add ID3 tag : No
Command line compressor : C:\Program Files\Exact Audio Copy\Flac\flac.exe
Additional command line options : -T "DATE=%y" -T "GENRE=%m" -8 -V %s


TOC of the extracted CD

Track | Start | Length | Start sector | End sector
––––––––––––––––––––––––––––-
1 | 0:00.00 | 5:10.15 | 0 | 23264
2 | 5:10.15 | 5:13.15 | 23265 | 46754
3 | 10:23.30 | 2:52.35 | 46755 | 59689
4 | 13:15.65 | 1:32.15 | 59690 | 66604
5 | 14:48.05 | 6:06.67 | 66605 | 94121
6 | 20:54.72 | 3:08.18 | 94122 | 108239
7 | 24:03.15 | 7:32.40 | 108240 | 142179
8 | 31:35.55 | 2:59.32 | 142180 | 155636
9 | 34:35.12 | 5:37.65 | 155637 | 180976
10 | 40:13.02 | 1:52.14 | 180977 | 189390
11 | 42:05.16 | 5:56.04 | 189391 | 216094
12 | 48:01.20 | 3:02.28 | 216095 | 229772


Range status and errors

Selected range

Filename C:\Music From Christian & Jewish Spain 1450-1550 - CD2.wav

Peak level 98.7 %
Extraction speed 0.0 X
Range quality 99.9 %
Test CRC E0CCB59C
Copy CRC E0CCB59C
Copy OK

No errors occurred


AccurateRip summary

Track 1 accurately ripped (confidence 3) [1E6518A4]
Track 2 accurately ripped (confidence 3) [8697CF3A]
Track 3 accurately ripped (confidence 3) [D8D1EDEB]
Track 4 accurately ripped (confidence 3) [A14E34BD]
Track 5 accurately ripped (confidence 3) [3E5CF0B6]
Track 6 accurately ripped (confidence 3) [6587A720]
Track 7 accurately ripped (confidence 3) [53AF697A]
Track 8 accurately ripped (confidence 3) [F8C89564]
Track 9 accurately ripped (confidence 3) [8D5CE2CC]
Track 10 accurately ripped (confidence 3) [4479976C]
Track 11 accurately ripped (confidence 3) [2B8B96B1]
Track 12 accurately ripped (confidence 3) [530ADC77]

All tracks accurately ripped

End of status report

==== Log checksum ECE3F1A206CCBCB3512F832DF2642556A9822F7F09504EC421F3EBF402037C01 ====