Subcategories

My Indole Ring - My Indole Ring [Recorded 1966-1969] (2002)

Posted By: gribovar
My Indole Ring - My Indole Ring [Recorded 1966-1969] (2002)

My Indole Ring - My Indole Ring [Recorded 1966-1969] (2002)
EAC Rip | FLAC (image+.cue+log) - 281 MB | MP3 CBR 320 kbps (LAME 3.93) - 163 MB | Covers (9 MB) included
Genre: Psychedelic Rock | RAR 3% Rec. | Label: Shadoks Music (Shadoks Music 024)

This eponymous album is the first (and probably only) to document the music of the late-'60s psychedelic rock group My Indole Ring. A local legend in Vancouver, Canada, back in 1967-1969, the quartet did not even release a single but, 25 years after the fact, this CD presents demos and live recordings that were all previously unavailable. Judging from this hour's worth of material, My Indole Ring definitely had something going. The set kicks off with "Orange Float Petals," an impressive acid rock song that became the group's signature tune. Full of instrumental quirks and imaginative vocal harmonies, this one is anthology material. "Love People Everywhere," "Blue Wax," and the instrumental "Silk Road" are satisfying but more generic numbers. The influences of West Coast (Jefferson Airplane) and Vancouver groups (Papa Bear's Medicine Show) are detectable. The group rounded up its sets with blues standards, and its take on "Another Man Done Gone" and "Early in the Morning" follow the developing crossovers between blues-rock and pop at the time. The CD concludes with 20 minutes of live material. The sound quality takes a severe drop: The demos have been well restored but these recordings from the Retinal Circus in Vancouver remain murky. Besides nostalgic Vancouver residents, this album will be of interest only for psychedelic rock collectors. A limited-edition LP with fewer tracks has also been released.
Tracklist:
01. Orange Float Petals
02. Love People Everywhere
03. Another Man Done Gone/Troubles
04. Blue Wax
05. Silk Road
06. The Morning Breaks
07. Big City
08. Two Trains A Running
09. Early In The Morning
10. Maryjane
11. Wake Me Shake Me (Live)
12. Come See Me In The Morning/Orange Float Petals (Live)
13. Instrumental Medley: Nursery Rhymes, Crescent Beach, Four-Ring Circus

Total time: 01:04:49

Exact Audio Copy V0.99 prebeta 4 from 23. January 2008

Отчёт EAC об извлечении, выполненном 6. декабря 2011, 18:31

My Indole Ring / My Indole Ring

Дисковод: ASUS DRW-24B1ST Adapter: 4 ID: 0

Режим чтения : Достоверность
Использование точного потока : Да
Отключение кэша аудио : Да
Использование указателей C2 : Нет

Коррекция смещения при чтении : 6
Способность читать области Lead-in и Lead-out : Нет
Заполнение пропущенных сэмплов тишиной : Да
Удаление блоков с тишиной в начале и конце : Нет
При вычислениях CRC использовались нулевые сэмплы : Да
Интерфейс : Встроенный Win32-интерфейс для Win NT/2000

Выходной формат : Пользовательский кодировщик
Выбранный битрейт : 768 kBit/s
Качество : Высокий
Добавление ID3-тэга : Нет
Утилита сжатия : C:\Program Files\Exact Audio Copy\FLAC\FLAC.EXE
Дополнительные параметры : -6 -V -T "ARTIST=%a" -T "TITLE=%t" -T "ALBUM=%g" -T "DATE=%y" -T "TRACKNUMBER=%n" -T "GENRE=%m" -T "COMMENT=%e" %s -o %d


TOC извлечённого CD

Трек | Старт | Длительность | Начальный сектор | Конечный сектор
––––––––––––––––––––––––––––––––––-
1 | 0:00.00 | 5:27.43 | 0 | 24567
2 | 5:27.43 | 5:23.04 | 24568 | 48796
3 | 10:50.47 | 5:55.57 | 48797 | 75478
4 | 16:46.29 | 2:28.34 | 75479 | 86612
5 | 19:14.63 | 4:49.01 | 86613 | 108288
6 | 24:03.64 | 3:46.36 | 108289 | 125274
7 | 27:50.25 | 4:36.07 | 125275 | 145981
8 | 32:26.32 | 5:18.03 | 145982 | 169834
9 | 37:44.35 | 4:25.03 | 169835 | 189712
10 | 42:09.38 | 3:52.24 | 189713 | 207136
11 | 46:01.62 | 4:16.28 | 207137 | 226364
12 | 50:18.15 | 9:03.08 | 226365 | 267097
13 | 59:21.23 | 5:28.07 | 267098 | 291704


Характеристики диапазона извлечения и сообщения об ошибках

Выбранный диапазон

Имя файла C:\Torrent\purple\My Indole Ring - My Indole Ring.wav

Пиковый уровень 96.6 %
Качество диапазона 100.0 %
CRC теста 77751230
CRC копии 77751230
Копирование… OK

Ошибок не произошло


AccurateRip: сводка

Трек 1 точное извлечение (доверие 1) [C05AF39C]
Трек 2 точное извлечение (доверие 1) [4CDA7018]
Трек 3 точное извлечение (доверие 1) [824E88D0]
Трек 4 точное извлечение (доверие 1) [0F0DBFAA]
Трек 5 точное извлечение (доверие 1) [65E2CB1E]
Трек 6 точное извлечение (доверие 1) [20809285]
Трек 7 точное извлечение (доверие 1) [FAB75321]
Трек 8 точное извлечение (доверие 1) [24299785]
Трек 9 точное извлечение (доверие 1) [6307D8F2]
Трек 10 точное извлечение (доверие 1) [8E456CD1]
Трек 11 точное извлечение (доверие 1) [60391DFD]
Трек 12 точное извлечение (доверие 1) [045BDF16]
Трек 13 точное извлечение (доверие 1) [91AEDDF8]

Все треки извлечены точно

Конец отчёта

[CUETools log; Date: 17.01.2018 22:54:42; Version: 2.1.4]
[CTDB TOCID: XyPK8q26Lx1.B9JO7MNQuAVoE74-] found.
Track | CTDB Status
1 | (5/5) Accurately ripped
2 | (5/5) Accurately ripped
3 | (5/5) Accurately ripped
4 | (5/5) Accurately ripped
5 | (5/5) Accurately ripped
6 | (5/5) Accurately ripped
7 | (5/5) Accurately ripped
8 | (5/5) Accurately ripped
9 | (5/5) Accurately ripped
10 | (5/5) Accurately ripped
11 | (5/5) Accurately ripped
12 | (5/5) Accurately ripped
13 | (5/5) Accurately ripped
[AccurateRip ID: 001e0308-012b1924-aa0f310d] found.
Track [ CRC | V2 ] Status
01 [c05af39c|6e7b1f06] (2+3/5) Accurately ripped
02 [4cda7018|b33bc4f4] (2+3/5) Accurately ripped
03 [824e88d0|e6f29784] (2+3/5) Accurately ripped
04 [0f0dbfaa|b742f495] (2+3/5) Accurately ripped
05 [65e2cb1e|6fcfc6c6] (2+3/5) Accurately ripped
06 [20809285|7da14657] (2+3/5) Accurately ripped
07 [fab75321|58f6f19d] (2+3/5) Accurately ripped
08 [24299785|aba0141d] (2+3/5) Accurately ripped
09 [6307d8f2|0288ad2f] (2+3/5) Accurately ripped
10 [8e456cd1|16a7ed71] (2+3/5) Accurately ripped
11 [60391dfd|fedcc70a] (2+3/5) Accurately ripped
12 [045bdf16|151afa72] (2+3/5) Accurately ripped
13 [91aeddf8|5a3c4f76] (2+3/5) Accurately ripped

Track Peak [ CRC32 ] [W/O NULL] [ LOG ]
– 96,6 [77751230] [BADF505A] CRC32
01 96,6 [29BCDFD1] [5748A33C]
02 96,6 [8AE2DDF7] [7B29117B]
03 96,6 [253171E3] [C46851B5]
04 96,6 [9AD4B9A8] [2BBAB92C]
05 96,6 [9050042C] [6DB35E9D]
06 96,5 [AFF7A0A7] [38CD1D6A]
07 69,9 [4C5EEDCB] [66884FEA]
08 96,6 [29009660] [5E7D5D7C]
09 96,6 [083B38D2] [472720F8]
10 96,6 [16DB43C3] [A590AE98]
11 89,2 [CA43F154] [C535E740]
12 91,6 [D992B445] [9D7C3873]
13 96,6 [BE4F3E4B] [7F3C1FB1]

Thanks to pppurple