Subcategories

Neville Brothers - Fiyo On The Bayou (1981) {1994 MFSL} **[RE-UP]**

Posted By: TestTickles
Neville Brothers - Fiyo On The Bayou (1981) {1994 MFSL} **[RE-UP]**

Neville Brothers - Fiyo On The Bayou (1981) {1994 MFSL}
EAC Rip | FLAC with CUE and log | scans | 242 mb
MP3 CBR 320kbps | RAR | 117 mb
Genre: bayou funk, soul. R&B

Fiyo On The Bayou is a 1981 album by The Neville Brothers. This is the pressing remastered by Mobile Fidelity Sound Lab released in 1994.
This was The Neville Brothers' second album as a group. The core has always been brothers Art, Aaron, Charles & Cyril, although this album features contributions from Ivan Neville and even some vocals from Charmaine Neville. Others on the album include:
Leo Nocentelli
Wardell Quezergue
David "Fathead" Newman
Mac Rebennack (Dr. John)

On background vocals you will hear, among others, Cissy Houston and her daughter, Whitney. Whitney Houston was making the rounds by doing background vocals for a wide range of people, before finding a home a few years later on Clive Davis' Arista Records.

Neville Brothers - Fiyo On The Bayou (1981) {1994 MFSL} **[RE-UP]**

1. Hey Pocky Way
2. Sweet Honey Dripper
3. Fire On The Bayou
4. The Ten Commandments Of Love
5. Sitting In Limbo
6. Brother John/Iko Iko
7. Mona Lisa
8. Run Joe
–-
Produced by Joel Dorn for The Masked Announcer
Homàge a Henri Rousseau
Production Associate: Hal Willner

Recorded and remixed by Gene Paul

EAC extraction logfile from 1. August 2006, 11:16 for CD
Neville Brothers / Fiyo On The Bayou {1994 MFSL}

Used drive : LITE-ON DVDRW SOHW-1633S Adapter: 0 ID: 0
Read mode : Secure with NO C2, accurate stream, disable cache
Read offset correction : 12
Overread into Lead-In and Lead-Out : No

Used output format : Internal WAV Routines
44.100 Hz; 16 Bit; Stereo

Other options :
Fill up missing offset samples with silence : Yes
Delete leading and trailing silent blocks : No
Installed external ASPI interface


Track 1
Filename D:\FLAC\Neville Brothers - Fiyo On The Bayou (1981) [FLAC] {1994 MFSL}\01 - Hey Pocky Way.wav

Pre-gap length 0:00:02.49

Peak level 79.0 %
Track quality 100.0 %
Test CRC 570CA9F3
Copy CRC 570CA9F3
Copy OK

Track 2
Filename D:\FLAC\Neville Brothers - Fiyo On The Bayou (1981) [FLAC] {1994 MFSL}\02 - Sweet Honey Dripper.wav

Pre-gap length 0:00:01.33

Peak level 95.5 %
Track quality 100.0 %
Test CRC 10E8DE79
Copy CRC 10E8DE79
Copy OK

Track 3
Filename D:\FLAC\Neville Brothers - Fiyo On The Bayou (1981) [FLAC] {1994 MFSL}\03 - Fire On The Bayou.wav

Pre-gap length 0:00:01.00

Peak level 96.1 %
Track quality 100.0 %
Test CRC DE87F02B
Copy CRC DE87F02B
Copy OK

Track 4
Filename D:\FLAC\Neville Brothers - Fiyo On The Bayou (1981) [FLAC] {1994 MFSL}\04 - The Ten Commandments Of Love.wav

Pre-gap length 0:00:02.49

Peak level 66.2 %
Track quality 100.0 %
Test CRC D24E89AE
Copy CRC D24E89AE
Copy OK

Track 5
Filename D:\FLAC\Neville Brothers - Fiyo On The Bayou (1981) [FLAC] {1994 MFSL}\05 - Sitting In Limbo.wav

Pre-gap length 0:00:01.33

Peak level 82.3 %
Track quality 99.9 %
Test CRC 7C12B771
Copy CRC 7C12B771
Copy OK

Track 6
Filename D:\FLAC\Neville Brothers - Fiyo On The Bayou (1981) [FLAC] {1994 MFSL}\06 - Brother John, Iko Iko.wav

Pre-gap length 0:00:01.33

Peak level 89.0 %
Track quality 99.9 %
Test CRC DAD7435C
Copy CRC DAD7435C
Copy OK

Track 7
Filename D:\FLAC\Neville Brothers - Fiyo On The Bayou (1981) [FLAC] {1994 MFSL}\07 - Mona Lisa.wav

Pre-gap length 0:00:03.00

Peak level 80.4 %
Track quality 100.0 %
Test CRC FD3255B7
Copy CRC FD3255B7
Copy OK

Track 8
Filename D:\FLAC\Neville Brothers - Fiyo On The Bayou (1981) [FLAC] {1994 MFSL}\08 - Run Joe.wav

Pre-gap length 0:00:02.00

Peak level 97.7 %
Track quality 100.0 %
Test CRC CE5804B2
Copy CRC CE5804B2
Copy OK

No errors occured


End of status report


Neville Brothers - Fiyo On The Bayou (1981) {1994 MFSL} **[RE-UP]**


Check out other titles in my Avaxhome blog