Subcategories

Naro - Press Play (1994) [Reissue 2000]

Posted By: Andi_Deris
Naro - Press Play (1994) [Reissue 2000]

Naro - Press Play (1994) [Reissue 2000]
EAC Rip | FLAC: Image+Cue+Log | MP3 CBR 320 kbps | Scans
523 Mb | 191 Mb | Time: 01:09:55
Z Records | ZR 1997031
Melodic Hard Rock, AOR

Z Records has re-released Phil Naro's debut 'Press play' from 1994. The album, co-produced by Harry Hess, already featured 16 songs and now with the addition of 4 new songs, the CD contains 20 songs with a total playing time of almost 70 minutes. The best songs are the uptempo melodic rockers "Miracle", "I Am The Reason" (both a la Autograh), the semi melodic rockers "Sweat better in the dark", "Jessie" and "Ephemeral" and the midtempo melodic rocker "Press Play" (like Bryan Adams, Def Leppard). The crystal clear production is making this CD worth listening.

Naro - Press Play (1994) [Reissue 2000]




Naro - Press Play (1994) [Reissue 2000]


Track Listing

01. Looking Out For #1 (3:04)
02. Miracle (3:19)
03. Behold The Pale White Horse (0:56)
04. No More Cruel World (4:24)
05. I Am The Reason (3:25)
06. The Turtle And The Pirate (1:27)
07. Mama Lay Your Head Down (4:37)
08. Blind Man (4:27)
09. The Passing (1:15)
10. Outta Your Way (4:19)
11. Sweat Better In The Dark (3:53)
12. I Know What It's Like (4:02)
13. Press Play (4:55)
14. Iron Ball Direction (1:30)
15. Nothing Gets Better Than This (4:00)
16. Whisky River (3:34)

Bonus tracks:
17. This The Place That They Call Home (5:41)
18. Jessie (3:41)
19. Hashimoti (3:37)
20. Ephemeral (3:49)

Produced by Phil Naro
Co-Produced by Harry Hess (Harem Scarem)

Personnel

• Phil Naro - Lead & Backing Vocals
• Mark Arbour - Bass, Backing Vocals
• Roger Banks - Drums, Percussion
• Tibor Torontail - Guitar, Sitar, Mandolin

*****
Harry Hess - Keyboards, Backing Vocals

Naro - Press Play (1994) [Reissue 2000]


Exact Audio Copy V0.99 prebeta 4 from 23. January 2008

Отчёт EAC об извлечении, выполненном 5. ноября 2010, 19:52

Naro / Press Play

Дисковод: Optiarc DVD RW AD-7173S Adapter: 2 ID: 0

Режим чтения : Достоверность
Использование точного потока : Да
Отключение кэша аудио : Да
Использование указателей C2 : Нет

Коррекция смещения при чтении : 48
Способность читать области Lead-in и Lead-out : Нет
Заполнение пропущенных сэмплов тишиной : Да
Удаление блоков с тишиной в начале и конце : Нет
При вычислениях CRC использовались нулевые сэмплы : Да
Интерфейс : Встроенный Win32-интерфейс для Win NT/2000

Выходной формат : Monkey's Audio (без потерь)
Выбранный битрейт : Normal Lossless Compression
Качество : Высокий
Добавление ID3-тэга : Да
Утилита сжатия : C:\Program Files\Monkey's Audio\MAC.exe

TOC извлечённого CD

Трек | Старт | Длительность | Начальный сектор | Конечный сектор
––––––––––––––––––––––––––––––––––-
1 | 0:00.32 | 3:04.55 | 32 | 13886
2 | 3:05.12 | 3:19.60 | 13887 | 28871
3 | 6:24.72 | 0:56.50 | 28872 | 33121
4 | 7:21.47 | 4:24.10 | 33122 | 52931
5 | 11:45.57 | 3:25.38 | 52932 | 68344
6 | 15:11.20 | 1:27.57 | 68345 | 74926
7 | 16:39.02 | 4:37.63 | 74927 | 95764
8 | 21:16.65 | 4:27.05 | 95765 | 115794
9 | 25:43.70 | 1:15.50 | 115795 | 121469
10 | 26:59.45 | 4:19.22 | 121470 | 140916
11 | 31:18.67 | 3:53.40 | 140917 | 158431
12 | 35:12.32 | 4:02.65 | 158432 | 176646
13 | 39:15.22 | 4:55.48 | 176647 | 198819
14 | 44:10.70 | 1:30.10 | 198820 | 205579
15 | 45:41.05 | 4:00.17 | 205580 | 223596
16 | 49:41.22 | 3:34.08 | 223597 | 239654
17 | 53:15.30 | 5:41.40 | 239655 | 265269
18 | 58:56.70 | 3:41.52 | 265270 | 281896
19 | 62:38.47 | 3:37.03 | 281897 | 298174
20 | 66:15.50 | 3:49.67 | 298175 | 315416

Характеристики диапазона извлечения и сообщения об ошибках

Выбранный диапазон

Имя файла D:\Music\Naro - Press Play 2000\Naro - Press Play.wav

Пиковый уровень 100.0 %
Качество диапазона 99.9 %
CRC копии AAADD671
Копирование… OK

Ошибок не произошло

Конец отчёта


Many thanks to the original uploader: nightranger53



Password: pass