Subcategories

Nat King Cole - 10th Anniversary (1955) Remastered 2007 [Re-Up]

Posted By: Designol
Nat King Cole - 10th Anniversary (1955) Remastered 2007 [Re-Up]

Nat King Cole - 10th Anniversary (1955) Remastered 2007
EAC | FLAC | Tracks (Cue&Log) ~ 223 Mb | Mp3 (CBR320) ~ 103 Mb | Scans included | 00:43:50
Vocal Jazz, Swing, Vocal Pop | Collectors' Choice Music | # CCM-870, 509995-01973-2-3

Nat King Cole's album 10th Anniversary proved to be an interesting watershed in his career. First finding fame as a popular jazz pianist leading a trio, Cole gradually added more and more vocals until he had pretty much left jazz behind for a full-time career as a singer. This compilation, issued on LP in 1955, drew from unreleased recordings from both his jazz and easy listening sessions. One can hear Cole's growth as a singer in his jazz tracks, scatting a bit in his "Lulubelle," though it is his impressive piano that dominates another original, "I'm an Errand Boy for Rhythm." "Peaches" is a rather pedestrian affair with the heavy-handed bongos of Jack Costanzo proving to be more of a distraction than a benefit. The easy listening vocals are a mixed bag. "Too Soon" is overwhelmed by Nelson Riddle's strings, though Dave Cavanaugh's campy Western satire "Rough Ridin'" fares better. Liner note writer James Ritz sings praises for Les Baxter's scoring of the ballad "The Story of My Wife," though the bland arrangement and melody bring to mind the prevailing attitude among other arrangers of the '50s ("The less Baxter, the better!"). By far the best tracks of Cole's popular vocals are the lush "Sleeping Beauty" and the dramatic "Lovelight," both of which are Nelson Riddle contributions. Regardless of the material or arranger, Cole's vocals have a timeless quality that makes one want to return to them again and again.

Review by Ken Dryden, Allmusic.com

Nat King Cole - 10th Anniversary (1955) Remastered 2007 [Re-Up]



Tracklist:

01. Dream A Little Dream Of Me (02:54)
02. There I've Said It Again (03:11)
03. Lulubelle (02:15)
04. I'm An Errand Boy For Rhythm (02:20)
05. The Love Nest (02:35)
06. But All I've Got Is Me (02:51)
07. Peaches (02:40)
08. I Can't Be Bothered (02:45)
09. Too Soon (02:41)
10. Rough Ridin' (02:51)
11. The Story Of My Wife (02:37)
12. Sleeping Beauty (02:36)
13. Lovelight (03:15)
14. Where Were You (02:18)
15. Mother Nature And Father Time (03:11)
16. Wish I Were Somebody Else (02:44)


Exact Audio Copy V1.1 from 23. June 2015

EAC extraction logfile from 22. October 2016, 21:25

Nat King Cole / 10th Anniversary

Used drive : PBDS CD-ROM DH-48N1S Adapter: 1 ID: 0

Read mode : Secure
Utilize accurate stream : Yes
Defeat audio cache : Yes
Make use of C2 pointers : No

Read offset correction : 6
Overread into Lead-In and Lead-Out : No
Fill up missing offset samples with silence : Yes
Delete leading and trailing silent blocks : No
Null samples used in CRC calculations : Yes
Used interface : Native Win32 interface for Win NT & 2000
Gap handling : Appended to previous track

Used output format : User Defined Encoder
Selected bitrate : 768 kBit/s
Quality : High
Add ID3 tag : No
Command line compressor : C:\Program Files (x86)\Exact Audio Copy\FLAC\FLAC.EXE
Additional command line options : -8 -V -T "ARTIST=%artist%" -T "TITLE=%title%" -T "ALBUM=%albumtitle%" -T "DATE=%year%" -T "TRACKNUMBER=%tracknr%" -T "GENRE=%genre%" -T "PERFORMER=%albuminterpret%" -T "COMPOSER=%composer%" %haslyrics%–tag-from-file=LYRICS="%lyricsfile%"%haslyrics% -T "ALBUMARTIST=%albumartist%" -T "DISCNUMBER=%cdnumber%" -T "TOTALDISCS=%totalcds%" -T "TOTALTRACKS=%numtracks%" -T "COMMENT=%comment%" %source% -o %dest%


TOC of the extracted CD

Track | Start | Length | Start sector | End sector
––––––––––––––––––––––––––––-
1 | 0:00.00 | 2:54.25 | 0 | 13074
2 | 2:54.25 | 3:11.62 | 13075 | 27461
3 | 6:06.12 | 2:15.51 | 27462 | 37637
4 | 8:21.63 | 2:20.17 | 37638 | 48154
5 | 10:42.05 | 2:35.09 | 48155 | 59788
6 | 13:17.14 | 2:51.48 | 59789 | 72661
7 | 16:08.62 | 2:40.23 | 72662 | 84684
8 | 18:49.10 | 2:45.27 | 84685 | 97086
9 | 21:34.37 | 2:41.18 | 97087 | 109179
10 | 24:15.55 | 2:51.30 | 109180 | 122034
11 | 27:07.10 | 2:37.50 | 122035 | 133859
12 | 29:44.60 | 2:36.09 | 133860 | 145568
13 | 32:20.69 | 3:15.33 | 145569 | 160226
14 | 35:36.27 | 2:18.23 | 160227 | 170599
15 | 37:54.50 | 3:11.26 | 170600 | 184950
16 | 41:06.01 | 2:44.66 | 184951 | 197316


Track 1

Filename C:\EACRips\01 - Dream A Little Dream Of Me.wav

Pre-gap length 0:00:02.00

Peak level 100.0 %
Extraction speed 1.4 X
Track quality 100.0 %
Test CRC DD515D09
Copy CRC DD515D09
Accurately ripped (confidence 2) [328BFD5F] (AR v2)
Copy OK

Track 2

Filename C:\EACRips\02 - There I've Said It Again.wav

Pre-gap length 0:00:01.98

Peak level 100.0 %
Extraction speed 3.9 X
Track quality 100.0 %
Test CRC 07815059
Copy CRC 07815059
Accurately ripped (confidence 2) [7E034E84] (AR v2)
Copy OK

Track 3

Filename C:\EACRips\03 - Lulubelle.wav

Pre-gap length 0:00:02.02

Peak level 100.0 %
Extraction speed 3.7 X
Track quality 100.0 %
Test CRC E713E0CD
Copy CRC E713E0CD
Accurately ripped (confidence 2) [0DC2BA1E] (AR v2)
Copy OK

Track 4

Filename C:\EACRips\04 - I'm An Errand Boy For Rhythm.wav

Pre-gap length 0:00:01.48

Peak level 98.9 %
Extraction speed 3.8 X
Track quality 100.0 %
Test CRC A7FCD1B3
Copy CRC A7FCD1B3
Accurately ripped (confidence 2) [A5798240] (AR v2)
Copy OK

Track 5

Filename C:\EACRips\05 - The Love Nest.wav

Pre-gap length 0:00:01.86

Peak level 100.0 %
Extraction speed 4.3 X
Track quality 100.0 %
Test CRC 19EB9613
Copy CRC 19EB9613
Accurately ripped (confidence 2) [D4DF3630] (AR v2)
Copy OK

Track 6

Filename C:\EACRips\06 - But All I've Got Is Me.wav

Pre-gap length 0:00:01.72

Peak level 100.0 %
Extraction speed 3.6 X
Track quality 99.9 %
Test CRC 4D3F51CC
Copy CRC 4D3F51CC
Accurately ripped (confidence 2) [079A1F98] (AR v2)
Copy OK

Track 7

Filename C:\EACRips\07 - Peaches.wav

Pre-gap length 0:00:01.72

Peak level 99.2 %
Extraction speed 3.7 X
Track quality 99.9 %
Test CRC 24843EBE
Copy CRC 24843EBE
Accurately ripped (confidence 2) [67F0E751] (AR v2)
Copy OK

Track 8

Filename C:\EACRips\08 - I Can't Be Bothered.wav

Pre-gap length 0:00:02.09

Peak level 100.0 %
Extraction speed 4.2 X
Track quality 99.9 %
Test CRC 461D9C08
Copy CRC 461D9C08
Accurately ripped (confidence 2) [D04994B4] (AR v2)
Copy OK

Track 9

Filename C:\EACRips\09 - Too Soon.wav

Pre-gap length 0:00:02.32

Peak level 99.4 %
Extraction speed 5.2 X
Track quality 100.0 %
Test CRC 26B6C4FA
Copy CRC 26B6C4FA
Accurately ripped (confidence 2) [6C10F1D4] (AR v2)
Copy OK

Track 10

Filename C:\EACRips\10 - Rough Ridin'.wav

Pre-gap length 0:00:02.73

Peak level 99.4 %
Extraction speed 5.5 X
Track quality 100.0 %
Test CRC 88782B76
Copy CRC 88782B76
Accurately ripped (confidence 2) [3C63CB08] (AR v2)
Copy OK

Track 11

Filename C:\EACRips\11 - The Story Of My Wife.wav

Pre-gap length 0:00:01.96

Peak level 100.0 %
Extraction speed 4.4 X
Track quality 99.9 %
Test CRC C10535CB
Copy CRC C10535CB
Accurately ripped (confidence 2) [F2636467] (AR v2)
Copy OK

Track 12

Filename C:\EACRips\12 - Sleeping Beauty.wav

Pre-gap length 0:00:02.86

Peak level 100.0 %
Extraction speed 5.9 X
Track quality 100.0 %
Test CRC 39459EBB
Copy CRC 39459EBB
Accurately ripped (confidence 2) [F100D870] (AR v2)
Copy OK

Track 13

Filename C:\EACRips\13 - Lovelight.wav

Pre-gap length 0:00:02.74

Peak level 99.0 %
Extraction speed 6.1 X
Track quality 100.0 %
Test CRC 9235DDF8
Copy CRC 9235DDF8
Accurately ripped (confidence 2) [83984A86] (AR v2)
Copy OK

Track 14

Filename C:\EACRips\14 - Where Were You.wav

Pre-gap length 0:00:02.10

Peak level 100.0 %
Extraction speed 6.0 X
Track quality 100.0 %
Test CRC DE839850
Copy CRC DE839850
Accurately ripped (confidence 2) [3C868891] (AR v2)
Copy OK

Track 15

Filename C:\EACRips\15 - Mother Nature And Father Time.wav

Pre-gap length 0:00:02.13

Peak level 100.0 %
Extraction speed 6.6 X
Track quality 100.0 %
Test CRC ACC30D37
Copy CRC ACC30D37
Accurately ripped (confidence 2) [7FE58C25] (AR v2)
Copy OK

Track 16

Filename C:\EACRips\16 - Wish I Were Somebody Else.wav

Pre-gap length 0:00:02.42

Peak level 98.9 %
Extraction speed 6.3 X
Track quality 100.0 %
Test CRC 9648F4EE
Copy CRC 9648F4EE
Accurately ripped (confidence 2) [52339E2F] (AR v2)
Copy OK


All tracks accurately ripped

No errors occurred

End of status report

–– CUETools DB Plugin V2.1.6

[CTDB TOCID: O4IVgxbRk28eKlyBxn4XyMA9X78-] found
Submit result: O4IVgxbRk28eKlyBxn4XyMA9X78- has been confirmed
Track | CTDB Status
1 | (1/1) Accurately ripped
2 | (1/1) Accurately ripped
3 | (1/1) Accurately ripped
4 | (1/1) Accurately ripped
5 | (1/1) Accurately ripped
6 | (1/1) Accurately ripped
7 | (1/1) Accurately ripped
8 | (1/1) Accurately ripped
9 | (1/1) Accurately ripped
10 | (1/1) Accurately ripped
11 | (1/1) Accurately ripped
12 | (1/1) Accurately ripped
13 | (1/1) Accurately ripped
14 | (1/1) Accurately ripped
15 | (1/1) Accurately ripped
16 | (1/1) Accurately ripped


==== Log checksum A86CA518AC02B097114956BF6773DC7A0C781E4783C275EDF3033792ADA5EF81 ====

foobar2000 1.2 / Dynamic Range Meter 1.1.1
log date: 2016-11-01 15:43:32

––––––––––––––––––––––––––––––––––––––––
Analyzed: Nat King Cole / 10th Anniversary
––––––––––––––––––––––––––––––––––––––––

DR Peak RMS Duration Track
––––––––––––––––––––––––––––––––––––––––
DR11 0.00 dB -12.71 dB 2:54 01-Dream A Little Dream Of Me
DR10 0.00 dB -12.41 dB 3:12 02-There I've Said It Again
DR9 0.00 dB -10.94 dB 2:16 03-Lulubelle
DR9 -0.09 dB -11.02 dB 2:20 04-I'm An Errand Boy For Rhythm
DR10 0.00 dB -12.54 dB 2:35 05-The Love Nest
DR10 0.00 dB -12.54 dB 2:52 06-But All I've Got Is Me
DR9 -0.07 dB -11.12 dB 2:40 07-Peaches
DR10 0.00 dB -12.65 dB 2:45 08-I Can't Be Bothered
DR10 -0.04 dB -12.52 dB 2:41 09-Too Soon
DR8 -0.05 dB -11.24 dB 2:51 10-Rough Ridin'
DR10 0.00 dB -13.06 dB 2:38 11-The Story Of My Wife
DR12 0.00 dB -14.73 dB 2:36 12-Sleeping Beauty
DR9 -0.08 dB -11.22 dB 3:15 13-Lovelight
DR8 0.00 dB -9.99 dB 2:18 14-Where Were You
DR10 0.00 dB -11.79 dB 3:11 15-Mother Nature And Father Time
DR10 -0.09 dB -11.96 dB 2:45 16-Wish I Were Somebody Else
––––––––––––––––––––––––––––––––––––––––

Number of tracks: 16
Official DR value: DR10

Samplerate: 44100 Hz
Channels: 2
Bits per sample: 16
Bitrate: 741 kbps
Codec: FLAC
================================================================================

Nat King Cole - 10th Anniversary (1955) Remastered 2007 [Re-Up]

All thanks to original releaser - robman62

More interesting music in My Blog

More Nat King Cole albums