Subcategories

Natalia Mateo - You (2013)

Posted By: SERTiL
Natalia Mateo - You (2013)

Natalia Mateo - You
XLD Rip | FLAC (tracks)+cue, log, front cover | 41:31 min | 211 MB
Label: Self Released | Tracks: 10 | Rls.date: 2013
Vocal Jazz, Jazz-Pop, Folk

“Jazz blossoms with deep roots” is how the Frankfurter Allgemeine newspaper summarised a concert appearance of Natalia Mateo. This 1983 born vocalist is a wanderer between the worlds - musically and in real life. Born in Poland, raised in Austria and now living in Germany, she has absorbed the most varied of impressions and cultures into her being: She draws from the Slavic ballad tradition, from American jazz and singer-songwriters ranging from Joni Mitchell to Amy MacDonald, and from contemporary pop and rock music. Her music is a highly personal declaration of love to tradition and modernity, to familiarity on the one hand and on the other to the wanderlust throbbing in her heart and head, to the beauty of emotional attachment, of deepest interpersonal relationships and the independence we live while in them. The “Jazzpodium” writes of the singer: “Mateo’s voice has something crystalline, something wistfully brittle. She sounds vulnerable, but not violated, self-confident but without the slightest hint of elitist ambition.” And the “Jazzthetik” sees in her music “the mysterious other that casts a spell on you.”

The debut album of the Polish singer Natalia Mateo features 10 songs from modern and unique arrangements of traditional Slavic folk songs to originals written and composed by Natalia. This music is a confession of love to the Slavic tradition.
Natalia Mateo is disturbing. Intimate. Beautiful. Angry. Rough. Soft & stinging. Mature. Fragile. Bewitching. Deracinated, like the jazz.

It defines itself through dissonance, screams, restlessness. Its popular side, on the other hand, denies the world’s complexities, embraces the kitsch at first but finally indulges in rough anti-kitsch.

TRACKLIST
01. Intro
02. Nie Ma Ciebie
03. You
04. Bandoska
05. Kaos Kiss
06. Bitter Bill
07. Na Wojtusia
08. Idzie Dziewce
09. Lato
10. Surreal

PERSONNEL
Natalia Mateo - vocals
Gregor Lener - trumpet
Dany Ahmad - guitar
Simon Grote - piano
Christopher Bolte - bass
Fabian Ristau - drums

X Lossless Decoder version 20130720 (144.0)

XLD extraction logfile from 2013-09-30 01:12:04 +0200

Natalia Mateo / You

Used drive : MATSHITA DVD-R UJ-898 (revision HC10)
Media type : Pressed CD

Ripper mode : XLD Secure Ripper
Disable audio cache : OK for the drive with a cache less than 1375KiB
Make use of C2 pointers : NO
Read offset correction : 102
Max retry count : 20
Gap status : Analyzed, Appended (except HTOA)

TOC of the extracted CD
Track | Start | Length | Start sector | End sector
––––––––––––––––––––––––––––-
1 | 00:00:00 | 00:54:00 | 0 | 4049
2 | 00:54:00 | 06:14:37 | 4050 | 32136
3 | 07:08:37 | 05:37:18 | 32137 | 57429
4 | 12:45:55 | 04:31:73 | 57430 | 77827
5 | 17:17:53 | 03:10:49 | 77828 | 92126
6 | 20:28:27 | 03:53:61 | 92127 | 109662
7 | 24:22:13 | 00:54:60 | 109663 | 113772
8 | 25:16:73 | 04:37:52 | 113773 | 134599
9 | 29:54:50 | 06:37:24 | 134600 | 164398
10 | 36:31:74 | 05:04:02 | 164399 | 187200

AccurateRip Summary
Disc not found in AccurateRip DB.

All Tracks
Album gain : -4.15 dB
Peak : 1.000000
Statistics
Read error : 0
Jitter error (maybe fixed) : 0
Retry sector count : 0
Damaged sector count : 0

Track 01
Filename : /Users/Fred/Desktop/UPWhat.Cd/Natalia Mateo - You (2013) [FLAC]/01 - Natalia Mateo - Intro.flac
Pre-gap length : 00:02:00

Track gain : 9.87 dB
Peak : 0.421356
CRC32 hash (test run) : 1417ADA2
CRC32 hash : 1417ADA2
CRC32 hash (skip zero) : 9896532F
AccurateRip v1 signature : F389463A
AccurateRip v2 signature : 40736379
->Track not present in AccurateRip database.
Statistics
Read error : 0
Jitter error (maybe fixed) : 0
Retry sector count : 0
Damaged sector count : 0

Track 02
Filename : /Users/Fred/Desktop/UPWhat.Cd/Natalia Mateo - You (2013) [FLAC]/02 - Natalia Mateo - Nie Ma Ciebie.flac

Track gain : -3.84 dB
Peak : 1.000000
CRC32 hash (test run) : A1478F3F
CRC32 hash : A1478F3F
CRC32 hash (skip zero) : A62CA97B
AccurateRip v1 signature : 026923E8
AccurateRip v2 signature : 6DFD6D76
->Track not present in AccurateRip database.
Statistics
Read error : 0
Jitter error (maybe fixed) : 0
Retry sector count : 0
Damaged sector count : 0

Track 03
Filename : /Users/Fred/Desktop/UPWhat.Cd/Natalia Mateo - You (2013) [FLAC]/03 - Natalia Mateo - You.flac

Track gain : -3.69 dB
Peak : 1.000000
CRC32 hash (test run) : E407CD71
CRC32 hash : E407CD71
CRC32 hash (skip zero) : 1A4E6F86
AccurateRip v1 signature : 66923F04
AccurateRip v2 signature : E58EEE21
->Track not present in AccurateRip database.
Statistics
Read error : 0
Jitter error (maybe fixed) : 0
Retry sector count : 0
Damaged sector count : 0

Track 04
Filename : /Users/Fred/Desktop/UPWhat.Cd/Natalia Mateo - You (2013) [FLAC]/04 - Natalia Mateo - Bandoska.flac

Track gain : -0.55 dB
Peak : 0.999969
CRC32 hash (test run) : A2958EA7
CRC32 hash : A2958EA7
CRC32 hash (skip zero) : DD0E3306
AccurateRip v1 signature : 0FF5F9A8
AccurateRip v2 signature : EF1A16AE
->Track not present in AccurateRip database.
Statistics
Read error : 0
Jitter error (maybe fixed) : 0
Retry sector count : 0
Damaged sector count : 0

Track 05
Filename : /Users/Fred/Desktop/UPWhat.Cd/Natalia Mateo - You (2013) [FLAC]/05 - Natalia Mateo - Kaos Kiss.flac

Track gain : -6.50 dB
Peak : 1.000000
CRC32 hash (test run) : CF8E7F40
CRC32 hash : CF8E7F40
CRC32 hash (skip zero) : 7D646936
AccurateRip v1 signature : E4A6591D
AccurateRip v2 signature : 204245AA
->Track not present in AccurateRip database.
Statistics
Read error : 0
Jitter error (maybe fixed) : 0
Retry sector count : 0
Damaged sector count : 0

Track 06
Filename : /Users/Fred/Desktop/UPWhat.Cd/Natalia Mateo - You (2013) [FLAC]/06 - Natalia Mateo - Bitter Bill.flac

Track gain : -4.67 dB
Peak : 1.000000
CRC32 hash (test run) : 125F0E9A
CRC32 hash : 125F0E9A
CRC32 hash (skip zero) : 4B432D48
AccurateRip v1 signature : B04BA09D
AccurateRip v2 signature : 8FC3D518
->Track not present in AccurateRip database.
Statistics
Read error : 0
Jitter error (maybe fixed) : 0
Retry sector count : 0
Damaged sector count : 0

Track 07
Filename : /Users/Fred/Desktop/UPWhat.Cd/Natalia Mateo - You (2013) [FLAC]/07 - Natalia Mateo - Na Wojtusia Z Popielnika.flac

Track gain : -3.73 dB
Peak : 0.835114
CRC32 hash (test run) : E3987A26
CRC32 hash : E3987A26
CRC32 hash (skip zero) : 027CBA36
AccurateRip v1 signature : 058E41F0
AccurateRip v2 signature : AA5CE269
->Track not present in AccurateRip database.
Statistics
Read error : 0
Jitter error (maybe fixed) : 0
Retry sector count : 0
Damaged sector count : 0

Track 08
Filename : /Users/Fred/Desktop/UPWhat.Cd/Natalia Mateo - You (2013) [FLAC]/08 - Natalia Mateo - Idzie Dziewce.flac

Track gain : -5.22 dB
Peak : 1.000000
CRC32 hash (test run) : FE9B0BA9
CRC32 hash : FE9B0BA9
CRC32 hash (skip zero) : 0E92F458
AccurateRip v1 signature : EB9A56CE
AccurateRip v2 signature : 866A94D1
->Track not present in AccurateRip database.
Statistics
Read error : 0
Jitter error (maybe fixed) : 0
Retry sector count : 0
Damaged sector count : 0

Track 09
Filename : /Users/Fred/Desktop/UPWhat.Cd/Natalia Mateo - You (2013) [FLAC]/09 - Natalia Mateo - Lato.flac

Track gain : 0.01 dB
Peak : 0.999969
CRC32 hash (test run) : 85BE1F69
CRC32 hash : 85BE1F69
CRC32 hash (skip zero) : CABBAF8C
AccurateRip v1 signature : 64CA9AF6
AccurateRip v2 signature : A41AED6A
->Track not present in AccurateRip database.
Statistics
Read error : 0
Jitter error (maybe fixed) : 0
Retry sector count : 0
Damaged sector count : 0

Track 10
Filename : /Users/Fred/Desktop/UPWhat.Cd/Natalia Mateo - You (2013) [FLAC]/10 - Natalia Mateo - Surreal.flac

Track gain : -2.90 dB
Peak : 0.999969
CRC32 hash (test run) : F7A8139C
CRC32 hash : F7A8139C
CRC32 hash (skip zero) : 92293EE4
AccurateRip v1 signature : 07C5A330
AccurateRip v2 signature : F428BF1F
->Track not present in AccurateRip database.
Statistics
Read error : 0
Jitter error (maybe fixed) : 0
Retry sector count : 0
Damaged sector count : 0

No errors occurred

End of status report


Thanks to the Original customer.