Subcategories

Natalia Mateo - Heart Of Darkness (2015) {ACT}

Posted By: tiburon
Natalia Mateo - Heart Of Darkness (2015) {ACT}

Natalia Mateo - Heart Of Darkness (2015) {ACT}
EAC 1.0b3 | FLAC tracks level 8 | Cue+Log+M3U | Full Scans 600dpi | 323MB + 5% Recovery
Genre: Jazz, Vocal Jazz
Natalia Mateo - Heart Of Darkness (2015) {ACT}

The 31 year-old vocalist Natalia Mateo is a wanderer between the worlds - musically and in real life. Born in Poland, raised in Austria and now living in Germany, she has absorbed the most varied of impressions and cultures into her being. She draws from the Slavic ballad tradition, from American jazz and singer-songwriters ranging from Joni Mitchell to Amy Macdonald, and from contemporary pop and rock music, covering Lou Reed, Tom Waits and Lady Gaga. Mateo s music is a highly personal declaration of love to tradition and modernity, to familiarity on the one hand and on the other to the wanderlust throbbing in her heart and head, to the beauty of emotional attachment, of deepest interpersonal relationships and the independence we live while in them.
Track List
01. The Windmills Of Your Mind ( Legrand, Michel) 04:02
02. Tonight I'll Sleep In Space ( Grote, Simon) 02:27
03. Take A Walk On The Wild Side ( Reed, Lou) 04:03
04. Trudno ( traditional) 03:35
05. Inferno ( Kowalczyk, Natalia|Bolte, Christopher) 05:50
06. Somebody Is Watching Me ( Rockwell) 04:28
07. I Put A Spell On You ( Hawkins, Jay) 03:17
08. Strange Fruit ( Allan, Lewis ) 04:30
09. Paparazzi ( Germanotta, Stefani|Fusari, Roberto ) 03:40
10. Chocolate Jesus ( Waits, Tom|Brennan, Kathleen) 04:00
11. Solitudo Diaboli ( Kowalczyk, Natalia ) 06:05
12. Canto I ( Kowalczyk, Natalia ) 02:43
13. Turtle Dove ( Lener, Gregor) 04:49
14. Blue ( Ahmad , Dany ) 04:09

musicians
Natalia Mateo - vocals
Gregor Lener - trumpet & effects
Simon Grote - piano
Dany Ahmad - guitars
Christopher Bolte - bass
Fabian Ristau - drums & percussion
Tobias Christl - vocals on 02 & 12


Exact Audio Copy V1.0 beta 3 from 29. August 2011

EAC extraction logfile from 15. February 2016, 2:07

Natalia Mateo / Heart Of Darkness

Used drive : PLEXTOR DVDR PX-L890SA Adapter: 5 ID: 1

Read mode : Secure
Utilize accurate stream : Yes
Defeat audio cache : Yes
Make use of C2 pointers : No

Read offset correction : 6
Overread into Lead-In and Lead-Out : No
Fill up missing offset samples with silence : Yes
Delete leading and trailing silent blocks : No
Null samples used in CRC calculations : Yes
Used interface : Native Win32 interface for Win NT & 2000
Gap handling : Appended to previous track

Used output format : User Defined Encoder
Selected bitrate : 128 kBit/s
Quality : High
Add ID3 tag : No
Command line compressor : C:\Program Files (x86)\Exact Audio Copy\FLAC\FLAC.EXE
Additional command line options : -8 -V -T "ARTIST=%artist%" -T "TITLE=%title%" -T "ALBUM=%albumtitle%" -T "DATE=%year%" -T "TRACKNUMBER=%tracknr%" -T "TOTALTRACKS=%numtracks%" -T "GENRE=%genre%" -T "ALBUMARTIST=%albumartist%" -T "ALBUM ARTIST=%albumartist%" -T "COMMENT=EAC Secure Mode, Test & Copy, AccurateRip, FLAC -8" %source%


TOC of the extracted CD

Track | Start | Length | Start sector | End sector
––––––––––––––––––––––––––––-
1 | 0:00.00 | 4:01.48 | 0 | 18122
2 | 4:01.48 | 2:26.44 | 18123 | 29116
3 | 6:28.17 | 4:03.23 | 29117 | 47364
4 | 10:31.40 | 3:35.46 | 47365 | 63535
5 | 14:07.11 | 5:50.37 | 63536 | 89822
6 | 19:57.48 | 4:28.14 | 89823 | 109936
7 | 24:25.62 | 3:17.66 | 109937 | 124777
8 | 27:43.53 | 4:30.53 | 124778 | 145080
9 | 32:14.31 | 3:40.56 | 145081 | 161636
10 | 35:55.12 | 3:59.68 | 161637 | 179629
11 | 39:55.05 | 6:04.67 | 179630 | 206996
12 | 45:59.72 | 2:42.53 | 206997 | 219199
13 | 48:42.50 | 4:49.06 | 219200 | 240880
14 | 53:31.56 | 4:09.71 | 240881 | 259626


Track 1

Filename E:\01 - The Windmills Of Your Mind.wav

Pre-gap length 0:00:02.00

Peak level 94.2 %
Extraction speed 3.4 X
Track quality 100.0 %
Test CRC D34220AE
Copy CRC D34220AE
Accurately ripped (confidence 8) [6673F61A] (AR v2)
Copy OK

Track 2

Filename E:\02 - Tonight I'll Sleep In Space.wav

Peak level 94.2 %
Extraction speed 3.4 X
Track quality 100.0 %
Test CRC 7FFB665A
Copy CRC 7FFB665A
Accurately ripped (confidence 8) [65B6D0E8] (AR v2)
Copy OK

Track 3

Filename E:\03 - Take A Walk On The Wild Side.wav

Peak level 94.2 %
Extraction speed 4.0 X
Track quality 100.0 %
Test CRC 1A807058
Copy CRC 1A807058
Accurately ripped (confidence 8) [93CD6DF0] (AR v2)
Copy OK

Track 4

Filename E:\04 - Trudno.wav

Peak level 94.2 %
Extraction speed 4.3 X
Track quality 100.0 %
Test CRC F5D3DAD8
Copy CRC F5D3DAD8
Accurately ripped (confidence 8) [F6CD569E] (AR v2)
Copy OK

Track 5

Filename E:\05 - Inferno.wav

Peak level 91.9 %
Extraction speed 4.9 X
Track quality 100.0 %
Test CRC 2A780BB7
Copy CRC 2A780BB7
Accurately ripped (confidence 8) [0C02DE09] (AR v2)
Copy OK

Track 6

Filename E:\06 - Somebody Is Watching Me.wav

Peak level 94.2 %
Extraction speed 5.1 X
Track quality 100.0 %
Test CRC 9BD4AAF4
Copy CRC 9BD4AAF4
Accurately ripped (confidence 8) [FF667336] (AR v2)
Copy OK

Track 7

Filename E:\07 - I Put A Spell On You.wav

Peak level 94.2 %
Extraction speed 4.0 X
Track quality 99.9 %
Test CRC 331B8777
Copy CRC 331B8777
Accurately ripped (confidence 8) [B14DB8D5] (AR v2)
Copy OK

Track 8

Filename E:\08 - Strange Fruit.wav

Peak level 94.2 %
Extraction speed 5.6 X
Track quality 100.0 %
Test CRC D31117B5
Copy CRC D31117B5
Accurately ripped (confidence 8) [108A7667] (AR v2)
Copy OK

Track 9

Filename E:\09 - Paparazzi.wav

Peak level 94.2 %
Extraction speed 4.4 X
Track quality 99.9 %
Test CRC 6542AE4B
Copy CRC 6542AE4B
Accurately ripped (confidence 8) [FEF75FEB] (AR v2)
Copy OK

Track 10

Filename E:\10 - Chocolate Jesus.wav

Peak level 94.2 %
Extraction speed 5.9 X
Track quality 100.0 %
Test CRC CE856C91
Copy CRC CE856C91
Accurately ripped (confidence 8) [7C082BA1] (AR v2)
Copy OK

Track 11

Filename E:\11 - Solitudo Diaboli.wav

Peak level 94.2 %
Extraction speed 5.6 X
Track quality 99.9 %
Test CRC 002DFF2B
Copy CRC 002DFF2B
Accurately ripped (confidence 8) [D20B4266] (AR v2)
Copy OK

Track 12

Filename E:\12 - Canto I.wav

Peak level 94.2 %
Extraction speed 6.0 X
Track quality 100.0 %
Test CRC 56DE689A
Copy CRC 56DE689A
Accurately ripped (confidence 8) [D26BE3DD] (AR v2)
Copy OK

Track 13

Filename E:\13 - Turtle Dove.wav

Peak level 94.2 %
Extraction speed 6.8 X
Track quality 100.0 %
Test CRC 443069D2
Copy CRC 443069D2
Accurately ripped (confidence 8) [1DD7CAD3] (AR v2)
Copy OK

Track 14

Filename E:\14 - Blue.wav

Peak level 94.2 %
Extraction speed 6.8 X
Track quality 100.0 %
Test CRC 1803C149
Copy CRC 1803C149
Accurately ripped (confidence 8) [2A4F67B8] (AR v2)
Copy OK


All tracks accurately ripped

No errors occurred

End of status report

==== Log checksum FF06708897541C20866286110006E2E02349A13D301D69DB94F98428A190600E ====


––––––––––––––––––––––––––––––––––––––––
Analyzed: Natalia Mateo / Heart Of Darkness
––––––––––––––––––––––––––––––––––––––––

DR Peak RMS Duration Track
––––––––––––––––––––––––––––––––––––––––
DR8 -0.51 dB -10.90 dB 4:02 01-The Windmills Of Your Mind
DR8 -0.51 dB -10.79 dB 2:27 02-Tonight I'll Sleep In Space
DR12 -0.51 dB -15.31 dB 4:03 03-Take A Walk On The Wild Side
DR10 -0.51 dB -13.90 dB 3:36 04-Trudno
DR11 -0.73 dB -14.63 dB 5:50 05-Inferno
DR7 -0.51 dB -12.19 dB 4:28 06-Somebody Is Watching Me
DR7 -0.51 dB -9.45 dB 3:18 07-I Put A Spell On You
DR12 -0.52 dB -16.87 dB 4:31 08-Strange Fruit
DR8 -0.51 dB -11.04 dB 3:41 09-Paparazzi
DR8 -0.51 dB -11.76 dB 4:00 10-Chocolate Jesus
DR8 -0.51 dB -11.45 dB 6:05 11-Solitudo Diaboli
DR11 -0.51 dB -14.11 dB 2:43 12-Canto I
DR9 -0.51 dB -13.59 dB 4:49 13-Turtle Dove
DR8 -0.51 dB -11.71 dB 4:10 14-Blue
––––––––––––––––––––––––––––––––––––––––

Number of tracks: 14
Official DR value: DR9

Samplerate: 44100 Hz
Channels: 2
Bits per sample: 16
Bitrate: 662 kbps
Codec: FLAC
================================================================================

Natalia Mateo - Heart Of Darkness (2015) {ACT}
Natalia Mateo - Heart Of Darkness (2015) {ACT}
Natalia Mateo - Heart Of Darkness (2015) {ACT}


Rip by jlgt